  0
SECTION
  2
HEADER
  9
$ACADVER
  1
AC1024
  9
$ACADMAINTVER
 70
     6
  9
$DWGCODEPAGE
  3
ANSI_1252
  9
$INSBASE
 10
0.0
 20
0.0
 30
0.0
  9
$EXTMIN
 10
0.0
 20
0.0
 30
0.0
  9
$EXTMAX
 10
420.0
 20
297.0
 30
0.0
  9
$LIMMIN
 10
0.0
 20
0.0
  9
$LIMMAX
 10
420.0
 20
297.0
  9
$ORTHOMODE
 70
     0
  9
$REGENMODE
 70
     1
  9
$FILLMODE
 70
     1
  9
$QTEXTMODE
 70
     0
  9
$MIRRTEXT
 70
     1
  9
$LTSCALE
 40
1.0
  9
$ATTMODE
 70
     1
  9
$TEXTSIZE
 40
2.0
  9
$TRACEWID
 40
1.0
  9
$TEXTSTYLE
  7
Standard
  9
$CLAYER
  8
0
  9
$CELTYPE
  6
ByLayer
  9
$CECOLOR
 62
   256
  9
$CELTSCALE
 40
1.0
  9
$DISPSILH
 70
     0
  9
$DIMSCALE
 40
1.0
  9
$DIMASZ
 40
2.8
  9
$DIMEXO
 40
1.0
  9
$DIMDLI
 40
3.75
  9
$DIMRND
 40
0.0
  9
$DIMDLE
 40
0.0
  9
$DIMEXE
 40
1.0
  9
$DIMTP
 40
0.0
  9
$DIMTM
 40
0.0
  9
$DIMTXT
 40
2.0
  9
$DIMCEN
 40
2.5
  9
$DIMTSZ
 40
0.0
  9
$DIMTOL
 70
     0
  9
$DIMLIM
 70
     0
  9
$DIMTIH
 70
     1
  9
$DIMTOH
 70
     1
  9
$DIMSE1
 70
     0
  9
$DIMSE2
 70
     0
  9
$DIMTAD
 70
     1
  9
$DIMZIN
 70
     0
  9
$DIMBLK
  1

  9
$DIMASO
 70
     1
  9
$DIMSHO
 70
     1
  9
$DIMPOST
  1

  9
$DIMAPOST
  1

  9
$DIMALT
 70
     0
  9
$DIMALTD
 70
     3
  9
$DIMALTF
 40
0.0393700787
  9
$DIMLFAC
 40
1.0
  9
$DIMTOFL
 70
     1
  9
$DIMTVP
 40
0.0
  9
$DIMTIX
 70
     0
  9
$DIMSOXD
 70
     0
  9
$DIMSAH
 70
     0
  9
$DIMBLK1
  1

  9
$DIMBLK2
  1

  9
$DIMSTYLE
  2
ISO-25
  9
$DIMCLRD
 70
     0
  9
$DIMCLRE
 70
     0
  9
$DIMCLRT
 70
     0
  9
$DIMTFAC
 40
1.0
  9
$DIMGAP
 40
1.524
  9
$DIMJUST
 70
     0
  9
$DIMSD1
 70
     0
  9
$DIMSD2
 70
     0
  9
$DIMTOLJ
 70
     0
  9
$DIMTZIN
 70
     0
  9
$DIMALTZ
 70
     0
  9
$DIMALTTZ
 70
     0
  9
$DIMUPT
 70
     0
  9
$DIMDEC
 70
     2
  9
$DIMTDEC
 70
     2
  9
$DIMALTU
 70
     2
  9
$DIMALTTD
 70
     3
  9
$DIMTXSTY
  7
Standard
  9
$DIMAUNIT
 70
     0
  9
$DIMADEC
 70
     2
  9
$DIMALTRND
 40
0.0
  9
$DIMAZIN
 70
     0
  9
$DIMDSEP
 70
    44
  9
$DIMATFIT
 70
     3
  9
$DIMFRAC
 70
     0
  9
$DIMLDRBLK
  1

  9
$DIMLUNIT
 70
     2
  9
$DIMLWD
 70
    -2
  9
$DIMLWE
 70
    -2
  9
$DIMTMOVE
 70
     0
  9
$DIMFXL
 40
1.0
  9
$DIMFXLON
 70
     0
  9
$DIMJOGANG
 40
0.7853981634
  9
$DIMTFILL
 70
     0
  9
$DIMTFILLCLR
 70
     0
  9
$DIMARCSYM
 70
     0
  9
$DIMLTYPE
  6

  9
$DIMLTEX1
  6

  9
$DIMLTEX2
  6

  9
$DIMTXTDIRECTION
 70
     0
  9
$LUNITS
 70
     2
  9
$LUPREC
 70
     2
  9
$SKETCHINC
 40
1.0
  9
$FILLETRAD
 40
10.0
  9
$AUNITS
 70
     0
  9
$AUPREC
 70
     2
  9
$MENU
  1
.
  9
$ELEVATION
 40
0.0
  9
$PELEVATION
 40
0.0
  9
$THICKNESS
 40
0.0
  9
$LIMCHECK
 70
     0
  9
$CHAMFERA
 40
0.0
  9
$CHAMFERB
 40
0.0
  9
$CHAMFERC
 40
0.0
  9
$CHAMFERD
 40
0.0
  9
$SKPOLY
 70
     0
  9
$TDCREATE
 40
2458915.415161181
  9
$TDUCREATE
 40
2458915.373494514
  9
$TDUPDATE
 40
2458915.415162627
  9
$TDUUPDATE
 40
2458915.373495961
  9
$TDINDWG
 40
0.0000000116
  9
$TDUSRTIMER
 40
0.0000000116
  9
$USRTIMER
 70
     1
  9
$ANGBASE
 50
0.0
  9
$ANGDIR
 70
     0
  9
$PDMODE
 70
     0
  9
$PDSIZE
 40
-1.0
  9
$PLINEWID
 40
0.0
  9
$SPLFRAME
 70
     0
  9
$SPLINETYPE
 70
     6
  9
$SPLINESEGS
 70
     8
  9
$HANDSEED
  5
383
  9
$SURFTAB1
 70
     6
  9
$SURFTAB2
 70
     6
  9
$SURFTYPE
 70
     6
  9
$SURFU
 70
     6
  9
$SURFV
 70
     6
  9
$UCSBASE
  2

  9
$UCSNAME
  2

  9
$UCSORG
 10
0.0
 20
0.0
 30
0.0
  9
$UCSXDIR
 10
1.0
 20
0.0
 30
0.0
  9
$UCSYDIR
 10
0.0
 20
1.0
 30
0.0
  9
$UCSORTHOREF
  2

  9
$UCSORTHOVIEW
 70
     0
  9
$UCSORGTOP
 10
0.0
 20
0.0
 30
0.0
  9
$UCSORGBOTTOM
 10
0.0
 20
0.0
 30
0.0
  9
$UCSORGLEFT
 10
0.0
 20
0.0
 30
0.0
  9
$UCSORGRIGHT
 10
0.0
 20
0.0
 30
0.0
  9
$UCSORGFRONT
 10
0.0
 20
0.0
 30
0.0
  9
$UCSORGBACK
 10
0.0
 20
0.0
 30
0.0
  9
$PUCSBASE
  2

  9
$PUCSNAME
  2

  9
$PUCSORG
 10
0.0
 20
0.0
 30
0.0
  9
$PUCSXDIR
 10
1.0
 20
0.0
 30
0.0
  9
$PUCSYDIR
 10
0.0
 20
1.0
 30
0.0
  9
$PUCSORTHOREF
  2

  9
$PUCSORTHOVIEW
 70
     0
  9
$PUCSORGTOP
 10
0.0
 20
0.0
 30
0.0
  9
$PUCSORGBOTTOM
 10
0.0
 20
0.0
 30
0.0
  9
$PUCSORGLEFT
 10
0.0
 20
0.0
 30
0.0
  9
$PUCSORGRIGHT
 10
0.0
 20
0.0
 30
0.0
  9
$PUCSORGFRONT
 10
0.0
 20
0.0
 30
0.0
  9
$PUCSORGBACK
 10
0.0
 20
0.0
 30
0.0
  9
$USERI1
 70
     0
  9
$USERI2
 70
     0
  9
$USERI3
 70
     0
  9
$USERI4
 70
     0
  9
$USERI5
 70
     0
  9
$USERR1
 40
0.0
  9
$USERR2
 40
0.0
  9
$USERR3
 40
0.0
  9
$USERR4
 40
0.0
  9
$USERR5
 40
0.0
  9
$WORLDVIEW
 70
     1
  9
$SHADEDGE
 70
     3
  9
$SHADEDIF
 70
    70
  9
$TILEMODE
 70
     1
  9
$MAXACTVP
 70
    64
  9
$PINSBASE
 10
0.0
 20
0.0
 30
0.0
  9
$PLIMCHECK
 70
     0
  9
$PEXTMIN
 10
1.0000000000E+20
 20
1.0000000000E+20
 30
1.0000000000E+20
  9
$PEXTMAX
 10
-1.0000000000E+20
 20
-1.0000000000E+20
 30
-1.0000000000E+20
  9
$PLIMMIN
 10
0.0
 20
0.0
  9
$PLIMMAX
 10
420.0
 20
297.0
  9
$UNITMODE
 70
     0
  9
$VISRETAIN
 70
     1
  9
$PLINEGEN
 70
     0
  9
$PSLTSCALE
 70
     1
  9
$TREEDEPTH
 70
  3020
  9
$CMLSTYLE
  2
Standard
  9
$CMLJUST
 70
     0
  9
$CMLSCALE
 40
20.0
  9
$PROXYGRAPHICS
 70
     1
  9
$MEASUREMENT
 70
     1
  9
$CELWEIGHT
370
    -1
  9
$ENDCAPS
280
     0
  9
$JOINSTYLE
280
     0
  9
$LWDISPLAY
290
     1
  9
$INSUNITS
 70
     4
  9
$HYPERLINKBASE
  1

  9
$STYLESHEET
  1

  9
$XEDIT
290
     1
  9
$CEPSNTYPE
380
     0
  9
$PSTYLEMODE
290
     1
  9
$FINGERPRINTGUID
  2
{46759e3e-31ef-419a-8ac3-4e5ca77419c6}
  9
$VERSIONGUID
  2
{FAEB1C32-E019-11D5-929B-00C0DF256EC4}
  9
$EXTNAMES
290
     1
  9
$PSVPSCALE
 40
0.0
  9
$OLESTARTUP
290
     0
  9
$SORTENTS
280
   127
  9
$INDEXCTL
280
     0
  9
$HIDETEXT
280
     1
  9
$XCLIPFRAME
280
     2
  9
$HALOGAP
280
     0
  9
$OBSCOLOR
 70
   257
  9
$OBSLTYPE
280
     0
  9
$INTERSECTIONDISPLAY
280
     0
  9
$INTERSECTIONCOLOR
 70
   257
  9
$DIMASSOC
280
     2
  9
$PROJECTNAME
  1

  9
$CAMERADISPLAY
290
     0
  9
$LENSLENGTH
 40
50.0
  9
$CAMERAHEIGHT
 40
0.0
  9
$STEPSPERSEC
 40
2.0
  9
$STEPSIZE
 40
6.0
  9
$3DDWFPREC
 40
2.0
  9
$PSOLWIDTH
 40
5.0
  9
$PSOLHEIGHT
 40
80.0
  9
$LOFTANG1
 40
1.5707963268
  9
$LOFTANG2
 40
1.5707963268
  9
$LOFTMAG1
 40
0.0
  9
$LOFTMAG2
 40
0.0
  9
$LOFTPARAM
 70
     7
  9
$LOFTNORMALS
280
     1
  9
$LATITUDE
 40
37.795
  9
$LONGITUDE
 40
-122.394
  9
$NORTHDIRECTION
 40
0.0
  9
$TIMEZONE
 70
 -8000
  9
$LIGHTGLYPHDISPLAY
280
     1
  9
$TILEMODELIGHTSYNCH
280
     1
  9
$CMATERIAL
347
44
  9
$SOLIDHIST
280
     0
  9
$SHOWHIST
280
     1
  9
$DWFFRAME
280
     2
  9
$DGNFRAME
280
     2
  9
$REALWORLDSCALE
290
     1
  9
$INTERFERECOLOR
 62
   256
  9
$CSHADOW
280
     0
  9
$SHADOWPLANELOCATION
 40
0.0
  0
ENDSEC
  0
SECTION
  2
CLASSES
  0
CLASS
  1
ACDBDICTIONARYWDFLT
  2
AcDbDictionaryWithDefault
  3
ObjectDBX Classes
 90
        0
 91
        3
280
     0
281
     0
  0
CLASS
  1
VISUALSTYLE
  2
AcDbVisualStyle
  3
ObjectDBX Classes
 90
     4095
 91
        3
280
     0
281
     0
  0
CLASS
  1
MATERIAL
  2
AcDbMaterial
  3
ObjectDBX Classes
 90
     1153
 91
        3
280
     0
281
     0
  0
CLASS
  1
SCALE
  2
AcDbScale
  3
ObjectDBX Classes
 90
     1153
 91
        3
280
     0
281
     0
  0
CLASS
  1
TABLESTYLE
  2
AcDbTableStyle
  3
ObjectDBX Classes
 90
     4095
 91
        3
280
     0
281
     0
  0
CLASS
  1
MLEADERSTYLE
  2
AcDbMLeaderStyle
  3
ACDB_MLEADERSTYLE_CLASS
 90
     4095
 91
        3
280
     0
281
     0
  0
CLASS
  1
SUN
  2
AcDbSun
  3
SCENEOE
 90
     1153
 91
        3
280
     0
281
     0
  0
CLASS
  1
DICTIONARYVAR
  2
AcDbDictionaryVar
  3
ObjectDBX Classes
 90
        0
 91
        3
280
     0
281
     0
  0
CLASS
  1
CELLSTYLEMAP
  2
AcDbCellStyleMap
  3
ObjectDBX Classes
 90
     1152
 91
        3
280
     0
281
     0
  0
ENDSEC
  0
SECTION
  2
TABLES
  0
TABLE
  2
VPORT
  5
8
330
0
100
AcDbSymbolTable
 70
     1
  0
VPORT
  5
29
330
8
100
AcDbSymbolTableRecord
100
AcDbViewportTableRecord
  2
*Active
 70
     0
 10
0.0
 20
0.0
 11
1.0
 21
1.0
 12
210.0
 22
148.5
 13
0.0
 23
0.0
 14
10.0
 24
10.0
 15
10.0
 25
10.0
 16
0.0
 26
0.0
 36
1.0
 17
0.0
 27
0.0
 37
0.0
 40
297.0
 41
1.4141414141
 42
50.0
 43
0.0
 44
0.0
 50
0.0
 51
0.0
 71
     0
 72
  2000
 73
     1
 74
     3
 75
     0
 76
     0
 77
     0
 78
     0
281
     0
 65
     1
110
0.0
120
0.0
130
0.0
111
1.0
121
0.0
131
0.0
112
0.0
122
1.0
132
0.0
 79
     0
146
0.0
348
2F
 60
     3
 61
     5
292
     1
282
     1
141
0.0
142
0.0
 63
   250
361
6D
  0
ENDTAB
  0
TABLE
  2
LTYPE
  5
5
330
0
100
AcDbSymbolTable
 70
     6
  0
LTYPE
  5
14
330
5
100
AcDbSymbolTableRecord
100
AcDbLinetypeTableRecord
  2
ByBlock
 70
     0
  3

 72
    65
 73
     0
 40
0.0
  0
LTYPE
  5
15
330
5
100
AcDbSymbolTableRecord
100
AcDbLinetypeTableRecord
  2
ByLayer
 70
     0
  3

 72
    65
 73
     0
 40
0.0
  0
LTYPE
  5
16
330
5
100
AcDbSymbolTableRecord
100
AcDbLinetypeTableRecord
  2
Continuous
 70
     0
  3
Solid line
 72
    65
 73
     0
 40
0.0
  0
LTYPE
  5
6E
330
5
100
AcDbSymbolTableRecord
100
AcDbLinetypeTableRecord
  2
HIDDEN
 70
     0
  3
Hidden __ __ __ __ __ __ __ __ __ __ __ __ __ __
 72
    65
 73
     2
 40
1.905
 49
1.27
 74
     0
 49
-0.635
 74
     0
  0
LTYPE
  5
6F
330
5
100
AcDbSymbolTableRecord
100
AcDbLinetypeTableRecord
  2
PHANTOM
 70
     0
  3
Phantom ______  __  __  ______  __  __  ______
 72
    65
 73
     6
 40
12.7
 49
6.35
 74
     0
 49
-1.27
 74
     0
 49
1.27
 74
     0
 49
-1.27
 74
     0
 49
1.27
 74
     0
 49
-1.27
 74
     0
  0
LTYPE
  5
70
330
5
100
AcDbSymbolTableRecord
100
AcDbLinetypeTableRecord
  2
CENTER
 70
     0
  3
Center ____ _ ____ _ ____ _ ____ _ ____ _ ____
 72
    65
 73
     4
 40
10.16
 49
6.35
 74
     0
 49
-1.27
 74
     0
 49
1.27
 74
     0
 49
-1.27
 74
     0
  0
LTYPE
  5
71
330
5
100
AcDbSymbolTableRecord
100
AcDbLinetypeTableRecord
  2
CENTERX2
 70
     0
  3
Center (2x) ________  __  ________  __  _____
 72
    65
 73
     4
 40
20.32
 49
12.7
 74
     0
 49
-2.54
 74
     0
 49
2.54
 74
     0
 49
-2.54
 74
     0
  0
LTYPE
  5
72
330
5
100
AcDbSymbolTableRecord
100
AcDbLinetypeTableRecord
  2
DOT2
 70
     0
  3
Dot (.5x) ........................................
 72
    65
 73
     2
 40
0.635
 49
0.0
 74
     0
 49
-0.635
 74
     0
  0
ENDTAB
  0
TABLE
  2
LAYER
  5
2
330
0
100
AcDbSymbolTable
 70
     4
  0
LAYER
  5
10
330
2
100
AcDbSymbolTableRecord
100
AcDbLayerTableRecord
  2
0
 70
     0
 62
     7
  6
Continuous
370
    -3
390
F
347
46
  0
LAYER
  5
73
330
2
100
AcDbSymbolTableRecord
100
AcDbLayerTableRecord
  2
TRAIT_DE_DÉTAIL
 70
     0
 62
     9
  6
HIDDEN
370
    -3
390
F
347
46
  0
LAYER
  5
74
330
2
100
AcDbSymbolTableRecord
100
AcDbLayerTableRecord
  2
COTATION
 70
     0
 62
     8
  6
Continuous
370
    -3
390
F
347
46
  0
LAYER
  5
75
330
2
100
AcDbSymbolTableRecord
100
AcDbLayerTableRecord
  2
DÉFAUT
 70
     0
 62
     7
  6
Continuous
370
    -3
390
F
347
46
  0
ENDTAB
  0
TABLE
  2
STYLE
  5
3
330
0
100
AcDbSymbolTable
 70
     2
  0
STYLE
  5
11
330
3
100
AcDbSymbolTableRecord
100
AcDbTextStyleTableRecord
  2
Standard
 70
     0
 40
0.0
 41
1.0
 50
0.0
 71
     0
 42
2.0
  3
txt
  4

  0
STYLE
  5
1BD
330
3
100
AcDbSymbolTableRecord
100
AcDbTextStyleTableRecord
  2
SLDTEXTSTYLE0
 70
     0
 40
0.0
 41
0.605
 50
0.0
 71
     0
 42
2.0
  3
TXT
  4

  0
ENDTAB
  0
TABLE
  2
VIEW
  5
6
330
0
100
AcDbSymbolTable
 70
     0
  0
ENDTAB
  0
TABLE
  2
UCS
  5
7
330
0
100
AcDbSymbolTable
 70
     0
  0
ENDTAB
  0
TABLE
  2
APPID
  5
9
330
0
100
AcDbSymbolTable
 70
     1
  0
APPID
  5
12
330
9
100
AcDbSymbolTableRecord
100
AcDbRegAppTableRecord
  2
ACAD
 70
     0
  0
ENDTAB
  0
TABLE
  2
DIMSTYLE
  5
A
330
0
100
AcDbSymbolTable
 70
     2
100
AcDbDimStyleTable
  0
DIMSTYLE
105
27
330
A
100
AcDbSymbolTableRecord
100
AcDbDimStyleTableRecord
  2
ISO-25
 70
     0
 41
2.5
 42
0.625
 43
3.75
 44
1.25
 73
     0
 74
     0
 77
     1
 78
     8
140
2.5
141
2.5
143
0.0393700787
147
0.625
171
     3
172
     1
178
     0
271
     2
272
     2
274
     3
278
    44
283
     0
284
     8
340
11
  0
DIMSTYLE
105
1BE
102
{ACAD_REACTORS
330
1BC
102
}
330
A
100
AcDbSymbolTableRecord
100
AcDbDimStyleTableRecord
  2
SLDDIMSTYLE0
 70
     0
 41
2.8
 44
0.0
 45
0.000000001
 73
     0
 74
     0
 75
     1
 76
     1
 77
     1
 78
    12
 79
     3
140
2.0
147
0.5
173
     1
178
     0
271
     2
272
     2
276
     2
284
    12
340
1BD
  0
ENDTAB
  0
TABLE
  2
BLOCK_RECORD
  5
1
330
0
100
AcDbSymbolTable
 70
     2
  0
BLOCK_RECORD
  5
1F
330
1
100
AcDbSymbolTableRecord
100
AcDbBlockTableRecord
  2
*Model_Space
340
22
 70
     0
280
     1
281
     0
  0
BLOCK_RECORD
  5
1B
330
1
100
AcDbSymbolTableRecord
100
AcDbBlockTableRecord
  2
*Paper_Space
340
1E
 70
     0
280
     1
281
     0
  0
BLOCK_RECORD
  5
23
330
1
100
AcDbSymbolTableRecord
100
AcDbBlockTableRecord
  2
*Paper_Space0
340
26
 70
     0
280
     1
281
     0
  0
BLOCK_RECORD
  5
1BF
330
1
100
AcDbSymbolTableRecord
100
AcDbBlockTableRecord
  2
_D
340
0
 70
     0
280
     1
281
     0
  0
ENDTAB
  0
ENDSEC
  0
SECTION
  2
BLOCKS
  0
BLOCK
  5
20
330
1F
100
AcDbEntity
  8
0
100
AcDbBlockBegin
  2
*Model_Space
 70
     0
 10
0.0
 20
0.0
 30
0.0
  3
*Model_Space
  1

  0
ENDBLK
  5
21
330
1F
100
AcDbEntity
  8
0
100
AcDbBlockEnd
  0
BLOCK
  5
1C
330
1B
100
AcDbEntity
 67
     1
  8
0
100
AcDbBlockBegin
  2
*Paper_Space
 70
     0
 10
0.0
 20
0.0
 30
0.0
  3
*Paper_Space
  1

  0
ENDBLK
  5
1D
330
1B
100
AcDbEntity
 67
     1
  8
0
100
AcDbBlockEnd
  0
BLOCK
  5
24
330
23
100
AcDbEntity
  8
0
100
AcDbBlockBegin
  2
*Paper_Space0
 70
     0
 10
0.0
 20
0.0
 30
0.0
  3
*Paper_Space0
  1

  0
ENDBLK
  5
25
330
23
100
AcDbEntity
  8
0
100
AcDbBlockEnd
  0
BLOCK
  5
1C0
330
1BF
100
AcDbEntity
  8
0
100
AcDbBlockBegin
  2
_D
 70
     0
 10
0.0
 20
0.0
 30
0.0
  3
_D
  1

  0
SOLID
  5
1C2
330
1BF
100
AcDbEntity
  8
DÉFAUT
100
AcDbTrace
 10
-79.8002836999
 20
-6.2825399885
 30
0.0
 11
-79.4002836999
 21
-3.4825399885
 31
0.0
 12
-80.2002836999
 22
-3.4825399885
 32
0.0
 13
-80.2002836999
 23
-3.4825399885
 33
0.0
  0
SOLID
  5
1C3
330
1BF
100
AcDbEntity
  8
DÉFAUT
100
AcDbTrace
 10
-79.8002836999
 20
333.9864387079
 30
0.0
 11
-80.2002836999
 21
331.1864387079
 31
0.0
 12
-79.4002836999
 22
331.1864387079
 32
0.0
 13
-79.4002836999
 23
331.1864387079
 33
0.0
  0
LINE
  5
1C4
330
1BF
100
AcDbEntity
  8
DÉFAUT
100
AcDbLine
 10
-79.8002836999
 20
-6.2825399885
 30
0.0
 11
-79.8002836999
 21
333.9864387079
 31
0.0
  0
MTEXT
  5
1C5
330
1BF
100
AcDbEntity
  8
DÉFAUT
100
AcDbMText
 10
-82.3784192376
 20
161.8097920248
 30
0.0
 40
2.0
 41
0.0
 46
0.0
 71
     1
 72
     1
  1
340,27
  7
SLDTEXTSTYLE0
 11
-7.044195017643634E-15
 21
1.0
 31
0.0
 73
     1
 44
1.0
  0
ENDBLK
  5
1C1
330
1BF
100
AcDbEntity
  8
0
100
AcDbBlockEnd
  0
ENDSEC
  0
SECTION
  2
ENTITIES
  0
ARC
  5
76
330
1F
100
AcDbEntity
  8
0
  6
Continuous
 62
     7
100
AcDbCircle
 10
44.4454988789
 20
329.029987095
 30
0.0
 40
5.556451612903262
100
AcDbArc
 50
101.0169431111
 51
116.8721404343
  0
ARC
  5
77
330
1F
100
AcDbEntity
  8
0
  6
Continuous
 62
     7
100
AcDbCircle
 10
44.4454988789
 20
329.029987095
 30
0.0
 40
5.556451612903258
100
AcDbArc
 50
63.1278595657
 51
78.9830568889
  0
ARC
  5
78
330
1F
100
AcDbEntity
  8
0
  6
Continuous
 62
     7
100
AcDbCircle
 10
43.977423577
 20
332.5347211057
 30
0.0
 40
2.021875085714226
100
AcDbArc
 50
101.5682131385
 51
128.6802210417
  0
LINE
  5
79
330
1F
100
AcDbEntity
  8
0
  6
Continuous
 62
     7
100
AcDbLine
 10
43.6369211421
 20
334.1130902074
 30
0.0
 11
42.7138058178
 21
334.1130902074
 31
0.0
  0
ARC
  5
7A
330
1F
100
AcDbEntity
  8
0
  6
Continuous
 62
     7
100
AcDbCircle
 10
45.1030531205
 20
331.9747460748
 30
0.0
 40
2.59269331144658
100
AcDbArc
 50
101.4850439628
 51
124.4360524099
  0
ARC
  5
7B
330
1F
100
AcDbEntity
  8
0
  6
Continuous
 62
     7
100
AcDbCircle
 10
44.0048201132
 20
330.3994142026
 30
0.0
 40
4.157052919240956
100
AcDbArc
 50
63.2964378591
 51
81.952029925
  0
LINE
  5
7C
330
1F
100
AcDbEntity
  8
0
  6
Continuous
 62
     7
100
AcDbLine
 10
46.5389217504
 20
334.1130902074
 30
0.0
 11
45.872893855
 21
334.1130902074
 31
0.0
  0
ARC
  5
7D
330
1F
100
AcDbEntity
  8
0
  6
Continuous
 62
     7
100
AcDbCircle
 10
44.8169620593
 20
330.9434855131
 30
0.0
 40
3.607151105218589
100
AcDbArc
 50
61.4859745201
 51
81.9992092736
  0
LWPOLYLINE
  5
7E
330
1F
100
AcDbEntity
  8
0
  6
Continuous
 62
     7
100
AcDbPolyline
 90
        3
 70
   128
 43
0.0
 10
44.3041813402
 20
334.5155251431
 10
44.4233777866
 20
334.4896188304
 10
44.4454988789
 20
334.4840372821
  0
ARC
  5
7F
330
1F
100
AcDbEntity
  8
0
  6
Continuous
 62
     7
100
AcDbCircle
 10
44.8527489893
 20
330.5467056731
 30
0.0
 40
4.006551441242698
100
AcDbArc
 50
97.8695235439
 51
108.1642410236
  0
LWPOLYLINE
  5
80
330
1F
100
AcDbEntity
  8
0
  6
Continuous
 62
     7
100
AcDbPolyline
 90
        3
 70
   128
 43
0.0
 10
43.5719679966
 20
334.5155251431
 10
43.4129842312
 20
334.4896188304
 10
43.3836650485
 20
334.4840372821
  0
LINE
  5
81
330
1F
100
AcDbEntity
  8
0
  6
Continuous
 62
     7
100
AcDbLine
 10
43.5719679966
 20
334.5155251431
 30
0.0
 11
43.6493195249
 21
334.1212844623
 31
0.0
  0
LINE
  5
82
330
1F
100
AcDbEntity
  8
0
  6
Continuous
 62
     7
100
AcDbLine
 10
45.3190297613
 20
334.5155251431
 30
0.0
 11
45.2872590033
 21
334.3535978288
 31
0.0
  0
LINE
  5
83
330
1F
100
AcDbEntity
  8
0
  6
Continuous
 62
     7
100
AcDbLine
 10
44.3041813402
 20
334.5155251431
 30
0.0
 11
44.3064697434
 21
334.4434297868
 31
0.0
  0
LINE
  5
84
330
1F
100
AcDbEntity
  8
0
  6
Continuous
 62
     7
100
AcDbLine
 10
149.5965213383
 20
187.1313202707
 30
0.0
 11
-60.7055235805
 21
187.1313202707
 31
0.0
  0
LINE
  5
85
330
1F
100
AcDbEntity
  8
0
  6
Continuous
 62
     7
100
AcDbLine
 10
149.5965213383
 20
187.1313202707
 30
0.0
 11
151.6911291297
 21
187.1313202707
 31
0.0
  0
ELLIPSE
  5
86
330
1F
100
AcDbEntity
  8
0
  6
Continuous
 62
     7
100
AcDbEllipse
 10
151.6911291297
 20
188.1313202707
 30
0.0
 11
1.000152328043896
 21
0.0
 31
0.0
210
0.0
220
0.0
230
1.0
 40
0.9998476952
 41
4.712388980384704
 42
6.283185307179586
  0
LINE
  5
87
330
1F
100
AcDbEntity
  8
0
  6
Continuous
 62
     7
100
AcDbLine
 10
-60.7055235805
 20
187.1313202707
 30
0.0
 11
-62.8001313719
 21
187.1313202707
 31
0.0
  0
ELLIPSE
  5
88
330
1F
100
AcDbEntity
  8
0
  6
Continuous
 62
     7
100
AcDbEllipse
 10
-62.8001313719
 20
188.1313202707
 30
0.0
 11
-1.000152328043903
 21
0.0
 31
0.0
210
0.0
220
0.0
230
1.0
 40
0.9998476952
 41
0.0
 42
1.570796326794897
  0
LINE
  5
89
330
1F
100
AcDbEntity
  8
0
  6
Continuous
 62
     7
100
AcDbLine
 10
-63.8002836999
 20
190.5671180089
 30
0.0
 11
-63.8002836999
 21
188.1313202707
 31
0.0
  0
LINE
  5
8A
330
1F
100
AcDbEntity
  8
0
  6
Continuous
 62
     7
100
AcDbLine
 10
152.6912814577
 20
190.5671180089
 30
0.0
 11
152.6912814577
 21
188.1313202707
 31
0.0
  0
ELLIPSE
  5
8B
330
1F
100
AcDbEntity
  8
0
  6
Continuous
 62
     7
100
AcDbEllipse
 10
151.6911291297
 20
190.5671180089
 30
0.0
 11
-1.000152328043924
 21
0.0
 31
0.0
210
0.0
220
0.0
230
1.0
 40
0.9998476952
 41
3.141592653589786
 42
4.168955918609083
  0
ELLIPSE
  5
8C
330
1F
100
AcDbEntity
  8
0
  6
Continuous
 62
     7
100
AcDbEllipse
 10
-62.8001313719
 20
190.5671180089
 30
0.0
 11
1.000152328043903
 21
0.0
 31
0.0
210
0.0
220
0.0
230
1.0
 40
0.9998476952
 41
2.114229388570509
 42
3.141592653589793
  0
LINE
  5
8D
330
1F
100
AcDbEntity
  8
0
  6
Continuous
 62
     7
100
AcDbLine
 10
129.0527248986
 20
205.4093363421
 30
0.0
 11
152.2082854181
 21
191.4230565787
 31
0.0
  0
LINE
  5
8E
330
1F
100
AcDbEntity
  8
0
  6
Continuous
 62
     7
100
AcDbLine
 10
-40.1617271407
 20
205.4093363421
 30
0.0
 11
-63.3172876602
 21
191.4230565787
 31
0.0
  0
ELLIPSE
  5
8F
330
1F
100
AcDbEntity
  8
0
  6
Continuous
 62
     7
100
AcDbEllipse
 10
-59.7196592432
 20
174.4313202707
 30
0.0
 11
0.0
 21
12.69999999999999
 31
0.0
210
0.0
220
0.0
230
1.0
 40
0.9813468354
 41
4.865601417619184
 42
6.283185307179586
  0
LINE
  5
90
330
1F
100
AcDbEntity
  8
0
  6
Continuous
 62
     7
100
AcDbLine
 10
121.4923346638
 20
176.2070762947
 30
0.0
 11
-32.6013369059
 21
176.2070762947
 31
0.0
  0
ELLIPSE
  5
91
330
1F
100
AcDbEntity
  8
0
  6
Continuous
 62
     7
100
AcDbEllipse
 10
148.610657001
 20
174.4313202707
 30
0.0
 11
0.0
 21
12.69999999999999
 31
0.0
210
0.0
220
0.0
230
1.0
 40
0.9813468354
 41
0.0
 42
1.417583889560418
  0
ELLIPSE
  5
92
330
1F
100
AcDbEntity
  8
0
  6
Continuous
 62
     7
100
AcDbEllipse
 10
150.690341379
 20
174.4313202707
 30
0.0
 11
-12.7019345661576
 21
8.526512829121203E-14
 31
0.0
210
0.0
220
0.0
230
1.0
 40
0.9998476952
 41
4.712388980384708
 42
6.129972869945124
  0
LINE
  5
93
330
1F
100
AcDbEntity
  8
0
  6
Continuous
 62
     7
100
AcDbLine
 10
136.5327862431
 20
176.3695145268
 30
0.0
 11
137.8926778169
 21
176.3695145268
 31
0.0
  0
LINE
  5
94
330
1F
100
AcDbEntity
  8
0
  6
Continuous
 62
     7
100
AcDbLine
 10
-47.6417884853
 20
176.3695145268
 30
0.0
 11
-49.0016800591
 21
176.3695145268
 31
0.0
  0
ELLIPSE
  5
95
330
1F
100
AcDbEntity
  8
0
  6
Continuous
 62
     7
100
AcDbEllipse
 10
-61.7993436211
 20
174.4313202707
 30
0.0
 11
12.70193456615762
 21
8.526512829121201E-14
 31
0.0
210
0.0
220
0.0
230
1.0
 40
0.9998476952
 41
0.153212437234475
 42
1.570796326794892
  0
ARC
  5
96
330
1F
100
AcDbEntity
  8
0
  6
Continuous
 62
     7
100
AcDbCircle
 10
121.5158098447
 20
172.2331650881
 30
0.0
 40
3.973980543735495
100
AcDbArc
 50
351.663145568
 51
90.3384607952
  0
ARC
  5
97
330
1F
100
AcDbEntity
  8
0
  6
Continuous
 62
     7
100
AcDbCircle
 10
121.5040722542
 20
172.4744191248
 30
0.0
 40
1.986990271867718
100
AcDbArc
 50
351.663145568
 51
90.3384607952
  0
ARC
  5
98
330
1F
100
AcDbEntity
  8
0
  6
Continuous
 62
     7
100
AcDbCircle
 10
-32.6248120869
 20
172.2331650881
 30
0.0
 40
3.973980543735471
100
AcDbArc
 50
89.6615392048
 51
188.336854432
  0
LINE
  5
99
330
1F
100
AcDbEntity
  8
0
  6
Continuous
 62
     7
100
AcDbLine
 10
-11.5949667797
 20
7.4142110291
 30
0.0
 11
-36.5567985051
 21
171.6569670587
 31
0.0
  0
ARC
  5
9A
330
1F
100
AcDbEntity
  8
0
  6
Continuous
 62
     7
100
AcDbCircle
 10
-7.6552001566
 20
8.0305653844
 30
0.0
 40
3.987687768113619
100
AcDbArc
 50
188.8915306808
 51
270.2255086808
  0
LINE
  5
9B
330
1F
100
AcDbEntity
  8
0
  6
Continuous
 62
     7
100
AcDbLine
 10
96.5305029384
 20
4.042908503
 30
0.0
 11
-7.6395051806
 21
4.042908503
 31
0.0
  0
ARC
  5
9C
330
1F
100
AcDbEntity
  8
0
  6
Continuous
 62
     7
100
AcDbCircle
 10
96.5461979144
 20
8.0305653844
 30
0.0
 40
3.987687768113543
100
AcDbArc
 50
269.7744913192
 51
351.1084693192
  0
LINE
  5
9D
330
1F
100
AcDbEntity
  8
0
  6
Continuous
 62
     7
100
AcDbLine
 10
100.4859645376
 20
7.4142110291
 30
0.0
 11
125.4477962629
 21
171.6569670587
 31
0.0
  0
ARC
  5
9E
330
1F
100
AcDbEntity
  8
0
  6
Continuous
 62
     7
100
AcDbCircle
 10
-32.6130744964
 20
172.4744191248
 30
0.0
 40
1.986990271867754
100
AcDbArc
 50
89.6615392048
 51
188.336854432
  0
LINE
  5
9F
330
1F
100
AcDbEntity
  8
0
  6
Continuous
 62
     7
100
AcDbLine
 10
121.4923346638
 20
174.4613747281
 30
0.0
 11
-32.6013369059
 21
174.4613747281
 31
0.0
  0
LINE
  5
A0
330
1F
100
AcDbEntity
  8
0
  6
Continuous
 62
     7
100
AcDbLine
 10
123.4700654633
 20
172.1863201101
 30
0.0
 11
98.508233738
 21
7.9435640806
 31
0.0
  0
LINE
  5
A1
330
1F
100
AcDbEntity
  8
0
  6
Continuous
 62
     7
100
AcDbLine
 10
-34.5790677055
 20
172.1863201101
 30
0.0
 11
-9.6172359801
 21
7.9435640806
 31
0.0
  0
LINE
  5
A2
330
1F
100
AcDbEntity
  8
0
  6
Continuous
 62
     7
100
AcDbLine
 10
-22.8425417845
 20
5.6385099452
 30
0.0
 11
-22.8766385824
 21
5.6332438256
 31
0.0
  0
LINE
  5
A3
330
1F
100
AcDbEntity
  8
0
  6
Continuous
 62
     7
100
AcDbLine
 10
-48.8685204801
 20
174.1501653191
 30
0.0
 11
-22.8425417845
 21
5.6385099452
 31
0.0
  0
LINE
  5
A4
330
1F
100
AcDbEntity
  8
0
  6
Continuous
 62
     7
100
AcDbLine
 10
-48.902617278
 20
174.1448991995
 30
0.0
 11
-48.8685204801
 21
174.1501653191
 31
0.0
  0
LINE
  5
A5
330
1F
100
AcDbEntity
  8
0
  6
Continuous
 62
     7
100
AcDbLine
 10
-49.2462005808
 20
176.3695145268
 30
0.0
 11
-48.902617278
 21
174.1448991995
 31
0.0
  0
ARC
  5
A6
330
1F
100
AcDbEntity
  8
0
  6
Continuous
 62
     7
100
AcDbCircle
 10
8.3798590335
 20
182.1996348897
 30
0.0
 40
57.6769566819093
100
AcDbArc
 50
185.801498443
 51
189.7764402844
  0
LINE
  5
A7
330
1F
100
AcDbEntity
  8
0
  6
Continuous
 62
     7
100
AcDbLine
 10
-22.8823735475
 20
6.8003796385
 30
0.0
 11
-48.459501602
 21
172.4058401895
 31
0.0
  0
ARC
  5
A8
330
1F
100
AcDbEntity
  8
0
  6
Continuous
 62
     7
100
AcDbCircle
 10
32.620896715
 20
14.3407126908
 30
0.0
 40
56.01312018065784
100
AcDbArc
 50
187.7364887775
 51
191.8291229195
  0
LINE
  5
A9
330
1F
100
AcDbEntity
  8
0
  6
Continuous
 62
     7
100
AcDbLine
 10
-21.3959879668
 20
3.8124354224
 30
0.0
 11
-22.202690692
 21
2.8583829535
 31
0.0
  0
ARC
  5
AA
330
1F
100
AcDbEntity
  8
0
  6
Continuous
 62
     7
100
AcDbCircle
 10
-70.4233837094
 20
-1.043406345
 30
0.0
 40
49.2672785180072
100
AcDbArc
 50
5.6563236186
 51
9.665927164
  0
LINE
  5
AB
330
1F
100
AcDbEntity
  8
0
  6
Continuous
 62
     7
100
AcDbLine
 10
-46.879467682
 20
171.8801339056
 30
0.0
 11
-21.8555284762
 21
7.2287258235
 31
0.0
  0
ARC
  5
AC
330
1F
100
AcDbEntity
  8
0
  6
Continuous
 62
     7
100
AcDbCircle
 10
-115.4851004026
 20
162.5399444906
 30
0.0
 40
69.23851514366038
100
AcDbArc
 50
7.7527653602
 51
11.5216447413
  0
LINE
  5
AD
330
1F
100
AcDbEntity
  8
0
  6
Continuous
 62
     7
100
AcDbLine
 10
-22.8766385824
 20
5.6332438256
 30
0.0
 11
-21.167144074
 21
-5.4353024458
 31
0.0
  0
ARC
  5
AE
330
1F
100
AcDbEntity
  8
0
  6
Continuous
 62
     7
100
AcDbCircle
 10
204.3760981604
 20
162.5399444906
 30
0.0
 40
69.23851514363353
100
AcDbArc
 50
168.4783552587
 51
172.2472346398
  0
LINE
  5
AF
330
1F
100
AcDbEntity
  8
0
  6
Continuous
 62
     7
100
AcDbLine
 10
135.7704654399
 20
171.8801339056
 30
0.0
 11
110.746526234
 21
7.2287258235
 31
0.0
  0
ARC
  5
B0
330
1F
100
AcDbEntity
  8
0
  6
Continuous
 62
     7
100
AcDbCircle
 10
159.3143814673
 20
-1.043406345
 30
0.0
 40
49.26727851799122
100
AcDbArc
 50
170.334072836
 51
174.3436763814
  0
LINE
  5
B1
330
1F
100
AcDbEntity
  8
0
  6
Continuous
 62
     7
100
AcDbLine
 10
110.2869857247
 20
3.8124354224
 30
0.0
 11
111.0936884498
 21
2.8583829535
 31
0.0
  0
ARC
  5
B2
330
1F
100
AcDbEntity
  8
0
  6
Continuous
 62
     7
100
AcDbCircle
 10
56.2701010427
 20
14.3407126908
 30
0.0
 40
56.01312018073135
100
AcDbArc
 50
348.1708770805
 51
352.2635112225
  0
LINE
  5
B3
330
1F
100
AcDbEntity
  8
0
  6
Continuous
 62
     7
100
AcDbLine
 10
111.7733713053
 20
6.8003796385
 30
0.0
 11
137.3504993598
 21
172.4058401895
 31
0.0
  0
ARC
  5
B4
330
1F
100
AcDbEntity
  8
0
  6
Continuous
 62
     7
100
AcDbCircle
 10
80.5111387244
 20
182.1996348897
 30
0.0
 40
57.67695668185068
100
AcDbArc
 50
350.2235597156
 51
354.198501557
  0
LINE
  5
B5
330
1F
100
AcDbEntity
  8
0
  6
Continuous
 62
     7
100
AcDbLine
 10
138.1371983386
 20
176.3695145268
 30
0.0
 11
137.7936150358
 21
174.1448991995
 31
0.0
  0
LINE
  5
B6
330
1F
100
AcDbEntity
  8
0
  6
Continuous
 62
     7
100
AcDbLine
 10
137.7936150358
 20
174.1448991995
 30
0.0
 11
137.7595182379
 21
174.1501653191
 31
0.0
  0
LINE
  5
B7
330
1F
100
AcDbEntity
  8
0
  6
Continuous
 62
     7
100
AcDbLine
 10
137.7595182379
 20
174.1501653191
 30
0.0
 11
111.7335395423
 21
5.6385099452
 31
0.0
  0
LINE
  5
B8
330
1F
100
AcDbEntity
  8
0
  6
Continuous
 62
     7
100
AcDbLine
 10
111.7335395423
 20
5.6385099452
 30
0.0
 11
111.7676363402
 21
5.6332438256
 31
0.0
  0
LINE
  5
B9
330
1F
100
AcDbEntity
  8
0
  6
Continuous
 62
     7
100
AcDbLine
 10
111.7676363402
 20
5.6332438256
 30
0.0
 11
110.0581418319
 21
-5.4353024458
 31
0.0
  0
LINE
  5
BA
330
1F
100
AcDbEntity
  8
0
  6
Continuous
 62
     7
100
AcDbLine
 10
123.4901560208
 20
172.5734306909
 30
0.0
 11
123.4700654633
 21
172.3711386631
 31
0.0
  0
LINE
  5
BB
330
1F
100
AcDbEntity
  8
0
  6
Continuous
 62
     7
100
AcDbLine
 10
-34.5991582806
 20
172.5734310645
 30
0.0
 11
-34.5790677055
 21
172.3711386631
 31
0.0
  0
LINE
  5
BC
330
1F
100
AcDbEntity
  8
0
  6
Continuous
 62
     7
100
AcDbLine
 10
-34.5790677055
 20
172.3711386631
 30
0.0
 11
-9.6172359801
 21
8.1283826336
 31
0.0
  0
LINE
  5
BD
330
1F
100
AcDbEntity
  8
0
  6
Continuous
 62
     7
100
AcDbLine
 10
123.4700654633
 20
172.3711386631
 30
0.0
 11
98.508233738
 21
8.1283826336
 31
0.0
  0
ELLIPSE
  5
BE
330
1F
100
AcDbEntity
  8
0
  6
Continuous
 62
     7
100
AcDbEllipse
 10
129.569881187
 20
206.2652749119
 30
0.0
 11
1.000152328043896
 21
0.0
 31
0.0
210
0.0
220
0.0
230
1.0
 40
0.9998476952
 41
3.357933314963081
 42
4.168955918609089
  0
ELLIPSE
  5
BF
330
1F
100
AcDbEntity
  8
0
  6
Continuous
 62
     7
100
AcDbEllipse
 10
-40.6788834291
 20
206.2652749119
 30
0.0
 11
-1.000152328043903
 21
0.0
 31
0.0
210
0.0
220
0.0
230
1.0
 40
0.9998476952
 41
2.114229388570539
 42
2.925251992216545
  0
LINE
  5
C0
330
1F
100
AcDbEntity
  8
0
  6
Continuous
 62
     7
100
AcDbLine
 10
-29.5010261174
 20
252.4581853614
 30
0.0
 11
-39.7020451623
 21
206.0506178812
 31
0.0
  0
LINE
  5
C1
330
1F
100
AcDbEntity
  8
0
  6
Continuous
 62
     7
100
AcDbLine
 10
118.3920238753
 20
252.4581853614
 30
0.0
 11
128.5930429201
 21
206.0506178812
 31
0.0
  0
ELLIPSE
  5
C2
330
1F
100
AcDbEntity
  8
0
  6
Continuous
 62
     7
100
AcDbEllipse
 10
117.41525101
 20
252.2432307989
 30
0.0
 11
0.6152738469479998
 21
0.7886242628744069
 31
0.0
210
0.0
220
0.0
230
1.0
 40
0.9997550227
 41
5.591424055806859
 42
6.945608600249012
  0
ELLIPSE
  5
C3
330
1F
100
AcDbEntity
  8
0
  6
Continuous
 62
     7
100
AcDbEllipse
 10
-28.5242532521
 20
252.2432307989
 30
0.0
 11
-0.6152738469479857
 21
0.7886242628743503
 31
0.0
210
0.0
220
0.0
230
1.0
 40
0.9997550227
 41
5.620762014110152
 42
6.974946558552297
  0
LINE
  5
C4
330
1F
100
AcDbEntity
  8
0
  6
Continuous
 62
     7
100
AcDbLine
 10
-28.5244909226
 20
253.243383127
 30
0.0
 11
-20.8137664879
 21
253.243383127
 31
0.0
  0
SPLINE
  5
C5
330
1F
100
AcDbEntity
  8
0
  6
Continuous
 62
     7
100
AcDbSpline
210
0.0
220
0.0
230
1.0
 70
     8
 71
     3
 72
    33
 73
    29
 74
     0
 42
0.000000001
 43
0.00000001
 40
0.0
 40
0.0
 40
0.0
 40
0.0
 40
0.0067829729331076
 40
0.0479938742298408
 40
0.0890737619352334
 40
0.1301579323851978
 40
0.171373152012909
 40
0.2124573426595303
 40
0.2544631056086114
 40
0.2966089822063078
 40
0.3386147667290915
 40
0.3797029360380465
 40
0.4209221396430248
 40
0.4620103197412037
 40
0.5004130172123735
 40
0.5429090683138699
 40
0.5854051178474173
 40
0.6264874808109541
 40
0.6677008155171463
 40
0.7087831635390289
 40
0.7498613870794556
 40
0.79107056392075
 40
0.8321487664655797
 40
0.8732243563914783
 40
0.914430902387488
 40
0.9555064741958883
 40
0.9965179423902336
 40
1.0
 40
1.0
 40
1.0
 40
1.0
 10
108.3965129246121
 20
252.8642857655901
 30
0.0
 10
108.3327692328984
 20
252.8573258917731
 30
0.0
 10
107.8817418215815
 20
252.8080803305831
 30
0.0
 10
106.2661950304483
 20
252.7194126717021
 30
0.0
 10
103.5380079736775
 20
252.6003520173278
 30
0.0
 10
99.96994395674355
 20
252.487904657175
 30
0.0
 10
95.72964537782572
 20
252.3829730049002
 30
0.0
 10
90.80644235551641
 20
252.2861876513065
 30
0.0
 10
85.23123670822399
 20
252.1993863150129
 30
0.0
 10
79.08406396500115
 20
252.1236309556011
 30
0.0
 10
72.53166302466238
 20
252.0609670846797
 30
0.0
 10
65.65823543999392
 20
252.0123943698341
 30
0.0
 10
58.57240132216751
 20
251.9776679888356
 30
0.0
 10
51.46629861305279
 20
251.9573700991231
 30
0.0
 10
44.20182089155064
 20
251.9507288036976
 30
0.0
 10
36.85291750822773
 20
251.9582424981947
 30
0.0
 10
29.44435706170653
 20
251.9809128954163
 30
0.0
 10
22.31068558915658
 20
252.0180311459927
 30
0.0
 10
15.53583573637782
 20
252.0681726781767
 30
0.0
 10
9.120488579350022
 20
252.1311123566618
 30
0.0
 10
3.162086685830595
 20
252.2064983470589
 30
0.0
 10
-2.279320498373372
 20
252.2929335154231
 30
0.0
 10
-7.140346055750535
 20
252.3893717836275
 30
0.0
 10
-11.32801239991346
 20
252.4949327343507
 30
0.0
 10
-14.84184505930689
 20
252.6078659521919
 30
0.0
 10
-17.52936523969503
 20
252.7270850900005
 30
0.0
 10
-19.06087453448427
 20
252.8124294371817
 30
0.0
 10
-19.46739430124497
 20
252.8581094241285
 30
0.0
 10
-19.49920848593334
 20
252.8616843340348
 30
0.0
  0
LINE
  5
C6
330
1F
100
AcDbEntity
  8
0
  6
Continuous
 62
     7
100
AcDbLine
 10
117.4154886804
 20
253.243383127
 30
0.0
 11
109.7047642457
 21
253.243383127
 31
0.0
  0
ARC
  5
C7
330
1F
100
AcDbEntity
  8
0
  6
Continuous
 62
     7
100
AcDbCircle
 10
-7.6473526686
 20
8.2517412583
 30
0.0
 40
1.993843884056689
100
AcDbArc
 50
188.8915306808
 51
270.2255086808
  0
ARC
  5
C8
330
1F
100
AcDbEntity
  8
0
  6
Continuous
 62
     7
100
AcDbCircle
 10
96.5383504264
 20
8.2517412583
 30
0.0
 40
1.993843884056652
100
AcDbArc
 50
269.7744913192
 51
351.1084693192
  0
LINE
  5
C9
330
1F
100
AcDbEntity
  8
0
  6
Continuous
 62
     7
100
AcDbLine
 10
-7.6395051806
 20
6.2579128176
 30
0.0
 11
96.5305029384
 21
6.2579128176
 31
0.0
  0
ARC
  5
CA
330
1F
100
AcDbEntity
  8
0
  6
Continuous
 62
     7
100
AcDbCircle
 10
-7.6473526686
 20
8.4365598112
 30
0.0
 40
1.993843884056716
100
AcDbArc
 50
188.8915306808
 51
270.2255086808
  0
ARC
  5
CB
330
1F
100
AcDbEntity
  8
0
  6
Continuous
 62
     7
100
AcDbCircle
 10
96.5383504264
 20
8.4365598112
 30
0.0
 40
1.99384388405678
100
AcDbArc
 50
269.7744913192
 51
351.1084693192
  0
LINE
  5
CC
330
1F
100
AcDbEntity
  8
0
  6
Continuous
 62
     7
100
AcDbLine
 10
-7.6395051806
 20
6.4427313705
 30
0.0
 11
96.5305029384
 21
6.4427313705
 31
0.0
  0
ELLIPSE
  5
CD
330
1F
100
AcDbEntity
  8
0
  6
Continuous
 62
     7
100
AcDbEllipse
 10
-20.1787541124
 20
-5.2823876605
 30
0.0
 11
-0.6458438615425095
 21
-0.7638116388868355
 31
0.0
210
0.0
220
0.0
230
1.0
 40
0.9997388457
 41
5.56766088314184
 42
6.984963699424353
  0
ELLIPSE
  5
CE
330
1F
100
AcDbEntity
  8
0
  6
Continuous
 62
     7
100
AcDbEllipse
 10
109.0697518703
 20
-5.2823876605
 30
0.0
 11
0.6458438615425166
 21
-0.7638116388868355
 31
0.0
210
0.0
220
0.0
230
1.0
 40
0.9997388457
 41
5.581406914934806
 42
6.99870973121739
  0
LINE
  5
CF
330
1F
100
AcDbEntity
  8
0
  6
Continuous
 62
     7
100
AcDbLine
 10
-20.1790116959
 20
-6.2825399885
 30
0.0
 11
109.0700094538
 21
-6.2825399885
 31
0.0
  0
ARC
  5
D0
330
1F
100
AcDbEntity
  8
0
  6
Continuous
 62
     7
100
AcDbCircle
 10
-6.9469470429
 20
-59.6152371009
 30
0.0
 40
54.57385653331517
100
AcDbArc
 50
89.0539373887
 51
92.9164721981
  0
LINE
  5
D1
330
1F
100
AcDbEntity
  8
0
  6
Continuous
 62
     7
100
AcDbLine
 10
-10.5059687385
 20
-6.0372591024
 30
0.0
 11
-9.7236683503
 21
-5.1120662234
 31
0.0
  0
ARC
  5
D2
330
1F
100
AcDbEntity
  8
0
  6
Continuous
 62
     7
100
AcDbCircle
 10
-7.765664277
 20
44.8229344865
 30
0.0
 40
50.93396274041656
100
AcDbArc
 50
266.915933585
 51
271.054650006
  0
LINE
  5
D3
330
1F
100
AcDbEntity
  8
0
  6
Continuous
 62
     7
100
AcDbLine
 10
95.7191676648
 20
-6.1023997269
 30
0.0
 11
-6.828169907
 21
-6.1023997269
 31
0.0
  0
ARC
  5
D4
330
1F
100
AcDbEntity
  8
0
  6
Continuous
 62
     7
100
AcDbCircle
 10
96.6566620349
 20
44.8229344865
 30
0.0
 40
50.93396274036314
100
AcDbArc
 50
268.945349994
 51
273.084066415
  0
LINE
  5
D5
330
1F
100
AcDbEntity
  8
0
  6
Continuous
 62
     7
100
AcDbLine
 10
99.3969664964
 20
-6.0372591024
 30
0.0
 11
98.6146661082
 21
-5.1120662234
 31
0.0
  0
ARC
  5
D6
330
1F
100
AcDbEntity
  8
0
  6
Continuous
 62
     7
100
AcDbCircle
 10
95.8379448007
 20
-59.615237101
 30
0.0
 40
54.57385653337806
100
AcDbArc
 50
87.0835278019
 51
90.9460626113
  0
LINE
  5
D7
330
1F
100
AcDbEntity
  8
0
  6
Continuous
 62
     7
100
AcDbLine
 10
-6.0458695188
 20
-5.048819991
 30
0.0
 11
94.9368672767
 21
-5.048819991
 31
0.0
  0
LINE
  5
D8
330
1F
100
AcDbEntity
  8
0
  6
Continuous
 62
     7
100
AcDbLine
 10
-1.5545011211
 20
-6.2301827692
 30
0.0
 11
15.4454988789
 21
-6.2301827692
 31
0.0
  0
LINE
  5
D9
330
1F
100
AcDbEntity
  8
0
  6
Continuous
 62
     7
100
AcDbLine
 10
15.4454988789
 20
-6.2301827692
 30
0.0
 11
15.4454988789
 21
-6.1690993467
 31
0.0
  0
LINE
  5
DA
330
1F
100
AcDbEntity
  8
0
  6
Continuous
 62
     7
100
AcDbLine
 10
15.4454988789
 20
-6.1690993467
 30
0.0
 11
-1.5545011211
 21
-6.1690993467
 31
0.0
  0
LINE
  5
DB
330
1F
100
AcDbEntity
  8
0
  6
Continuous
 62
     7
100
AcDbLine
 10
-1.5545011211
 20
-6.1690993467
 30
0.0
 11
-1.5545011211
 21
-6.2301827692
 31
0.0
  0
LINE
  5
DC
330
1F
100
AcDbEntity
  8
0
  6
Continuous
 62
     7
100
AcDbLine
 10
73.4454988789
 20
-6.1690993467
 30
0.0
 11
73.4454988789
 21
-6.2301827692
 31
0.0
  0
LINE
  5
DD
330
1F
100
AcDbEntity
  8
0
  6
Continuous
 62
     7
100
AcDbLine
 10
73.4454988789
 20
-6.2301827692
 30
0.0
 11
90.4454988789
 21
-6.2301827692
 31
0.0
  0
LINE
  5
DE
330
1F
100
AcDbEntity
  8
0
  6
Continuous
 62
     7
100
AcDbLine
 10
90.4454988789
 20
-6.2301827692
 30
0.0
 11
90.4454988789
 21
-6.1690993467
 31
0.0
  0
LINE
  5
DF
330
1F
100
AcDbEntity
  8
0
  6
Continuous
 62
     7
100
AcDbLine
 10
90.4454988789
 20
-6.1690993467
 30
0.0
 11
73.4454988789
 21
-6.1690993467
 31
0.0
  0
ARC
  5
E0
330
1F
100
AcDbEntity
  8
0
  6
Continuous
 62
     7
100
AcDbCircle
 10
22.0211168275
 20
232.451678011
 30
0.0
 40
45.00000000000002
100
AcDbArc
 50
104.0884901706
 51
149.1323613491
  0
ARC
  5
E1
330
1F
100
AcDbEntity
  8
0
  6
Continuous
 62
     7
100
AcDbCircle
 10
66.8698809303
 20
232.451678011
 30
0.0
 40
45.00000000000002
100
AcDbArc
 50
30.8676386509
 51
75.9115098294
  0
LINE
  5
E2
330
1F
100
AcDbEntity
  8
0
  6
Continuous
 62
     7
100
AcDbLine
 10
78.7714424514
 20
314.0320211971
 30
0.0
 11
78.7714424514
 21
312.0108751012
 31
0.0
  0
LINE
  5
E3
330
1F
100
AcDbEntity
  8
0
  6
Continuous
 62
     7
100
AcDbLine
 10
10.1195553065
 20
314.0320211971
 30
0.0
 11
10.1195553065
 21
312.0108751012
 31
0.0
  0
ARC
  5
E4
330
1F
100
AcDbEntity
  8
0
  6
Continuous
 62
     7
100
AcDbCircle
 10
76.2714424514
 20
314.0320211971
 30
0.0
 40
2.499999999999943
100
AcDbArc
 50
0.0
 51
65.6734964785
  0
ARC
  5
E5
330
1F
100
AcDbEntity
  8
0
  6
Continuous
 62
     7
100
AcDbCircle
 10
12.6195553065
 20
314.0320211971
 30
0.0
 40
2.499999999999975
100
AcDbArc
 50
114.3265035215
 51
180.0
  0
ARC
  5
E6
330
1F
100
AcDbEntity
  8
0
  6
Continuous
 62
     7
100
AcDbCircle
 10
77.6855518568
 20
312.0108751012
 30
0.0
 40
1.085890594627912
100
AcDbArc
 50
270.7093999371
 51
0.0
  0
LINE
  5
E7
330
1F
100
AcDbEntity
  8
0
  6
Continuous
 62
     7
100
AcDbLine
 10
11.1920014372
 20
310.9250677381
 30
0.0
 11
77.6989963206
 21
310.9250677381
 31
0.0
  0
ARC
  5
E8
330
1F
100
AcDbEntity
  8
0
  6
Continuous
 62
     7
100
AcDbCircle
 10
11.2054459011
 20
312.0108751012
 30
0.0
 40
1.085890594627935
100
AcDbArc
 50
180.0
 51
269.2906000629
  0
ARC
  5
E9
330
1F
100
AcDbEntity
  8
0
  6
Continuous
 62
     7
100
AcDbCircle
 10
10.9454988789
 20
276.583080516
 30
0.0
 40
0.5000000000000284
100
AcDbArc
 50
284.0884901706
 51
0.0
  0
ARC
  5
EA
330
1F
100
AcDbEntity
  8
0
  6
Continuous
 62
     7
100
AcDbCircle
 10
77.9454988789
 20
276.583080516
 30
0.0
 40
0.5000000000000301
100
AcDbArc
 50
180.0
 51
255.9115098294
  0
ARC
  5
EB
330
1F
100
AcDbEntity
  8
0
  6
Continuous
 62
     7
100
AcDbCircle
 10
77.7336766847
 20
308.1241978045
 30
0.0
 40
2.801084631393899
100
AcDbArc
 50
90.7093999371
 51
156.8014094864
  0
ARC
  5
EC
330
1F
100
AcDbEntity
  8
0
  6
Continuous
 62
     7
100
AcDbCircle
 10
11.1573210732
 20
308.1241978045
 30
0.0
 40
2.801084631393899
100
AcDbArc
 50
23.1985905136
 51
89.2906000629
  0
ARC
  5
ED
330
1F
100
AcDbEntity
  8
0
  6
Continuous
 62
     7
100
AcDbCircle
 10
12.4454988789
 20
278.8989853326
 30
0.0
 40
1.0
100
AcDbArc
 50
104.3121126608
 51
180.0
  0
ARC
  5
EE
330
1F
100
AcDbEntity
  8
0
  6
Continuous
 62
     7
100
AcDbCircle
 10
76.4454988789
 20
278.8989853326
 30
0.0
 40
1.0
100
AcDbArc
 50
0.0
 51
75.6878873392
  0
LINE
  5
EF
330
1F
100
AcDbEntity
  8
0
  6
Continuous
 62
     7
100
AcDbLine
 10
11.4454988789
 20
278.8989853326
 30
0.0
 11
11.4454988789
 21
276.583080516
 31
0.0
  0
LINE
  5
F0
330
1F
100
AcDbEntity
  8
0
  6
Continuous
 62
     7
100
AcDbLine
 10
77.4454988789
 20
278.8989853326
 30
0.0
 11
77.4454988789
 21
276.583080516
 31
0.0
  0
LINE
  5
F1
330
1F
100
AcDbEntity
  8
0
  6
Continuous
 62
     7
100
AcDbLine
 10
72.5820149659
 20
318.4435127277
 30
0.0
 11
77.3012822158
 21
316.3100532556
 31
0.0
  0
LINE
  5
F2
330
1F
100
AcDbEntity
  8
0
  6
Continuous
 62
     7
100
AcDbLine
 10
16.308982792
 20
318.4435127277
 30
0.0
 11
11.5897155421
 21
316.3100532556
 31
0.0
  0
LINE
  5
F3
330
1F
100
AcDbEntity
  8
0
  6
Continuous
 62
     7
100
AcDbLine
 10
25.6005005452
 20
291.2839336791
 30
0.0
 11
63.2904972127
 21
291.2839336791
 31
0.0
  0
ARC
  5
F4
330
1F
100
AcDbEntity
  8
0
  6
Continuous
 62
     7
100
AcDbCircle
 10
81.6367799969
 20
299.2472186798
 30
0.0
 40
20.00000000000008
100
AcDbArc
 50
203.4634669385
 51
255.6878873392
  0
ARC
  5
F5
330
1F
100
AcDbEntity
  8
0
  6
Continuous
 62
     7
100
AcDbCircle
 10
7.254217761
 20
299.2472186798
 30
0.0
 40
20.00000000000002
100
AcDbArc
 50
284.3121126608
 51
336.5365330615
  0
LINE
  5
F6
330
1F
100
AcDbEntity
  8
0
  6
Continuous
 62
     7
100
AcDbLine
 10
75.1590736671
 20
309.2275990978
 30
0.0
 11
73.9762257237
 21
306.4676205632
 31
0.0
  0
LINE
  5
F7
330
1F
100
AcDbEntity
  8
0
  6
Continuous
 62
     7
100
AcDbLine
 10
13.7319240908
 20
309.2275990978
 30
0.0
 11
14.9147720342
 21
306.4676205632
 31
0.0
  0
ARC
  5
F8
330
1F
100
AcDbEntity
  8
0
  6
Continuous
 62
     7
100
AcDbCircle
 10
73.0570806937
 20
306.8615398618
 30
0.0
 40
1.000000000000164
100
AcDbArc
 50
297.0150015235
 51
336.8014094864
  0
ARC
  5
F9
330
1F
100
AcDbEntity
  8
0
  6
Continuous
 62
     7
100
AcDbCircle
 10
15.8339170642
 20
306.8615398618
 30
0.0
 40
1.000000000000063
100
AcDbArc
 50
203.1985905136
 51
242.9849984765
  0
ARC
  5
FA
330
1F
100
AcDbEntity
  8
0
  6
Continuous
 62
     7
100
AcDbCircle
 10
83.0294678187
 20
287.302289919
 30
0.0
 40
20.95478907423044
100
AcDbArc
 50
117.0150015235
 51
160.386599203
  0
LINE
  5
FB
330
1F
100
AcDbEntity
  8
0
  6
Continuous
 62
     7
100
AcDbLine
 10
25.6005005452
 20
294.336223709
 30
0.0
 11
63.2904972127
 21
294.336223709
 31
0.0
  0
ARC
  5
FC
330
1F
100
AcDbEntity
  8
0
  6
Continuous
 62
     7
100
AcDbCircle
 10
5.8615299392
 20
287.302289919
 30
0.0
 40
20.95478907423044
100
AcDbArc
 50
19.613400797
 51
62.9849984765
  0
ARC
  5
FD
330
1F
100
AcDbEntity
  8
0
  6
Continuous
 62
     7
100
AcDbCircle
 10
74.6416944947
 20
322.9995768447
 30
0.0
 40
5.000000000000036
100
AcDbArc
 50
230.3139844146
 51
245.6734964785
  0
ARC
  5
FE
330
1F
100
AcDbEntity
  8
0
  6
Continuous
 62
     7
100
AcDbCircle
 10
14.2493032632
 20
322.9995768447
 30
0.0
 40
5.000000000000032
100
AcDbArc
 50
294.3265035215
 51
309.6860155854
  0
ARC
  5
FF
330
1F
100
AcDbEntity
  8
0
  6
Continuous
 62
     7
100
AcDbCircle
 10
38.4454988789
 20
293.8406402966
 30
0.0
 40
32.89062499999998
100
AcDbArc
 50
97.7549728462
 51
129.6860155854
  0
LINE
  5
100
330
1F
100
AcDbEntity
  8
0
  6
Continuous
 62
     7
100
AcDbLine
 10
54.8836588269
 20
326.4304538764
 30
0.0
 11
34.007338931
 21
326.4304538764
 31
0.0
  0
ARC
  5
101
330
1F
100
AcDbEntity
  8
0
  6
Continuous
 62
     7
100
AcDbCircle
 10
50.4454988789
 20
293.8406402966
 30
0.0
 40
32.89062499999998
100
AcDbArc
 50
50.3139844146
 51
82.2450271538
  0
LINE
  5
102
330
1F
100
AcDbEntity
  8
0
  6
Continuous
 62
     7
100
AcDbLine
 10
63.2904972127
 20
294.336223709
 30
0.0
 11
63.2904972127
 21
291.2839336791
 31
0.0
  0
LINE
  5
103
330
1F
100
AcDbEntity
  8
0
  6
Continuous
 62
     7
100
AcDbLine
 10
25.6005005452
 20
294.336223709
 30
0.0
 11
25.6005005452
 21
291.2839336791
 31
0.0
  0
ARC
  5
104
330
1F
100
AcDbEntity
  8
0
  6
Continuous
 62
     7
100
AcDbCircle
 10
33.9398704662
 20
326.9258809712
 30
0.0
 40
0.5
100
AcDbArc
 50
277.7549728462
 51
0.0
  0
ARC
  5
105
330
1F
100
AcDbEntity
  8
0
  6
Continuous
 62
     7
100
AcDbCircle
 10
54.9511272916
 20
326.9258809712
 30
0.0
 40
0.5
100
AcDbArc
 50
180.0
 51
262.2450271538
  0
ARC
  5
106
330
1F
100
AcDbEntity
  8
0
  6
Continuous
 62
     7
100
AcDbCircle
 10
34.9398704662
 20
328.5283988163
 30
0.0
 40
0.5
100
AcDbArc
 50
99.5940682269
 51
180.0
  0
LINE
  5
107
330
1F
100
AcDbEntity
  8
0
  6
Continuous
 62
     7
100
AcDbLine
 10
34.8565371329
 20
329.0214054649
 30
0.0
 11
54.034460625
 21
329.0214054649
 31
0.0
  0
ARC
  5
108
330
1F
100
AcDbEntity
  8
0
  6
Continuous
 62
     7
100
AcDbCircle
 10
53.9511272916
 20
328.5283988163
 30
0.0
 40
0.5
100
AcDbArc
 50
0.0
 51
80.4059317731
  0
LINE
  5
109
330
1F
100
AcDbEntity
  8
0
  6
Continuous
 62
     7
100
AcDbLine
 10
34.4398704662
 20
328.5283988163
 30
0.0
 11
34.4398704662
 21
326.9258809712
 31
0.0
  0
LINE
  5
10A
330
1F
100
AcDbEntity
  8
0
  6
Continuous
 62
     7
100
AcDbLine
 10
54.4511272916
 20
328.5283988163
 30
0.0
 11
54.4511272916
 21
326.9258809712
 31
0.0
  0
ARC
  5
10B
330
1F
100
AcDbEntity
  8
0
  6
Continuous
 62
     7
100
AcDbCircle
 10
54.4511272916
 20
331.4864387079
 30
0.0
 40
2.500000000000042
100
AcDbArc
 50
185.2159085705
 51
260.4059317731
  0
ARC
  5
10C
330
1F
100
AcDbEntity
  8
0
  6
Continuous
 62
     7
100
AcDbCircle
 10
34.4398704662
 20
331.4864387079
 30
0.0
 40
2.50000000000004
100
AcDbArc
 50
279.5940682269
 51
354.7840914295
  0
ARC
  5
10D
330
1F
100
AcDbEntity
  8
0
  6
Continuous
 62
     7
100
AcDbCircle
 10
48.9739017166
 20
330.9864387079
 30
0.0
 40
3.0
100
AcDbArc
 50
5.2159085705
 51
90.0
  0
ARC
  5
10E
330
1F
100
AcDbEntity
  8
0
  6
Continuous
 62
     7
100
AcDbCircle
 10
39.9170960413
 20
330.9864387079
 30
0.0
 40
3.0
100
AcDbArc
 50
90.0
 51
174.7840914295
  0
LINE
  5
10F
330
1F
100
AcDbEntity
  8
0
  6
Continuous
 62
     7
100
AcDbLine
 10
39.9170960413
 20
333.9864387079
 30
0.0
 11
48.9739017166
 21
333.9864387079
 31
0.0
  0
SPLINE
  5
110
330
1F
100
AcDbEntity
  8
0
  6
Continuous
 62
     7
100
AcDbSpline
210
0.0
220
0.0
230
1.0
 70
     8
 71
     3
 72
    10
 73
     6
 74
     0
 42
0.000000001
 43
0.00000001
 40
0.0
 40
0.0
 40
0.0
 40
0.0
 40
0.3279393248456525
 40
0.6558766622359531
 40
1.0
 40
1.0
 40
1.0
 40
1.0
 10
109.7047642457216
 20
253.2433831269786
 30
0.0
 10
109.1443190359617
 20
253.299876455217
 30
0.0
 10
108.0234320129844
 20
253.4128627693195
 30
0.0
 10
106.4737636157865
 20
254.2708234538293
 30
0.0
 10
105.7771473332198
 20
255.1928048374662
 30
0.0
 10
105.4204504914614
 20
255.6648980915769
 30
0.0
  0
SPLINE
  5
111
330
1F
100
AcDbEntity
  8
0
  6
Continuous
 62
     7
100
AcDbSpline
210
0.0
220
0.0
230
1.0
 70
     8
 71
     3
 72
    10
 73
     6
 74
     0
 42
0.000000001
 43
0.00000001
 40
0.0
 40
0.0
 40
0.0
 40
0.0
 40
0.3279393248456571
 40
0.6558766622359458
 40
1.0
 40
1.0
 40
1.0
 40
1.0
 10
-20.81376648787281
 20
253.2433831269786
 30
0.0
 10
-20.25332127811294
 20
253.299876455217
 30
0.0
 10
-19.13243425513561
 20
253.4128627693195
 30
0.0
 10
-17.58276585793769
 20
254.2708234538292
 30
0.0
 10
-16.88614957537107
 20
255.1928048374662
 30
0.0
 10
-16.52945273361262
 20
255.6648980915769
 30
0.0
  0
LINE
  5
112
330
1F
100
AcDbEntity
  8
0
  6
Continuous
 62
     7
100
AcDbLine
 10
15.4444328262
 20
-6.1690993467
 30
0.0
 11
15.4454988789
 21
-6.2301827692
 31
0.0
  0
LINE
  5
113
330
1F
100
AcDbEntity
  8
0
  6
Continuous
 62
     7
100
AcDbLine
 10
73.4465649316
 20
-6.1690993467
 30
0.0
 11
73.4454988789
 21
-6.2301827692
 31
0.0
  0
LINE
  5
114
330
1F
100
AcDbEntity
  8
0
  6
Continuous
 62
     7
100
AcDbLine
 10
90.4444328262
 20
-6.1690993467
 30
0.0
 11
90.4454988789
 21
-6.2301827692
 31
0.0
  0
LINE
  5
115
330
1F
100
AcDbEntity
  8
0
  6
Continuous
 62
     7
100
AcDbLine
 10
-1.5534350684
 20
-6.1690993467
 30
0.0
 11
-1.5545011211
 21
-6.2301827692
 31
0.0
  0
SPLINE
  5
116
330
1F
100
AcDbEntity
  8
0
  6
Continuous
 62
     7
100
AcDbSpline
210
0.0
220
0.0
230
1.0
 70
     8
 71
     3
 72
    11
 73
     7
 74
     0
 42
0.000000001
 43
0.00000001
 40
0.0
 40
0.0
 40
0.0
 40
0.0
 40
0.3161041428162312
 40
0.6322078671350106
 40
0.9483216989136516
 40
1.0
 40
1.0
 40
1.0
 40
1.0
 10
-48.86852048009166
 20
174.150165319095
 30
0.0
 10
-49.03315665766314
 20
173.9952565612549
 30
0.0
 10
-49.36242879484057
 20
173.6854392506618
 30
0.0
 10
-49.62485020125365
 20
173.0473187642796
 30
0.0
 10
-49.66381470046608
 20
172.5555559100212
 30
0.0
 10
-49.62850382270081
 20
172.2974565179968
 30
0.0
 10
-49.62354230773158
 20
172.2611910927759
 30
0.0
  0
SPLINE
  5
117
330
1F
100
AcDbEntity
  8
0
  6
Continuous
 62
     7
100
AcDbSpline
210
0.0
220
0.0
230
1.0
 70
     8
 71
     3
 72
    11
 73
     7
 74
     0
 42
0.000000001
 43
0.00000001
 40
0.0
 40
0.0
 40
0.0
 40
0.0
 40
0.3161229669323905
 40
0.6322461567965555
 40
0.9483628949502804
 40
1.0
 40
1.0
 40
1.0
 40
1.0
 10
-24.13227837192225
 20
7.211679078785532
 30
0.0
 10
-24.07609568152205
 20
6.992701255880279
 30
0.0
 10
-23.96373026110127
 20
6.554745455645411
 30
0.0
 10
-23.53156842547924
 20
6.016840539399687
 30
0.0
 10
-23.11972216249705
 20
5.745327274150641
 30
0.0
 10
-22.87666935055757
 20
5.651661725540963
 30
0.0
 10
-22.84254178448395
 20
5.638509945178977
 30
0.0
  0
LINE
  5
118
330
1F
100
AcDbEntity
  8
0
  6
Continuous
 62
     7
100
AcDbLine
 10
-24.1322783719
 20
7.2116790788
 30
0.0
 11
-49.6235423077
 21
172.2611910928
 31
0.0
  0
SPLINE
  5
119
330
1F
100
AcDbEntity
  8
0
  6
Continuous
 62
     7
100
AcDbSpline
210
0.0
220
0.0
230
1.0
 70
     8
 71
     3
 72
    11
 73
     7
 74
     0
 42
0.000000001
 43
0.00000001
 40
0.0
 40
0.0
 40
0.0
 40
0.0
 40
0.3161229669323943
 40
0.6322461567965552
 40
0.9483628949502895
 40
1.0
 40
1.0
 40
1.0
 40
1.0
 10
113.023276129771
 20
7.211679078785532
 30
0.0
 10
112.9670934393708
 20
6.992701255880335
 30
0.0
 10
112.85472801895
 20
6.554745455645467
 30
0.0
 10
112.422566183328
 20
6.016840539399687
 30
0.0
 10
112.0107199203459
 20
5.74532727415053
 30
0.0
 10
111.7676671084063
 20
5.651661725541074
 30
0.0
 10
111.7335395423327
 20
5.638509945179032
 30
0.0
  0
SPLINE
  5
11A
330
1F
100
AcDbEntity
  8
0
  6
Continuous
 62
     7
100
AcDbSpline
210
0.0
220
0.0
230
1.0
 70
     8
 71
     3
 72
    11
 73
     7
 74
     0
 42
0.000000001
 43
0.00000001
 40
0.0
 40
0.0
 40
0.0
 40
0.0
 40
0.316104142816225
 40
0.6322078671350069
 40
0.9483216989136513
 40
1.0
 40
1.0
 40
1.0
 40
1.0
 10
137.7595182379405
 20
174.1501653190951
 30
0.0
 10
137.924154415512
 20
173.9952565612549
 30
0.0
 10
138.2534265526894
 20
173.6854392506618
 30
0.0
 10
138.5158479591024
 20
173.0473187642796
 30
0.0
 10
138.5548124583149
 20
172.5555559100213
 30
0.0
 10
138.5195015805496
 20
172.2974565179968
 30
0.0
 10
138.5145400655804
 20
172.2611910927759
 30
0.0
  0
LINE
  5
11B
330
1F
100
AcDbEntity
  8
0
  6
Continuous
 62
     7
100
AcDbLine
 10
113.0232761298
 20
7.2116790788
 30
0.0
 11
138.5145400656
 21
172.2611910928
 31
0.0
  0
SPLINE
  5
11C
330
1F
100
AcDbEntity
  8
0
  6
Continuous
 62
     7
100
AcDbSpline
210
0.0
220
0.0
230
1.0
 70
     8
 71
     3
 72
    10
 73
     6
 74
     0
 42
0.000000001
 43
0.00000001
 40
0.0
 40
0.0
 40
0.0
 40
0.0
 40
0.3222993408928227
 40
0.644598931107078
 40
1.0
 40
1.0
 40
1.0
 40
1.0
 10
-49.62651253355982
 20
172.2804225567298
 30
0.0
 10
-49.63838727570438
 20
172.5053944940546
 30
0.0
 10
-49.66213676917955
 20
172.9553385427359
 30
0.0
 10
-49.41354199792311
 20
173.6322921119301
 30
0.0
 10
-49.07838234221981
 20
173.9685553778543
 30
0.0
 10
-48.90261727797501
 20
174.1448991994706
 30
0.0
  0
SPLINE
  5
11D
330
1F
100
AcDbEntity
  8
0
  6
Continuous
 62
     7
100
AcDbSpline
210
0.0
220
0.0
230
1.0
 70
     8
 71
     3
 72
    10
 73
     6
 74
     0
 42
0.000000001
 43
0.00000001
 40
0.0
 40
0.0
 40
0.0
 40
0.0
 40
0.3222794013477101
 40
0.6445583350115297
 40
1.0
 40
1.0
 40
1.0
 40
1.0
 10
111.7676363402161
 20
5.633243825554662
 30
0.0
 10
111.9683900995085
 20
5.735445087067276
 30
0.0
 10
112.3698973267646
 20
5.939847461780695
 30
0.0
 10
112.8318419566646
 20
6.493624566250827
 30
0.0
 10
112.9554681320183
 20
6.95202959274413
 30
0.0
 10
113.0203059039428
 20
7.192447614831537
 30
0.0
  0
SPLINE
  5
11E
330
1F
100
AcDbEntity
  8
0
  6
Continuous
 62
     7
100
AcDbSpline
210
0.0
220
0.0
230
1.0
 70
     8
 71
     3
 72
    10
 73
     6
 74
     0
 42
0.000000001
 43
0.00000001
 40
0.0
 40
0.0
 40
0.0
 40
0.0
 40
0.322279401347736
 40
0.6445583350115336
 40
1.0
 40
1.0
 40
1.0
 40
1.0
 10
-22.8766385823673
 20
5.633243825554551
 30
0.0
 10
-23.07739234165976
 20
5.735445087067276
 30
0.0
 10
-23.4788995689158
 20
5.939847461780806
 30
0.0
 10
-23.94084419881587
 20
6.493624566250716
 30
0.0
 10
-24.06447037416962
 20
6.952029592744075
 30
0.0
 10
-24.12930814609402
 20
7.192447614831482
 30
0.0
  0
LINE
  5
11F
330
1F
100
AcDbEntity
  8
0
  6
Continuous
 62
     8
370
    18
100
AcDbLine
 10
-60.7054749822
 20
190.5671473629
 30
0.0
 11
-60.7055235805
 21
190.5671180089
 31
0.0
  0
LINE
  5
120
330
1F
100
AcDbEntity
  8
0
  6
Continuous
 62
     8
370
    18
100
AcDbLine
 10
149.59647274
 20
190.5671473629
 30
0.0
 11
-60.7054749822
 21
190.5671473629
 31
0.0
  0
LINE
  5
121
330
1F
100
AcDbEntity
  8
0
  6
Continuous
 62
     8
370
    18
100
AcDbLine
 10
149.59647274
 20
190.5671473629
 30
0.0
 11
149.5965213383
 21
190.5671180089
 31
0.0
  0
LINE
  5
122
330
1F
100
AcDbEntity
  8
0
  6
Continuous
 62
     8
370
    18
100
AcDbLine
 10
149.5965213383
 20
190.5671180089
 30
0.0
 11
149.5965213383
 21
188.1313202707
 31
0.0
  0
LINE
  5
123
330
1F
100
AcDbEntity
  8
0
  6
Continuous
 62
     8
370
    18
100
AcDbLine
 10
-60.7055235805
 20
188.1313202707
 30
0.0
 11
149.5965213383
 21
188.1313202707
 31
0.0
  0
LINE
  5
124
330
1F
100
AcDbEntity
  8
0
  6
Continuous
 62
     8
370
    18
100
AcDbLine
 10
-60.7055235805
 20
190.5671180089
 30
0.0
 11
-60.7055235805
 21
188.1313202707
 31
0.0
  0
LINE
  5
125
330
1F
100
AcDbEntity
  8
0
  6
Continuous
 62
     8
370
    18
100
AcDbLine
 10
150.5963690335
 20
188.1313202707
 30
0.0
 11
149.5965213383
 21
188.1313202707
 31
0.0
  0
ARC
  5
126
330
1F
100
AcDbEntity
  8
0
  6
Continuous
 62
     8
370
    18
100
AcDbCircle
 10
149.5964451801
 20
188.131244124
 30
0.0
 40
0.9999238562777113
100
AcDbArc
 50
270.004363877
 51
0.0043632123
  0
LINE
  5
127
330
1F
100
AcDbEntity
  8
0
  6
Continuous
 62
     8
370
    18
100
AcDbLine
 10
149.5965213383
 20
187.1313202707
 30
0.0
 11
149.5965213383
 21
188.1313202707
 31
0.0
  0
LINE
  5
128
330
1F
100
AcDbEntity
  8
0
  6
Continuous
 62
     8
370
    18
100
AcDbLine
 10
-60.7055235805
 20
190.5671180089
 30
0.0
 11
-61.7053712756
 21
190.5671180089
 31
0.0
  0
LINE
  5
129
330
1F
100
AcDbEntity
  8
0
  6
Continuous
 62
     8
370
    18
100
AcDbLine
 10
-61.7053712756
 20
188.1313202707
 30
0.0
 11
-60.7055235805
 21
188.1313202707
 31
0.0
  0
LINE
  5
12A
330
1F
100
AcDbEntity
  8
0
  6
Continuous
 62
     8
370
    18
100
AcDbLine
 10
-61.7053712756
 20
188.1313202707
 30
0.0
 11
-61.7053712756
 21
190.5671180089
 31
0.0
  0
LINE
  5
12B
330
1F
100
AcDbEntity
  8
0
  6
Continuous
 62
     8
370
    18
100
AcDbLine
 10
-60.7055235805
 20
187.1313202707
 30
0.0
 11
-60.7055235805
 21
188.1313202707
 31
0.0
  0
ARC
  5
12C
330
1F
100
AcDbEntity
  8
0
  6
Continuous
 62
     8
370
    18
100
AcDbCircle
 10
-60.7054474222
 20
188.131244124
 30
0.0
 40
0.999923856277626
100
AcDbArc
 50
179.9956367877
 51
269.995636123
  0
LINE
  5
12D
330
1F
100
AcDbEntity
  8
0
  6
Continuous
 62
     8
370
    18
100
AcDbLine
 10
149.5965213383
 20
190.5671180089
 30
0.0
 11
150.5963690335
 21
190.5671180089
 31
0.0
  0
LINE
  5
12E
330
1F
100
AcDbEntity
  8
0
  6
Continuous
 62
     8
370
    18
100
AcDbLine
 10
150.5963690335
 20
188.1313202707
 30
0.0
 11
150.5963690335
 21
190.5671180089
 31
0.0
  0
ARC
  5
12F
330
1F
100
AcDbEntity
  8
0
  6
Continuous
 62
     8
370
    18
100
AcDbCircle
 10
149.8549945547
 20
190.9195005342
 30
0.0
 40
0.5660464555671803
100
AcDbArc
 50
62.8297798177
 51
117.1753242465
  0
LINE
  5
130
330
1F
100
AcDbEntity
  8
0
  6
Continuous
 62
     8
370
    18
100
AcDbLine
 10
149.59647274
 20
190.5671473629
 30
0.0
 11
150.1134715096
 21
191.4230859327
 31
0.0
  0
LINE
  5
131
330
1F
100
AcDbEntity
  8
0
  6
Continuous
 62
     8
370
    18
100
AcDbLine
 10
149.59647274
 20
190.5671473629
 30
0.0
 11
149.59647274
 21
191.4230629049
 31
0.0
  0
LINE
  5
132
330
1F
100
AcDbEntity
  8
0
  6
Continuous
 62
     8
370
    18
100
AcDbLine
 10
149.5965213383
 20
190.5671180089
 30
0.0
 11
150.1135201079
 21
191.4230565787
 31
0.0
  0
ARC
  5
133
330
1F
100
AcDbEntity
  8
0
  6
Continuous
 62
     8
370
    18
100
AcDbCircle
 10
149.5963387056
 20
190.5671453365
 30
0.0
 40
1.000030328216763
100
AcDbArc
 50
359.9984342924
 51
58.8576752618
  0
LINE
  5
134
330
1F
100
AcDbEntity
  8
0
  6
Continuous
 62
     8
370
    18
100
AcDbLine
 10
-60.7054749822
 20
190.5671473629
 30
0.0
 11
-61.2224737517
 21
191.4230859327
 31
0.0
  0
ARC
  5
135
330
1F
100
AcDbEntity
  8
0
  6
Continuous
 62
     8
370
    18
100
AcDbCircle
 10
-60.9639967968
 20
190.9195005342
 30
0.0
 40
0.5660464555674419
100
AcDbArc
 50
62.8246757535
 51
117.1702201823
  0
LINE
  5
136
330
1F
100
AcDbEntity
  8
0
  6
Continuous
 62
     8
370
    18
100
AcDbLine
 10
-60.7054749822
 20
190.5671473629
 30
0.0
 11
-60.7054749822
 21
191.4230629049
 31
0.0
  0
LINE
  5
137
330
1F
100
AcDbEntity
  8
0
  6
Continuous
 62
     8
370
    18
100
AcDbLine
 10
-61.22252235
 20
191.4230565787
 30
0.0
 11
-61.2224737517
 21
191.4230859327
 31
0.0
  0
LINE
  5
138
330
1F
100
AcDbEntity
  8
0
  6
Continuous
 62
     8
370
    18
100
AcDbLine
 10
-60.7055235805
 20
190.5671180089
 30
0.0
 11
-61.22252235
 21
191.4230565787
 31
0.0
  0
LINE
  5
139
330
1F
100
AcDbEntity
  8
0
  6
Continuous
 62
     8
370
    18
100
AcDbLine
 10
-60.7054749822
 20
191.4230629049
 30
0.0
 11
149.59647274
 21
191.4230629049
 31
0.0
  0
LINE
  5
13A
330
1F
100
AcDbEntity
  8
0
  6
Continuous
 62
     8
370
    18
100
AcDbLine
 10
150.1135201079
 20
191.4230565787
 30
0.0
 11
150.1134715096
 21
191.4230859327
 31
0.0
  0
ARC
  5
13B
330
1F
100
AcDbEntity
  8
0
  6
Continuous
 62
     8
370
    18
100
AcDbCircle
 10
-60.7053409478
 20
190.5671453365
 30
0.0
 40
1.00003032821682
100
AcDbArc
 50
121.1423247382
 51
180.0015657076
  0
ARC
  5
13C
330
1F
100
AcDbEntity
  8
0
  6
Continuous
 62
     8
370
    18
100
AcDbCircle
 10
-38.2125636216
 20
204.9057509436
 30
0.0
 40
0.5660464555672561
100
AcDbArc
 50
62.8246757535
 51
117.1702201823
  0
LINE
  5
13D
330
1F
100
AcDbEntity
  8
0
  6
Continuous
 62
     8
370
    18
100
AcDbLine
 10
-37.9540418069
 20
205.4093133143
 30
0.0
 11
-60.7054749822
 21
191.4230629049
 31
0.0
  0
LINE
  5
13E
330
1F
100
AcDbEntity
  8
0
  6
Continuous
 62
     8
370
    18
100
AcDbLine
 10
-61.2224737517
 20
191.4230859327
 30
0.0
 11
-38.4710405765
 21
205.4093363421
 31
0.0
  0
LINE
  5
13F
330
1F
100
AcDbEntity
  8
0
  6
Continuous
 62
     8
370
    18
100
AcDbLine
 10
-37.9540418069
 20
205.4093133143
 30
0.0
 11
-37.954008785
 21
205.4093336147
 31
0.0
  0
LINE
  5
140
330
1F
100
AcDbEntity
  8
0
  6
Continuous
 62
     8
370
    18
100
AcDbLine
 10
126.8450065429
 20
205.4093336147
 30
0.0
 11
-37.954008785
 21
205.4093336147
 31
0.0
  0
LINE
  5
141
330
1F
100
AcDbEntity
  8
0
  6
Continuous
 62
     8
370
    18
100
AcDbLine
 10
126.8450065429
 20
205.4093336147
 30
0.0
 11
126.8450395648
 21
205.4093133143
 31
0.0
  0
LINE
  5
142
330
1F
100
AcDbEntity
  8
0
  6
Continuous
 62
     8
370
    18
100
AcDbLine
 10
126.8450395648
 20
205.4093133143
 30
0.0
 11
149.59647274
 21
191.4230629049
 31
0.0
  0
ARC
  5
143
330
1F
100
AcDbEntity
  8
0
  6
Continuous
 62
     8
370
    18
100
AcDbCircle
 10
127.1035613794
 20
204.9057509436
 30
0.0
 40
0.5660464555670847
100
AcDbArc
 50
62.8297798177
 51
117.1753242465
  0
LINE
  5
144
330
1F
100
AcDbEntity
  8
0
  6
Continuous
 62
     8
370
    18
100
AcDbLine
 10
150.1134715096
 20
191.4230859327
 30
0.0
 11
127.3620383343
 21
205.4093363421
 31
0.0
  0
LINE
  5
145
330
1F
100
AcDbEntity
  8
0
  6
Continuous
 62
     8
370
    18
100
AcDbLine
 10
152.6912814577
 20
188.1313202707
 30
0.0
 11
150.5963690335
 21
188.1313202707
 31
0.0
  0
LINE
  5
146
330
1F
100
AcDbEntity
  8
0
  6
Continuous
 62
     8
370
    18
100
AcDbLine
 10
-63.8002836999
 20
188.1313202707
 30
0.0
 11
-61.7053712756
 21
188.1313202707
 31
0.0
  0
LINE
  5
147
330
1F
100
AcDbEntity
  8
0
  6
Continuous
 62
     8
370
    18
100
AcDbLine
 10
-61.7053712756
 20
190.5671180089
 30
0.0
 11
-63.8002836999
 21
190.5671180089
 31
0.0
  0
LINE
  5
148
330
1F
100
AcDbEntity
  8
0
  6
Continuous
 62
     8
370
    18
100
AcDbLine
 10
150.5963690335
 20
190.5671180089
 30
0.0
 11
152.6912814577
 21
190.5671180089
 31
0.0
  0
LINE
  5
149
330
1F
100
AcDbEntity
  8
0
  6
Continuous
 62
     8
370
    18
100
AcDbLine
 10
152.2082854181
 20
191.4230565787
 30
0.0
 11
150.1135201079
 21
191.4230565787
 31
0.0
  0
LINE
  5
14A
330
1F
100
AcDbEntity
  8
0
  6
Continuous
 62
     8
370
    18
100
AcDbLine
 10
-63.3172876602
 20
191.4230565787
 30
0.0
 11
-61.22252235
 21
191.4230565787
 31
0.0
  0
LINE
  5
14B
330
1F
100
AcDbEntity
  8
0
  6
Continuous
 62
     8
370
    18
100
AcDbLine
 10
127.3620383343
 20
205.4093363421
 30
0.0
 11
129.0527248986
 21
205.4093363421
 31
0.0
  0
LINE
  5
14C
330
1F
100
AcDbEntity
  8
0
  6
Continuous
 62
     8
370
    18
100
AcDbLine
 10
-38.4710405765
 20
205.4093363421
 30
0.0
 11
-40.1617271407
 21
205.4093363421
 31
0.0
  0
ARC
  5
14D
330
1F
100
AcDbEntity
  8
0
  6
Continuous
 62
     8
370
    18
100
AcDbCircle
 10
-46.9084805899
 20
178.1005545614
 30
0.0
 40
1.800167350936763
100
AcDbArc
 50
254.0703700377
 51
285.9296299623
  0
ELLIPSE
  5
14E
330
1F
100
AcDbEntity
  8
0
  6
Continuous
 62
     8
370
    18
100
AcDbEllipse
 10
-59.7196592432
 20
174.4313202707
 30
0.0
 11
13.46295250468496
 21
0.0
 31
0.0
210
0.0
220
0.0
230
1.0
 40
0.9433294811
 41
0.1532124372344816
 42
1.570796326794897
  0
ELLIPSE
  5
14F
330
1F
100
AcDbEntity
  8
0
  6
Continuous
 62
     8
370
    18
100
AcDbEllipse
 10
148.610657001
 20
174.4313202707
 30
0.0
 11
13.46295250468495
 21
0.0
 31
0.0
210
0.0
220
0.0
230
1.0
 40
0.9433294811
 41
1.570796326794897
 42
2.988380216355312
  0
ELLIPSE
  5
150
330
1F
100
AcDbEntity
  8
0
  6
Continuous
 62
     8
370
    18
100
AcDbEllipse
 10
134.7461602299
 20
174.4313202707
 30
0.0
 11
2.116632753198587
 21
12.69994079680646
 31
0.0
210
0.0
220
0.0
230
1.0
 40
0.0183207567
 41
4.855725364145484
 42
4.86865483289082
  0
LINE
  5
151
330
1F
100
AcDbEntity
  8
0
  6
Continuous
 62
     8
370
    18
100
AcDbLine
 10
121.4923346638
 20
176.2070762947
 30
0.0
 11
135.2787993547
 21
176.2070762947
 31
0.0
  0
LINE
  5
152
330
1F
100
AcDbEntity
  8
0
  6
Continuous
 62
     8
370
    18
100
AcDbLine
 10
-32.6013369059
 20
176.2070762947
 30
0.0
 11
-46.3878015969
 21
176.2070762947
 31
0.0
  0
ELLIPSE
  5
153
330
1F
100
AcDbEntity
  8
0
  6
Continuous
 62
     8
370
    18
100
AcDbEllipse
 10
-45.8551624721
 20
174.4313202707
 30
0.0
 11
-2.116632753198565
 21
12.69994079680629
 31
0.0
210
0.0
220
0.0
230
1.0
 40
0.0183207567
 41
1.414530474288799
 42
1.427459943034127
  0
ARC
  5
154
330
1F
100
AcDbEntity
  8
0
  6
Continuous
 62
     8
370
    18
100
AcDbCircle
 10
135.7994783478
 20
178.1005545614
 30
0.0
 40
1.800167350937855
100
AcDbArc
 50
254.0703700377
 51
285.9296299623
  0
LINE
  5
155
330
1F
100
AcDbEntity
  8
0
  6
Continuous
 62
     8
370
    18
100
AcDbLine
 10
137.8926778169
 20
176.3695145268
 30
0.0
 11
138.1371983386
 21
176.3695145268
 31
0.0
  0
LINE
  5
156
330
1F
100
AcDbEntity
  8
0
  6
Continuous
 62
     8
370
    18
100
AcDbLine
 10
136.2935460455
 20
176.3695145268
 30
0.0
 11
136.5327862431
 21
176.3695145268
 31
0.0
  0
LINE
  5
157
330
1F
100
AcDbEntity
  8
0
  6
Continuous
 62
     8
370
    18
100
AcDbLine
 10
-49.0016800591
 20
176.3695145268
 30
0.0
 11
-49.2462005808
 21
176.3695145268
 31
0.0
  0
LINE
  5
158
330
1F
100
AcDbEntity
  8
0
  6
Continuous
 62
     8
370
    18
100
AcDbLine
 10
-47.4025482877
 20
176.3695145268
 30
0.0
 11
-47.6417884853
 21
176.3695145268
 31
0.0
  0
ARC
  5
159
330
1F
100
AcDbEntity
  8
0
  6
Continuous
 62
     8
370
    18
100
AcDbCircle
 10
-46.9062494087
 20
178.0841898989
 30
0.0
 40
1.947394057851521
100
AcDbArc
 50
256.0433473022
 51
285.439841548
  0
ELLIPSE
  5
15A
330
1F
100
AcDbEntity
  8
0
  6
Continuous
 62
     8
370
    18
100
AcDbEllipse
 10
-46.8432978675
 20
174.2787065497
 30
0.0
 11
-2.116534938403305
 21
13.69995248155183
 31
0.0
210
0.0
220
0.0
230
1.0
 40
0.0170482807
 41
1.414950070328002
 42
1.427879539073331
  0
ELLIPSE
  5
15B
330
1F
100
AcDbEntity
  8
0
  6
Continuous
 62
     8
370
    18
100
AcDbEllipse
 10
135.7342956254
 20
174.2787065497
 30
0.0
 11
2.116534938403305
 21
13.6999524815518
 31
0.0
210
0.0
220
0.0
230
1.0
 40
0.0170482807
 41
4.85530576810629
 42
4.868235236851604
  0
ARC
  5
15C
330
1F
100
AcDbEntity
  8
0
  6
Continuous
 62
     8
370
    18
100
AcDbCircle
 10
135.7972471665
 20
178.0841898989
 30
0.0
 40
1.947394057850778
100
AcDbArc
 50
254.560158452
 51
283.9566526978
  0
LINE
  5
15D
330
1F
100
AcDbEntity
  8
0
  6
Continuous
 62
     8
370
    18
100
AcDbLine
 10
123.4700654633
 20
172.1863201101
 30
0.0
 11
125.4477962629
 21
171.6569670587
 31
0.0
  0
LINE
  5
15E
330
1F
100
AcDbEntity
  8
0
  6
Continuous
 62
     8
370
    18
100
AcDbLine
 10
121.4923346638
 20
174.4613747281
 30
0.0
 11
121.4923346638
 21
176.2070762947
 31
0.0
  0
LINE
  5
15F
330
1F
100
AcDbEntity
  8
0
  6
Continuous
 62
     8
370
    18
100
AcDbLine
 10
135.2787993547
 20
176.2070762947
 30
0.0
 11
107.8871097361
 21
-4.0235511996
 31
0.0
  0
LINE
  5
160
330
1F
100
AcDbEntity
  8
0
  6
Continuous
 62
     8
370
    18
100
AcDbLine
 10
-18.9961119782
 20
-4.0235511996
 30
0.0
 11
107.8871097361
 21
-4.0235511996
 31
0.0
  0
LINE
  5
161
330
1F
100
AcDbEntity
  8
0
  6
Continuous
 62
     8
370
    18
100
AcDbLine
 10
-46.3878015969
 20
176.2070762947
 30
0.0
 11
-18.9961119782
 21
-4.0235511996
 31
0.0
  0
LINE
  5
162
330
1F
100
AcDbEntity
  8
0
  6
Continuous
 62
     8
370
    18
100
AcDbLine
 10
108.8752451316
 20
-4.0363416116
 30
0.0
 11
136.2669347502
 21
176.1942858827
 31
0.0
  0
ARC
  5
163
330
1F
100
AcDbEntity
  8
0
  6
Continuous
 62
     8
370
    18
100
AcDbCircle
 10
108.4055575479
 20
-2.1464375955
 30
0.0
 40
1.947394057851257
100
AcDbArc
 50
254.560158452
 51
283.9566526978
  0
LINE
  5
164
330
1F
100
AcDbEntity
  8
0
  6
Continuous
 62
     8
370
    18
100
AcDbLine
 10
-34.5790677055
 20
172.1863201101
 30
0.0
 11
-36.5567985051
 21
171.6569670587
 31
0.0
  0
LINE
  5
165
330
1F
100
AcDbEntity
  8
0
  6
Continuous
 62
     8
370
    18
100
AcDbLine
 10
-32.6013369059
 20
174.4613747281
 30
0.0
 11
-32.6013369059
 21
176.2070762947
 31
0.0
  0
ARC
  5
166
330
1F
100
AcDbEntity
  8
0
  6
Continuous
 62
     8
370
    18
100
AcDbCircle
 10
-19.51455979
 20
-2.1464375955
 30
0.0
 40
1.947394057850927
100
AcDbArc
 50
256.0433473022
 51
285.439841548
  0
LINE
  5
167
330
1F
100
AcDbEntity
  8
0
  6
Continuous
 62
     8
370
    18
100
AcDbLine
 10
-19.9842473737
 20
-4.0363416116
 30
0.0
 11
-47.3759369923
 21
176.1942858827
 31
0.0
  0
LINE
  5
168
330
1F
100
AcDbEntity
  8
0
  6
Continuous
 62
     8
370
    18
100
AcDbLine
 10
98.508233738
 20
7.9435640806
 30
0.0
 11
100.4859645376
 21
7.4142110291
 31
0.0
  0
LINE
  5
169
330
1F
100
AcDbEntity
  8
0
  6
Continuous
 62
     8
370
    18
100
AcDbLine
 10
-9.6172359801
 20
7.9435640806
 30
0.0
 11
-11.5949667797
 21
7.4142110291
 31
0.0
  0
LINE
  5
16A
330
1F
100
AcDbEntity
  8
0
  6
Continuous
 62
     8
370
    18
100
AcDbLine
 10
-21.167144074
 20
-5.4353024458
 30
0.0
 11
-19.9842473737
 21
-4.0363416116
 31
0.0
  0
LINE
  5
16B
330
1F
100
AcDbEntity
  8
0
  6
Continuous
 62
     8
370
    18
100
AcDbLine
 10
108.8752451316
 20
-4.0363416116
 30
0.0
 11
110.0581418319
 21
-5.4353024458
 31
0.0
  0
LINE
  5
16C
330
1F
100
AcDbEntity
  8
0
  6
Continuous
 62
     8
370
    18
100
AcDbLine
 10
123.4700654633
 20
172.3711386631
 30
0.0
 11
123.4700654633
 21
172.1863201101
 31
0.0
  0
LINE
  5
16D
330
1F
100
AcDbEntity
  8
0
  6
Continuous
 62
     8
370
    18
100
AcDbLine
 10
-34.5790677055
 20
172.3711386631
 30
0.0
 11
-34.5790677055
 21
172.1863201101
 31
0.0
  0
LINE
  5
16E
330
1F
100
AcDbEntity
  8
0
  6
Continuous
 62
     8
370
    18
100
AcDbLine
 10
-9.6172359801
 20
7.9435640806
 30
0.0
 11
-9.6172359801
 21
8.1283826336
 31
0.0
  0
LINE
  5
16F
330
1F
100
AcDbEntity
  8
0
  6
Continuous
 62
     8
370
    18
100
AcDbLine
 10
98.508233738
 20
7.9435640806
 30
0.0
 11
98.508233738
 21
8.1283826336
 31
0.0
  0
SPLINE
  5
170
330
1F
100
AcDbEntity
  8
0
  6
Continuous
 62
     8
370
    18
100
AcDbSpline
210
0.0
220
0.0
230
1.0
 70
     8
 71
     3
 72
    11
 73
     7
 74
     0
 42
0.000000001
 43
0.00000001
 40
0.0
 40
0.0
 40
0.0
 40
0.0
 40
0.2431547797177639
 40
0.2932553296007717
 40
0.6289243663922641
 40
1.0
 40
1.0
 40
1.0
 40
1.0
 10
125.9417256386615
 20
206.0505921259352
 30
0.0
 10
125.9913144040077
 20
205.9667384879237
 30
0.0
 10
126.051120630079
 20
205.8656073224913
 30
0.0
 10
126.2275181801623
 20
205.7000564920993
 30
0.0
 10
126.4690222274561
 20
205.5415733369995
 30
0.0
 10
126.7155613862529
 20
205.4548615552516
 30
0.0
 10
126.8450065428864
 20
205.4093336146798
 30
0.0
  0
SPLINE
  5
171
330
1F
100
AcDbEntity
  8
0
  6
Continuous
 62
     8
370
    18
100
AcDbSpline
210
0.0
220
0.0
230
1.0
 70
     8
 71
     3
 72
    11
 73
     7
 74
     0
 42
0.000000001
 43
0.00000001
 40
0.0
 40
0.0
 40
0.0
 40
0.0
 40
0.2431547797177664
 40
0.2932553296007594
 40
0.6289243663922509
 40
1.0
 40
1.0
 40
1.0
 40
1.0
 10
-37.05072788081271
 20
206.0505921259352
 30
0.0
 10
-37.10031664615895
 20
205.9667384879236
 30
0.0
 10
-37.16012287223023
 20
205.8656073224912
 30
0.0
 10
-37.3365204223135
 20
205.7000564920994
 30
0.0
 10
-37.57802446960734
 20
205.5415733369995
 30
0.0
 10
-37.82456362840419
 20
205.4548615552516
 30
0.0
 10
-37.9540087850376
 20
205.4093336146798
 30
0.0
  0
LINE
  5
172
330
1F
100
AcDbEntity
  8
0
  6
Continuous
 62
     8
370
    18
100
AcDbLine
 10
-37.0507278808
 20
206.0505921259
 30
0.0
 11
125.9417256387
 21
206.0505921259
 31
0.0
  0
ARC
  5
173
330
1F
100
AcDbEntity
  8
0
  6
Continuous
 62
     8
370
    18
100
AcDbCircle
 10
-38.2125291126
 20
204.9057518013
 30
0.0
 40
0.5660630729038291
100
AcDbArc
 50
62.8257084527
 51
117.1714373404
  0
SPLINE
  5
174
330
1F
100
AcDbEntity
  8
0
  6
Continuous
 62
     8
370
    18
100
AcDbSpline
210
0.0
220
0.0
230
1.0
 70
     8
 71
     3
 72
    11
 73
     7
 74
     0
 42
0.000000001
 43
0.00000001
 40
0.0
 40
0.0
 40
0.0
 40
0.0
 40
0.3708542775827824
 40
0.7063259998111341
 40
0.9312813413242387
 40
1.0
 40
1.0
 40
1.0
 40
1.0
 10
-38.47102435367053
 20
205.4093464923248
 30
0.0
 10
-38.40739219313413
 20
205.4550091485671
 30
0.0
 10
-38.28619890475157
 20
205.5419778672096
 30
0.0
 10
-38.14058490471719
 20
205.7355099769159
 30
0.0
 10
-38.05831134221613
 20
205.9198683127162
 30
0.0
 10
-38.03315279538072
 20
206.0258140763467
 30
0.0
 10
-38.02726578600419
 20
206.0506050035802
 30
0.0
  0
ARC
  5
175
330
1F
100
AcDbEntity
  8
0
  6
Continuous
 62
     8
370
    18
100
AcDbCircle
 10
-37.5390129968
 20
204.8014517862
 30
0.0
 40
1.341183784183328
100
AcDbArc
 50
68.6496244793
 51
111.348896585
  0
SPLINE
  5
176
330
1F
100
AcDbEntity
  8
0
  6
Continuous
 62
     8
370
    18
100
AcDbSpline
210
0.0
220
0.0
230
1.0
 70
     8
 71
     3
 72
    11
 73
     7
 74
     0
 42
0.000000001
 43
0.00000001
 40
0.0
 40
0.0
 40
0.0
 40
0.0
 40
0.3708542775827781
 40
0.7063259998111139
 40
0.9312813413242377
 40
1.0
 40
1.0
 40
1.0
 40
1.0
 10
127.3620221115193
 20
205.4093464923248
 30
0.0
 10
127.2983899509829
 20
205.4550091485672
 30
0.0
 10
127.1771966626004
 20
205.5419778672096
 30
0.0
 10
127.031582662566
 20
205.7355099769159
 30
0.0
 10
126.9493091000649
 20
205.9198683127162
 30
0.0
 10
126.9241505532295
 20
206.0258140763467
 30
0.0
 10
126.918263543853
 20
206.0506050035803
 30
0.0
  0
ARC
  5
177
330
1F
100
AcDbEntity
  8
0
  6
Continuous
 62
     8
370
    18
100
AcDbCircle
 10
127.1035268704
 20
204.9057518013
 30
0.0
 40
0.566063072904121
100
AcDbArc
 50
62.8285626596
 51
117.1742915473
  0
ARC
  5
178
330
1F
100
AcDbEntity
  8
0
  6
Continuous
 62
     8
370
    18
100
AcDbCircle
 10
126.4300107547
 20
204.8014517862
 30
0.0
 40
1.34118378418292
100
AcDbArc
 50
68.651103415
 51
111.3503755207
  0
LINE
  5
179
330
1F
100
AcDbEntity
  8
0
  6
Continuous
 62
     8
370
    18
100
AcDbLine
 10
-38.4710405765
 20
205.4093363421
 30
0.0
 11
-38.4710243537
 21
205.4093464923
 31
0.0
  0
LINE
  5
17A
330
1F
100
AcDbEntity
  8
0
  6
Continuous
 62
     8
370
    18
100
AcDbLine
 10
127.3620221115
 20
205.4093464923
 30
0.0
 11
127.3620383343
 21
205.4093363421
 31
0.0
  0
LINE
  5
17B
330
1F
100
AcDbEntity
  8
0
  6
Continuous
 62
     8
370
    18
100
AcDbLine
 10
125.9417200759
 20
206.0506178812
 30
0.0
 11
125.9417256387
 21
206.0505921259
 31
0.0
  0
ARC
  5
17C
330
1F
100
AcDbEntity
  8
0
  6
Continuous
 62
     8
370
    18
100
AcDbCircle
 10
126.4299907526
 20
204.8014624883
 30
0.0
 40
1.341192547463424
100
AcDbArc
 50
68.6504653064
 51
111.3495668813
  0
LINE
  5
17D
330
1F
100
AcDbEntity
  8
0
  6
Continuous
 62
     8
370
    18
100
AcDbLine
 10
-37.0507278808
 20
206.0505921259
 30
0.0
 11
-37.0507223181
 21
206.0506178812
 31
0.0
  0
ARC
  5
17E
330
1F
100
AcDbEntity
  8
0
  6
Continuous
 62
     8
370
    18
100
AcDbCircle
 10
-37.5389929947
 20
204.8014624883
 30
0.0
 40
1.341192547463726
100
AcDbArc
 50
68.6504331187
 51
111.3495346936
  0
LINE
  5
17F
330
1F
100
AcDbEntity
  8
0
  6
Continuous
 62
     8
370
    18
100
AcDbLine
 10
-27.3522446669
 20
250.9556715219
 30
0.0
 11
-37.0507223181
 21
206.0506178812
 31
0.0
  0
LINE
  5
180
330
1F
100
AcDbEntity
  8
0
  6
Continuous
 62
     8
370
    18
100
AcDbLine
 10
-38.0272630532
 20
206.0506178812
 30
0.0
 11
-28.328785402
 21
250.9556715219
 31
0.0
  0
ARC
  5
181
330
1F
100
AcDbEntity
  8
0
  6
Continuous
 62
     8
370
    18
100
AcDbCircle
 10
-27.8405150345
 20
249.7065197161
 30
0.0
 40
1.341189093978946
100
AcDbArc
 50
68.6503896293
 51
111.3496103706
  0
LINE
  5
182
330
1F
100
AcDbEntity
  8
0
  6
Continuous
 62
     8
370
    18
100
AcDbLine
 10
126.918260811
 20
206.0506178812
 30
0.0
 11
117.2197831599
 21
250.9556715219
 31
0.0
  0
LINE
  5
183
330
1F
100
AcDbEntity
  8
0
  6
Continuous
 62
     8
370
    18
100
AcDbLine
 10
116.2432424248
 20
250.9556715219
 30
0.0
 11
125.9417200759
 21
206.0506178812
 31
0.0
  0
ARC
  5
184
330
1F
100
AcDbEntity
  8
0
  6
Continuous
 62
     8
370
    18
100
AcDbCircle
 10
116.7315127923
 20
249.7065197161
 30
0.0
 40
1.341189093978765
100
AcDbArc
 50
68.6503896293
 51
111.3496103707
  0
LINE
  5
185
330
1F
100
AcDbEntity
  8
0
  6
Continuous
 62
     8
370
    18
100
AcDbLine
 10
116.2432424248
 20
250.9556715219
 30
0.0
 11
-27.3522446669
 21
250.9556715219
 31
0.0
  0
LINE
  5
186
330
1F
100
AcDbEntity
  8
0
  6
Continuous
 62
     8
370
    18
100
AcDbLine
 10
128.5930429201
 20
206.0506178812
 30
0.0
 11
126.9182607625
 21
206.0506178812
 31
0.0
  0
LINE
  5
187
330
1F
100
AcDbEntity
  8
0
  6
Continuous
 62
     8
370
    18
100
AcDbLine
 10
-39.7020451623
 20
206.0506178812
 30
0.0
 11
-38.0272630046
 21
206.0506178812
 31
0.0
  0
LINE
  5
188
330
1F
100
AcDbEntity
  8
0
  6
Continuous
 62
     8
370
    18
100
AcDbLine
 10
-28.328785402
 20
250.9556715219
 30
0.0
 11
-29.5010261174
 21
252.4581853614
 31
0.0
  0
LINE
  5
189
330
1F
100
AcDbEntity
  8
0
  6
Continuous
 62
     8
370
    18
100
AcDbLine
 10
117.2197831599
 20
250.9556715219
 30
0.0
 11
118.3920238753
 21
252.4581853614
 31
0.0
  0
LINE
  5
18A
330
1F
100
AcDbEntity
  8
0
  6
Continuous
 62
     8
370
    18
100
AcDbLine
 10
137.8926778169
 20
176.3695145268
 30
0.0
 11
136.2578311671
 21
174.9370085869
 31
0.0
  0
LINE
  5
18B
330
1F
100
AcDbEntity
  8
0
  6
Continuous
 62
     8
370
    18
100
AcDbLine
 10
-49.0016800591
 20
176.3695145268
 30
0.0
 11
-47.3668334093
 21
174.9370085869
 31
0.0
  0
ARC
  5
18C
330
1F
100
AcDbEntity
  8
0
  6
Continuous
 62
     8
370
    18
100
AcDbCircle
 10
-27.3519817715
 20
250.7406785914
 30
0.0
 40
1.000183629476628
100
AcDbArc
 50
90.0150600306
 51
167.5872031574
  0
LINE
  5
18D
330
1F
100
AcDbEntity
  8
0
  6
Continuous
 62
     8
370
    18
100
AcDbLine
 10
-27.3522446669
 20
251.7408621864
 30
0.0
 11
-27.3522446669
 21
250.9556715219
 31
0.0
  0
LINE
  5
18E
330
1F
100
AcDbEntity
  8
0
  6
Continuous
 62
     8
370
    18
100
AcDbLine
 10
116.2432424248
 20
251.7408621864
 30
0.0
 11
116.2432424248
 21
250.9556715219
 31
0.0
  0
ARC
  5
18F
330
1F
100
AcDbEntity
  8
0
  6
Continuous
 62
     8
370
    18
100
AcDbCircle
 10
116.2429795294
 20
250.7406785914
 30
0.0
 40
1.000183629476658
100
AcDbArc
 50
12.4127968426
 51
89.9849399694
  0
LINE
  5
190
330
1F
100
AcDbEntity
  8
0
  6
Continuous
 62
     8
370
    18
100
AcDbLine
 10
-27.3522446669
 20
251.7408621864
 30
0.0
 11
116.2432424248
 21
251.7408621864
 31
0.0
  0
LINE
  5
191
330
1F
100
AcDbEntity
  8
0
  6
Continuous
 62
     8
370
    18
100
AcDbLine
 10
117.4154886804
 20
253.243383127
 30
0.0
 11
116.2432424248
 21
251.7408621864
 31
0.0
  0
LINE
  5
192
330
1F
100
AcDbEntity
  8
0
  6
Continuous
 62
     8
370
    18
100
AcDbLine
 10
-28.5244909226
 20
253.243383127
 30
0.0
 11
-27.3522446669
 21
251.7408621864
 31
0.0
  0
ARC
  5
193
330
1F
100
AcDbEntity
  8
0
  6
Continuous
 62
     8
370
    18
100
AcDbCircle
 10
22.0211168275
 20
227.4524395352
 30
0.0
 40
49.99999999999564
100
AcDbArc
 50
148.9477947607
 51
149.1323613491
  0
SPLINE
  5
194
330
1F
100
AcDbEntity
  8
0
  6
Continuous
 62
     8
370
    18
100
AcDbSpline
210
0.0
220
0.0
230
1.0
 70
     8
 71
     3
 72
     9
 73
     5
 74
     0
 42
0.000000001
 43
0.00000001
 40
0.0
 40
0.0
 40
0.0
 40
0.0
 40
0.5594198428901419
 40
1.0
 40
1.0
 40
1.0
 40
1.0
 10
109.7876220878344
 20
253.1052657719906
 30
0.0
 10
109.7442342163454
 20
253.0599232238308
 30
0.0
 10
109.6666755239957
 20
252.9788704175421
 30
0.0
 10
108.7849733895363
 20
252.8993297884514
 30
0.0
 10
108.3965129246121
 20
252.8642857655901
 30
0.0
  0
SPLINE
  5
195
330
1F
100
AcDbEntity
  8
0
  6
Continuous
 62
     8
370
    18
100
AcDbSpline
210
0.0
220
0.0
230
1.0
 70
     8
 71
     3
 72
     9
 73
     5
 74
     0
 42
0.000000001
 43
0.00000001
 40
0.0
 40
0.0
 40
0.0
 40
0.0
 40
0.4786981302514652
 40
0.9999999999999999
 40
0.9999999999999999
 40
0.9999999999999999
 40
0.9999999999999999
 10
-19.49920848593337
 20
252.8616843340348
 30
0.0
 10
-19.91145271143346
 20
252.9002129964579
 30
0.0
 10
-20.77263055911704
 20
252.9806993405406
 30
0.0
 10
-20.85413559985502
 20
253.062580809253
 30
0.0
 10
-20.89662432998565
 20
253.1052657719906
 30
0.0
  0
ARC
  5
196
330
1F
100
AcDbEntity
  8
0
  6
Continuous
 62
     8
370
    18
100
AcDbCircle
 10
66.8698809303
 20
227.4524395352
 30
0.0
 40
49.99999999999564
100
AcDbArc
 50
30.8676386509
 51
31.0522052393
  0
LINE
  5
197
330
1F
100
AcDbEntity
  8
0
  6
Continuous
 62
     8
370
    18
100
AcDbLine
 10
-7.6395051806
 20
6.2579128176
 30
0.0
 11
-7.6395051806
 21
4.042908503
 31
0.0
  0
LINE
  5
198
330
1F
100
AcDbEntity
  8
0
  6
Continuous
 62
     8
370
    18
100
AcDbLine
 10
96.5305029384
 20
6.2579128176
 30
0.0
 11
96.5305029384
 21
4.042908503
 31
0.0
  0
ARC
  5
199
330
1F
100
AcDbEntity
  8
0
  6
Continuous
 62
     8
370
    18
100
AcDbCircle
 10
107.8868197858
 20
-3.8833855329
 30
0.0
 40
1.000190094986227
100
AcDbArc
 50
270.0166097685
 51
351.203410741
  0
LINE
  5
19A
330
1F
100
AcDbEntity
  8
0
  6
Continuous
 62
     8
370
    18
100
AcDbLine
 10
107.8871097361
 20
-4.0235511996
 30
0.0
 11
107.8871097361
 21
-4.8835755858
 31
0.0
  0
LINE
  5
19B
330
1F
100
AcDbEntity
  8
0
  6
Continuous
 62
     8
370
    18
100
AcDbLine
 10
107.8871097361
 20
-4.8835755858
 30
0.0
 11
-18.9961119782
 21
-4.8835755858
 31
0.0
  0
LINE
  5
19C
330
1F
100
AcDbEntity
  8
0
  6
Continuous
 62
     8
370
    18
100
AcDbLine
 10
-18.9961119782
 20
-4.0235511996
 30
0.0
 11
-18.9961119782
 21
-4.8835755858
 31
0.0
  0
ARC
  5
19D
330
1F
100
AcDbEntity
  8
0
  6
Continuous
 62
     8
370
    18
100
AcDbCircle
 10
-18.995822028
 20
-3.8833855329
 30
0.0
 40
1.000190094986197
100
AcDbArc
 50
188.796589259
 51
269.9833902315
  0
LINE
  5
19E
330
1F
100
AcDbEntity
  8
0
  6
Continuous
 62
     8
370
    18
100
AcDbLine
 10
-7.6395051806
 20
6.4427313705
 30
0.0
 11
-7.6395051806
 21
6.2579128176
 31
0.0
  0
LINE
  5
19F
330
1F
100
AcDbEntity
  8
0
  6
Continuous
 62
     8
370
    18
100
AcDbLine
 10
96.5305029384
 20
6.4427313705
 30
0.0
 11
96.5305029384
 21
6.2579128176
 31
0.0
  0
LINE
  5
1A0
330
1F
100
AcDbEntity
  8
0
  6
Continuous
 62
     8
370
    18
100
AcDbLine
 10
-18.9961119782
 20
-4.8835755858
 30
0.0
 11
-20.1790116959
 21
-6.2825399885
 31
0.0
  0
LINE
  5
1A1
330
1F
100
AcDbEntity
  8
0
  6
Continuous
 62
     8
370
    18
100
AcDbLine
 10
109.0700094538
 20
-6.2825399885
 30
0.0
 11
107.8871097361
 21
-4.8835755858
 31
0.0
  0
ARC
  5
1A2
330
1F
100
AcDbEntity
  8
0
  6
Continuous
 62
     8
370
    18
100
AcDbCircle
 10
-20.8954699452
 20
258.1040329872
 30
0.0
 40
4.998767348465049
100
AcDbArc
 50
269.9867684629
 51
329.1302092954
  0
SPLINE
  5
1A3
330
1F
100
AcDbEntity
  8
0
  6
Continuous
 62
     8
370
    18
100
AcDbSpline
210
0.0
220
0.0
230
1.0
 70
     8
 71
     3
 72
    45
 73
    41
 74
     0
 42
0.000000001
 43
0.00000001
 40
0.0
 40
0.0
 40
0.0
 40
0.0
 40
0.0261581206521103
 40
0.0524972837806964
 40
0.0794073436315048
 40
0.1065146454038922
 40
0.1327094498252113
 40
0.1590860476910999
 40
0.1860359763963564
 40
0.2131840018392607
 40
0.2393782097301164
 40
0.2657541633184052
 40
0.2927032851545284
 40
0.3198504440447359
 40
0.3460457669587341
 40
0.3724228218510376
 40
0.399373004972631
 40
0.4265212139468209
 40
0.4525227357698728
 40
0.4787019311096986
 40
0.5000048136048031
 40
0.5165837107995503
 40
0.5332083380403068
 40
0.5594069351414758
 40
0.5857873101042389
 40
0.6127409946904705
 40
0.6398927837787125
 40
0.6666575184771448
 40
0.6936162011039743
 40
0.7211879928847782
 40
0.748971999008194
 40
0.7751712569317949
 40
0.8015523687002867
 40
0.8285070555055334
 40
0.855659946952451
 40
0.88185919816449
 40
0.9082403377429924
 40
0.9351951570120096
 40
0.962348213614033
 40
0.9999999999999999
 40
0.9999999999999999
 40
0.9999999999999999
 40
0.9999999999999999
 10
-16.60485021423208
 20
255.5392216240938
 30
0.0
 10
-16.58152912117977
 20
255.5109218895439
 30
0.0
 10
-16.53472552789698
 20
255.4541265556841
 30
0.0
 10
-15.92750849259644
 20
255.3687097501957
 30
0.0
 10
-14.91360120868598
 20
255.2834082548213
 30
0.0
 10
-13.46485475605338
 20
255.2000226764973
 30
0.0
 10
-11.61862021508378
 20
255.1195235013622
 30
0.0
 10
-9.385137217107514
 20
255.0420273695368
 30
0.0
 10
-6.740237915302566
 20
254.9670736578701
 30
0.0
 10
-3.731006742990734
 20
254.8963489511117
 30
0.0
 10
-0.4025993564603925
 20
254.8306154299189
 30
0.0
 10
3.229728809146487
 20
254.7699035317413
 30
0.0
 10
7.200279467397458
 20
254.7138830041934
 30
0.0
 10
11.43136915888962
 20
254.6638811658738
 30
0.0
 10
15.86549435047155
 20
254.6203666189507
 30
0.0
 10
20.48768718797198
 20
254.5832835137022
 30
0.0
 10
25.33671191142103
 20
254.5525121047353
 30
0.0
 10
30.30112483447253
 20
254.5289298718854
 30
0.0
 10
35.31623388383719
 20
254.5125993305263
 30
0.0
 10
40.02041809904868
 20
254.503961710146
 30
0.0
 10
44.14164607997723
 20
254.5016269472892
 30
0.0
 10
47.6479514664262
 20
254.5031729893273
 30
0.0
 10
51.45853813983383
 20
254.508226499959
 30
0.0
 10
55.86758014726897
 20
254.5191599871644
 30
0.0
 10
60.85479845143539
 20
254.5387575292703
 30
0.0
 10
65.78500888716837
 20
254.5656701831416
 30
0.0
 10
70.58341706487089
 20
254.5997311758574
 30
0.0
 10
75.19216395857119
 20
254.6405396513005
 30
0.0
 10
79.60141367454841
 20
254.6880219653876
 30
0.0
 10
83.80355177530969
 20
254.7423880487358
 30
0.0
 10
87.67125780406776
 20
254.8021670961354
 30
0.0
 10
91.16953367291607
 20
254.8663096716002
 30
0.0
 10
94.30652493405921
 20
254.9344049635444
 30
0.0
 10
97.12487442813514
 20
255.0075688070477
 30
0.0
 10
99.55598489090299
 20
255.0843391809051
 30
0.0
 10
101.5784142419438
 20
255.1636976197621
 30
0.0
 10
103.2005975689523
 20
255.2454003578461
 30
0.0
 10
104.4125128735806
 20
255.3301113641703
 30
0.0
 10
105.3402532886591
 20
255.428321671446
 30
0.0
 10
105.4386684823906
 20
255.4984670008662
 30
0.0
 10
105.4958479720808
 20
255.5392216240938
 30
0.0
  0
ARC
  5
1A4
330
1F
100
AcDbEntity
  8
0
  6
Continuous
 62
     8
370
    18
100
AcDbCircle
 10
109.7864677031
 20
258.1040329872
 30
0.0
 40
4.998767348465014
100
AcDbArc
 50
210.8697907046
 51
270.0132315371
  0
LINE
  5
1A5
330
1F
100
AcDbEntity
  8
0
  6
Continuous
 62
     8
370
    18
100
AcDbLine
 10
77.8237887916
 20
276.0981200489
 30
0.0
 11
11.0672089663
 21
276.0981200489
 31
0.0
  0
LINE
  5
1A6
330
1F
100
AcDbEntity
  8
0
  6
Continuous
 62
     8
370
    18
100
AcDbLine
 10
-22.202690692
 20
2.8583829535
 30
0.0
 11
-21.4209372805
 21
4.1486758027
 31
0.0
  0
LINE
  5
1A7
330
1F
100
AcDbEntity
  8
0
  6
Continuous
 62
     8
370
    18
100
AcDbLine
 10
111.0936884498
 20
2.8583829535
 30
0.0
 11
110.3119350383
 21
4.1486758027
 31
0.0
  0
LINE
  5
1A8
330
1F
100
AcDbEntity
  8
0
  6
Continuous
 62
     8
370
    18
100
AcDbLine
 10
10.1195553065
 20
312.0108751012
 30
0.0
 11
78.7714424514
 21
312.0108751012
 31
0.0
  0
LINE
  5
1A9
330
1F
100
AcDbEntity
  8
0
  6
Continuous
 62
     8
370
    18
100
AcDbLine
 10
10.1195553065
 20
314.0320211971
 30
0.0
 11
78.7714424514
 21
314.0320211971
 31
0.0
  0
LINE
  5
1AA
330
1F
100
AcDbEntity
  8
0
  6
Continuous
 62
     8
370
    18
100
AcDbLine
 10
11.5897155421
 20
316.3100532556
 30
0.0
 11
77.3012822158
 21
316.3100532556
 31
0.0
  0
LINE
  5
1AB
330
1F
100
AcDbEntity
  8
0
  6
Continuous
 62
     8
370
    18
100
AcDbLine
 10
11.4454988789
 20
276.583080516
 30
0.0
 11
77.4454988789
 21
276.583080516
 31
0.0
  0
LINE
  5
1AC
330
1F
100
AcDbEntity
  8
0
  6
Continuous
 62
     8
370
    18
100
AcDbLine
 10
13.7319240908
 20
309.2275990978
 30
0.0
 11
75.1590736671
 21
309.2275990978
 31
0.0
  0
LINE
  5
1AD
330
1F
100
AcDbEntity
  8
0
  6
Continuous
 62
     8
370
    18
100
AcDbLine
 10
12.1982950162
 20
279.8679488253
 30
0.0
 11
76.6927027417
 21
279.8679488253
 31
0.0
  0
LINE
  5
1AE
330
1F
100
AcDbEntity
  8
0
  6
Continuous
 62
     8
370
    18
100
AcDbLine
 10
77.4454988789
 20
278.8989853326
 30
0.0
 11
11.4454988789
 21
278.8989853326
 31
0.0
  0
LINE
  5
1AF
330
1F
100
AcDbEntity
  8
0
  6
Continuous
 62
     8
370
    18
100
AcDbLine
 10
16.308982792
 20
318.4435127277
 30
0.0
 11
72.5820149659
 21
318.4435127277
 31
0.0
  0
LINE
  5
1B0
330
1F
100
AcDbEntity
  8
0
  6
Continuous
 62
     8
370
    18
100
AcDbLine
 10
14.9147720342
 20
306.4676205632
 30
0.0
 11
73.9762257237
 21
306.4676205632
 31
0.0
  0
LINE
  5
1B1
330
1F
100
AcDbEntity
  8
0
  6
Continuous
 62
     8
370
    18
100
AcDbLine
 10
15.3796932914
 20
305.9706522346
 30
0.0
 11
73.5113044665
 21
305.9706522346
 31
0.0
  0
LINE
  5
1B2
330
1F
100
AcDbEntity
  8
0
  6
Continuous
 62
     8
370
    18
100
AcDbLine
 10
17.4422033032
 20
319.1517996507
 30
0.0
 11
71.4487944547
 21
319.1517996507
 31
0.0
  0
LINE
  5
1B3
330
1F
100
AcDbEntity
  8
0
  6
Continuous
 62
     8
370
    18
100
AcDbLine
 10
34.4398704662
 20
326.9258809712
 30
0.0
 11
54.4511272916
 21
326.9258809712
 31
0.0
  0
LINE
  5
1B4
330
1F
100
AcDbEntity
  8
0
  6
Continuous
 62
     8
370
    18
100
AcDbLine
 10
54.4511272916
 20
328.5283988163
 30
0.0
 11
34.4398704662
 21
328.5283988163
 31
0.0
  0
LINE
  5
1B5
330
1F
100
AcDbEntity
  8
0
  6
Continuous
 62
     8
370
    18
100
AcDbLine
 10
36.9295184549
 20
331.2591659806
 30
0.0
 11
51.961479303
 21
331.2591659806
 31
0.0
  0
LINE
  5
1B6
330
1F
100
AcDbEntity
  8
0
  6
Continuous
 62
     8
370
    18
100
AcDbLine
 10
-22.8823735475
 20
6.8003796385
 30
0.0
 11
-21.815628732
 21
6.9651342828
 31
0.0
  0
LINE
  5
1B7
330
1F
100
AcDbEntity
  8
0
  6
Continuous
 62
     8
370
    18
100
AcDbLine
 10
111.7733713053
 20
6.8003796385
 30
0.0
 11
110.7066264899
 21
6.9651342828
 31
0.0
  0
LINE
  5
1B8
330
1F
100
AcDbEntity
  8
0
  6
Continuous
 62
     8
370
    18
100
AcDbLine
 10
-6.828169907
 20
-5.050288694
 30
0.0
 11
-6.828169907
 21
-6.1023997269
 31
0.0
  0
LINE
  5
1B9
330
1F
100
AcDbEntity
  8
0
  6
Continuous
 62
     8
370
    18
100
AcDbLine
 10
95.7191676648
 20
-5.050288694
 30
0.0
 11
95.7191676648
 21
-6.1023997269
 31
0.0
  0
LINE
  5
1BA
330
1F
100
AcDbEntity
  8
0
  6
Continuous
 62
     8
370
    18
100
AcDbLine
 10
-48.459501602
 20
172.4058401895
 30
0.0
 11
-46.9950175785
 21
172.6320241286
 31
0.0
  0
LINE
  5
1BB
330
1F
100
AcDbEntity
  8
0
  6
Continuous
 62
     8
370
    18
100
AcDbLine
 10
137.3504993598
 20
172.4058401895
 30
0.0
 11
135.8860153364
 21
172.6320241286
 31
0.0
  0
DIMENSION
  5
1BC
330
1F
100
AcDbEntity
  8
DÉFAUT
100
AcDbDimension
280
     0
  2
_D
 10
-79.8002836999
 20
-6.2825399885
 30
0.0
 11
-79.8002836999
 21
166.0111809427
 31
0.0
 70
   160
  1
<>
 71
     2
 42
-1.0
 73
     0
 74
     0
 75
     0
  3
SLDDIMSTYLE0
100
AcDbAlignedDimension
 13
40.1954988789
 23
333.9864387079
 33
0.0
 14
-20.1790116959
 24
-6.2825399885
 34
0.0
 50
90.0
100
AcDbRotatedDimension
  0
ARC
  5
1C6
330
1F
100
AcDbEntity
  8
0
  6
Continuous
 62
     7
100
AcDbCircle
 10
241.0719376787
 20
329.029987095
 30
0.0
 40
5.556451612903264
100
AcDbArc
 50
101.0169431111
 51
116.8721404343
  0
ARC
  5
1C7
330
1F
100
AcDbEntity
  8
0
  6
Continuous
 62
     7
100
AcDbCircle
 10
241.0719376787
 20
329.029987095
 30
0.0
 40
5.556451612903277
100
AcDbArc
 50
63.1278595657
 51
78.9830568889
  0
LINE
  5
1C8
330
1F
100
AcDbEntity
  8
0
  6
Continuous
 62
     7
100
AcDbLine
 10
234.25353365
 20
291.7123602024
 30
0.0
 11
236.0719376787
 21
291.0505152621
 31
0.0
  0
LINE
  5
1C9
330
1F
100
AcDbEntity
  8
0
  6
Continuous
 62
     7
100
AcDbLine
 10
236.0719376787
 20
294.4699991757
 30
0.0
 11
234.25353365
 21
293.8081542354
 31
0.0
  0
ARC
  5
1CA
330
1F
100
AcDbEntity
  8
0
  6
Continuous
 62
     7
100
AcDbCircle
 10
234.3219376787
 20
291.9002987265
 30
0.0
 40
0.2000000000000171
100
AcDbArc
 50
180.0
 51
250.0
  0
ARC
  5
1CB
330
1F
100
AcDbEntity
  8
0
  6
Continuous
 62
     7
100
AcDbCircle
 10
234.3219376787
 20
293.6202157113
 30
0.0
 40
0.2000000000000171
100
AcDbArc
 50
110.0
 51
180.0
  0
LINE
  5
1CC
330
1F
100
AcDbEntity
  8
0
  6
Continuous
 62
     7
100
AcDbLine
 10
236.0719376787
 20
192.2768893197
 30
0.0
 11
234.25353365
 21
191.6150443794
 31
0.0
  0
LINE
  5
1CD
330
1F
100
AcDbEntity
  8
0
  6
Continuous
 62
     7
100
AcDbLine
 10
234.25353365
 20
189.5192503464
 30
0.0
 11
236.0719376787
 21
188.8574054061
 31
0.0
  0
ARC
  5
1CE
330
1F
100
AcDbEntity
  8
0
  6
Continuous
 62
     7
100
AcDbCircle
 10
234.3219376787
 20
191.4271058553
 30
0.0
 40
0.2000000000000456
100
AcDbArc
 50
110.0
 51
180.0
  0
ARC
  5
1CF
330
1F
100
AcDbEntity
  8
0
  6
Continuous
 62
     7
100
AcDbCircle
 10
234.3219376787
 20
189.7071888706
 30
0.0
 40
0.2000000000000456
100
AcDbArc
 50
180.0
 51
250.0
  0
ARC
  5
1D0
330
1F
100
AcDbEntity
  8
0
  6
Continuous
 62
     7
100
AcDbCircle
 10
235.5719376787
 20
240.7181733948
 30
0.0
 40
0.5
100
AcDbArc
 50
0.0
 51
90.0
  0
ARC
  5
1D1
330
1F
100
AcDbEntity
  8
0
  6
Continuous
 62
     7
100
AcDbCircle
 10
233.5719376787
 20
241.7181733948
 30
0.0
 40
0.5
100
AcDbArc
 50
180.0
 51
270.0
  0
LINE
  5
1D2
330
1F
100
AcDbEntity
  8
0
  6
Continuous
 62
     7
100
AcDbLine
 10
233.5719376787
 20
241.2181733948
 30
0.0
 11
235.5719376787
 21
241.2181733948
 31
0.0
  0
LINE
  5
1D3
330
1F
100
AcDbEntity
  8
0
  6
Continuous
 62
     7
100
AcDbLine
 10
233.0719376787
 20
255.2960033654
 30
0.0
 11
226.9672657662
 21
254.9760710672
 31
0.0
  0
ARC
  5
1D4
330
1F
100
AcDbEntity
  8
0
  6
Continuous
 62
     7
100
AcDbCircle
 10
227.0719376787
 20
252.9788119977
 30
0.0
 40
2.000000000000028
100
AcDbArc
 50
93.0
 51
180.0
  0
LINE
  5
1D5
330
1F
100
AcDbEntity
  8
0
  6
Continuous
 62
     7
100
AcDbLine
 10
226.9672657662
 20
231.6177924713
 30
0.0
 11
233.0719376787
 21
231.2978601731
 31
0.0
  0
ARC
  5
1D6
330
1F
100
AcDbEntity
  8
0
  6
Continuous
 62
     7
100
AcDbCircle
 10
227.0719376787
 20
233.6150515408
 30
0.0
 40
2.000000000000028
100
AcDbArc
 50
180.0
 51
267.0
  0
ARC
  5
1D7
330
1F
100
AcDbEntity
  8
0
  6
Continuous
 62
     7
100
AcDbCircle
 10
235.5719376787
 20
140.5514679339
 30
0.0
 40
0.5
100
AcDbArc
 50
270.0
 51
360.0
  0
ARC
  5
1D8
330
1F
100
AcDbEntity
  8
0
  6
Continuous
 62
     7
100
AcDbCircle
 10
233.5719376787
 20
139.5514679339
 30
0.0
 40
0.5
100
AcDbArc
 50
90.0
 51
180.0
  0
LINE
  5
1D9
330
1F
100
AcDbEntity
  8
0
  6
Continuous
 62
     7
100
AcDbLine
 10
235.5719376787
 20
140.0514679339
 30
0.0
 11
233.5719376787
 21
140.0514679339
 31
0.0
  0
ARC
  5
1DA
330
1F
100
AcDbEntity
  8
0
  6
Continuous
 62
     7
100
AcDbCircle
 10
233.5719376787
 20
266.0001294923
 30
0.0
 40
0.5
100
AcDbArc
 50
90.0
 51
180.0
  0
LINE
  5
1DB
330
1F
100
AcDbEntity
  8
0
  6
Continuous
 62
     7
100
AcDbLine
 10
236.0719376787
 20
266.5001294923
 30
0.0
 11
233.5719376787
 21
266.5001294923
 31
0.0
  0
LINE
  5
1DC
330
1F
100
AcDbEntity
  8
0
  6
Continuous
 62
     7
100
AcDbLine
 10
232.5981056568
 20
156.2744842987
 30
0.0
 11
226.9672657662
 21
155.9793844845
 31
0.0
  0
ARC
  5
1DD
330
1F
100
AcDbEntity
  8
0
  6
Continuous
 62
     7
100
AcDbCircle
 10
227.0719376787
 20
153.982125415
 30
0.0
 40
2.000000000000028
100
AcDbArc
 50
93.0
 51
180.0
  0
ARC
  5
1DE
330
1F
100
AcDbEntity
  8
0
  6
Continuous
 62
     7
100
AcDbCircle
 10
232.5719376787
 20
156.7737990661
 30
0.0
 40
0.4999999999999896
100
AcDbArc
 50
273.0
 51
340.2917408357
  0
ARC
  5
1DF
330
1F
100
AcDbEntity
  8
0
  6
Continuous
 62
     7
100
AcDbCircle
 10
227.0719376787
 20
135.1172278953
 30
0.0
 40
2.000000000000028
100
AcDbArc
 50
180.0
 51
267.0
  0
LINE
  5
1E0
330
1F
100
AcDbEntity
  8
0
  6
Continuous
 62
     7
100
AcDbLine
 10
226.9672657662
 20
133.1199688258
 30
0.0
 11
233.0719376787
 21
132.8000365276
 31
0.0
  0
ARC
  5
1E1
330
1F
100
AcDbEntity
  8
0
  6
Continuous
 62
     7
100
AcDbCircle
 10
233.5719376787
 20
123.7334072902
 30
0.0
 40
0.5
100
AcDbArc
 50
180.0
 51
270.0
  0
LINE
  5
1E2
330
1F
100
AcDbEntity
  8
0
  6
Continuous
 62
     7
100
AcDbLine
 10
233.5719376787
 20
123.2334072902
 30
0.0
 11
236.0719376787
 21
123.2334072902
 31
0.0
  0
LINE
  5
1E3
330
1F
100
AcDbEntity
  8
0
  6
Continuous
 62
     7
100
AcDbLine
 10
226.9672657662
 20
198.6727090607
 30
0.0
 11
232.5981056568
 21
198.3776092465
 31
0.0
  0
ARC
  5
1E4
330
1F
100
AcDbEntity
  8
0
  6
Continuous
 62
     7
100
AcDbCircle
 10
227.0719376787
 20
200.6699681302
 30
0.0
 40
2.000000000000028
100
AcDbArc
 50
180.0
 51
267.0
  0
SPLINE
  5
1E5
330
1F
100
AcDbEntity
  8
0
  6
Continuous
 62
     7
100
AcDbSpline
210
0.0
220
0.0
230
1.0
 70
     8
 71
     3
 72
    13
 73
     9
 74
     0
 42
0.000000001
 43
0.00000001
 40
0.0
 40
0.0
 40
0.0
 40
0.0
 40
0.0245574325721039
 40
0.2787703473543803
 40
0.4822267486668101
 40
0.6521324634223707
 40
0.8332088848770941
 40
1.0
 40
1.0
 40
1.0
 40
1.0
 10
233.0715254570613
 20
218.6483832336554
 30
0.0
 10
233.0716543062593
 20
218.6476807361394
 30
0.0
 10
233.0731169728297
 20
218.6397061453118
 30
0.0
 10
233.068010056684
 20
218.5678539558845
 30
0.0
 10
233.0227064175753
 20
218.4417859656457
 30
0.0
 10
232.9221406523531
 20
218.3132602063873
 30
0.0
 10
232.7852618173139
 20
218.2196505315433
 30
0.0
 10
232.6736780875587
 20
218.2036044420734
 30
0.0
 10
232.6201773358113
 20
218.1959108665752
 30
0.0
  0
ARC
  5
1E6
330
1F
100
AcDbEntity
  8
0
  6
Continuous
 62
     7
100
AcDbCircle
 10
232.5719376787
 20
197.8782944791
 30
0.0
 40
0.5
100
AcDbArc
 50
0.0
 51
87.0
  0
LINE
  5
1E7
330
1F
100
AcDbEntity
  8
0
  6
Continuous
 62
     7
100
AcDbLine
 10
232.9986963249
 20
218.4199708048
 30
0.0
 11
226.9672657662
 21
218.1038769233
 31
0.0
  0
ARC
  5
1E8
330
1F
100
AcDbEntity
  8
0
  6
Continuous
 62
     7
100
AcDbCircle
 10
310.0820957897
 20
256.952292652
 30
0.0
 40
5.000000000000043
100
AcDbArc
 50
209.3119369007
 51
268.9999881536
  0
ARC
  5
1E9
330
1F
100
AcDbEntity
  8
0
  6
Continuous
 62
     7
100
AcDbCircle
 10
266.4963197301
 20
232.451678011
 30
0.0
 40
45.00000000000004
100
AcDbArc
 50
29.3439671375
 51
75.9115098294
  0
ARC
  5
1EA
330
1F
100
AcDbEntity
  8
0
  6
Continuous
 62
     7
100
AcDbCircle
 10
275.8978812512
 20
314.0320211971
 30
0.0
 40
2.499999999999943
100
AcDbArc
 50
0.0
 51
65.6734964785
  0
ARC
  5
1EB
330
1F
100
AcDbEntity
  8
0
  6
Continuous
 62
     7
100
AcDbCircle
 10
277.3119906565
 20
312.0108751012
 30
0.0
 40
1.085890594627897
100
AcDbArc
 50
270.7093999371
 51
0.0
  0
LINE
  5
1EC
330
1F
100
AcDbEntity
  8
0
  6
Continuous
 62
     7
100
AcDbLine
 10
278.3978812512
 20
312.0108751012
 30
0.0
 11
278.3978812512
 21
314.0320211971
 31
0.0
  0
ARC
  5
1ED
330
1F
100
AcDbEntity
  8
0
  6
Continuous
 62
     7
100
AcDbCircle
 10
277.5719376787
 20
276.583080516
 30
0.0
 40
0.5000000000000266
100
AcDbArc
 50
180.0
 51
255.9115098294
  0
ARC
  5
1EE
330
1F
100
AcDbEntity
  8
0
  6
Continuous
 62
     7
100
AcDbCircle
 10
277.3601154845
 20
308.1241978045
 30
0.0
 40
2.801084631393908
100
AcDbArc
 50
90.7093999371
 51
156.8014094864
  0
ARC
  5
1EF
330
1F
100
AcDbEntity
  8
0
  6
Continuous
 62
     7
100
AcDbCircle
 10
276.0719376787
 20
278.8989853326
 30
0.0
 40
1.000000000000043
100
AcDbArc
 50
0.0
 51
75.6878873392
  0
LINE
  5
1F0
330
1F
100
AcDbEntity
  8
0
  6
Continuous
 62
     7
100
AcDbLine
 10
277.0719376787
 20
276.583080516
 30
0.0
 11
277.0719376787
 21
278.8989853326
 31
0.0
  0
LINE
  5
1F1
330
1F
100
AcDbEntity
  8
0
  6
Continuous
 62
     7
100
AcDbLine
 10
276.9277210156
 20
316.3100532556
 30
0.0
 11
272.2084537656
 21
318.4435127277
 31
0.0
  0
ARC
  5
1F2
330
1F
100
AcDbEntity
  8
0
  6
Continuous
 62
     7
100
AcDbCircle
 10
281.2632187967
 20
299.2472186798
 30
0.0
 40
19.99999999999996
100
AcDbArc
 50
203.4634669385
 51
255.6878873392
  0
LINE
  5
1F3
330
1F
100
AcDbEntity
  8
0
  6
Continuous
 62
     7
100
AcDbLine
 10
273.6026645235
 20
306.4676205632
 30
0.0
 11
274.7855124669
 21
309.2275990978
 31
0.0
  0
ARC
  5
1F4
330
1F
100
AcDbEntity
  8
0
  6
Continuous
 62
     7
100
AcDbCircle
 10
272.6835194934
 20
306.8615398618
 30
0.0
 40
1.000000000000084
100
AcDbArc
 50
297.0150015235
 51
336.8014094863
  0
ARC
  5
1F5
330
1F
100
AcDbEntity
  8
0
  6
Continuous
 62
     7
100
AcDbCircle
 10
282.6559066184
 20
287.302289919
 30
0.0
 40
20.95478907423047
100
AcDbArc
 50
117.0150015235
 51
160.386599203
  0
ARC
  5
1F6
330
1F
100
AcDbEntity
  8
0
  6
Continuous
 62
     7
100
AcDbCircle
 10
274.2681332944
 20
322.9995768447
 30
0.0
 40
5.00000000000002
100
AcDbArc
 50
230.3139844146
 51
245.6734964785
  0
ARC
  5
1F7
330
1F
100
AcDbEntity
  8
0
  6
Continuous
 62
     7
100
AcDbCircle
 10
250.0719376787
 20
293.8406402966
 30
0.0
 40
32.89062499999998
100
AcDbArc
 50
50.3139844146
 51
82.2450271538
  0
LINE
  5
1F8
330
1F
100
AcDbEntity
  8
0
  6
Continuous
 62
     7
100
AcDbLine
 10
262.9169360125
 20
291.2839336791
 30
0.0
 11
262.9169360125
 21
294.336223709
 31
0.0
  0
ARC
  5
1F9
330
1F
100
AcDbEntity
  8
0
  6
Continuous
 62
     7
100
AcDbCircle
 10
254.5775660914
 20
326.9258809712
 30
0.0
 40
0.5
100
AcDbArc
 50
180.0
 51
262.2450271538
  0
LINE
  5
1FA
330
1F
100
AcDbEntity
  8
0
  6
Continuous
 62
     7
100
AcDbLine
 10
254.0775660914
 20
326.9258809712
 30
0.0
 11
254.0775660914
 21
328.5283988163
 31
0.0
  0
ARC
  5
1FB
330
1F
100
AcDbEntity
  8
0
  6
Continuous
 62
     7
100
AcDbCircle
 10
253.5775660914
 20
328.5283988163
 30
0.0
 40
0.5
100
AcDbArc
 50
0.0
 51
80.4059317731
  0
ARC
  5
1FC
330
1F
100
AcDbEntity
  8
0
  6
Continuous
 62
     7
100
AcDbCircle
 10
254.0775660914
 20
331.4864387079
 30
0.0
 40
2.500000000000024
100
AcDbArc
 50
185.2159085705
 51
260.4059317731
  0
ARC
  5
1FD
330
1F
100
AcDbEntity
  8
0
  6
Continuous
 62
     7
100
AcDbCircle
 10
248.6003405163
 20
330.9864387079
 30
0.0
 40
3.0
100
AcDbArc
 50
5.2159085705
 51
90.0
  0
ARC
  5
1FE
330
1F
100
AcDbEntity
  8
0
  6
Continuous
 62
     7
100
AcDbCircle
 10
240.631258913
 20
330.3994142026
 30
0.0
 40
4.15705291924107
100
AcDbArc
 50
63.2964378591
 51
81.952029925
  0
LINE
  5
1FF
330
1F
100
AcDbEntity
  8
0
  6
Continuous
 62
     7
100
AcDbLine
 10
243.1653605502
 20
334.1130902074
 30
0.0
 11
242.4993326548
 21
334.1130902074
 31
0.0
  0
ARC
  5
200
330
1F
100
AcDbEntity
  8
0
  6
Continuous
 62
     7
100
AcDbCircle
 10
241.4434008591
 20
330.9434855131
 30
0.0
 40
3.607151105218185
100
AcDbArc
 50
61.4859745201
 51
81.9992092736
  0
LWPOLYLINE
  5
201
330
1F
100
AcDbEntity
  8
0
  6
Continuous
 62
     7
100
AcDbPolyline
 90
        3
 70
   128
 43
0.0
 10
240.93062014
 20
334.5155251431
 10
241.0498165864
 20
334.4896188304
 10
241.0719376787
 20
334.4840372821
  0
ARC
  5
202
330
1F
100
AcDbEntity
  8
0
  6
Continuous
 62
     7
100
AcDbCircle
 10
241.4791877891
 20
330.5467056731
 30
0.0
 40
4.006551441248354
100
AcDbArc
 50
97.869523544
 51
108.1642410236
  0
LWPOLYLINE
  5
203
330
1F
100
AcDbEntity
  8
0
  6
Continuous
 62
     7
100
AcDbPolyline
 90
        3
 70
   128
 43
0.0
 10
240.1984067964
 20
334.5155251431
 10
240.039423031
 20
334.4896188304
 10
240.0101038482
 20
334.4840372821
  0
ARC
  5
204
330
1F
100
AcDbEntity
  8
0
  6
Continuous
 62
     7
100
AcDbCircle
 10
240.6038623767
 20
332.5347211057
 30
0.0
 40
2.021875085713813
100
AcDbArc
 50
101.5682131385
 51
128.6802210417
  0
LINE
  5
205
330
1F
100
AcDbEntity
  8
0
  6
Continuous
 62
     7
100
AcDbLine
 10
240.2633599419
 20
334.1130902074
 30
0.0
 11
239.3402446176
 21
334.1130902074
 31
0.0
  0
ARC
  5
206
330
1F
100
AcDbEntity
  8
0
  6
Continuous
 62
     7
100
AcDbCircle
 10
241.7294919202
 20
331.9747460748
 30
0.0
 40
2.592693311446808
100
AcDbArc
 50
101.4850439628
 51
124.4360524099
  0
LINE
  5
207
330
1F
100
AcDbEntity
  8
0
  6
Continuous
 62
     7
100
AcDbLine
 10
240.1984067964
 20
334.5155251431
 30
0.0
 11
240.2757583247
 21
334.1212844623
 31
0.0
  0
LINE
  5
208
330
1F
100
AcDbEntity
  8
0
  6
Continuous
 62
     7
100
AcDbLine
 10
241.945468561
 20
334.5155251431
 30
0.0
 11
241.9136978031
 21
334.3535978288
 31
0.0
  0
LINE
  5
209
330
1F
100
AcDbEntity
  8
0
  6
Continuous
 62
     7
100
AcDbLine
 10
240.93062014
 20
334.5155251431
 30
0.0
 11
240.9329085432
 21
334.4434297868
 31
0.0
  0
SPLINE
  5
20A
330
1F
100
AcDbEntity
  8
0
  6
Continuous
 62
     7
100
AcDbSpline
210
0.0
220
0.0
230
1.0
 70
     8
 71
     3
 72
     9
 73
     5
 74
     0
 42
0.000000001
 43
0.00000001
 40
0.0
 40
0.0
 40
0.0
 40
0.0
 40
0.8642325008921055
 40
0.9999999999999999
 40
0.9999999999999999
 40
0.9999999999999999
 40
0.9999999999999999
 10
236.071937678704
 20
293.2843456912656
 30
0.0
 10
235.5463457407249
 20
293.1801726356925
 30
0.0
 10
234.9381853933223
 20
293.059634406147
 30
0.0
 10
234.3353756247551
 20
292.9316795526499
 30
0.0
 10
234.2535336500389
 20
292.9143074421918
 30
0.0
  0
LINE
  5
20B
330
1F
100
AcDbEntity
  8
0
  6
Continuous
 62
     7
100
AcDbLine
 10
234.1219376787
 20
292.8017125187
 30
0.0
 11
234.1219376787
 21
293.5195442815
 31
0.0
  0
SPLINE
  5
20C
330
1F
100
AcDbEntity
  8
0
  6
Continuous
 62
     7
100
AcDbSpline
210
0.0
220
0.0
230
1.0
 70
     8
 71
     3
 72
    11
 73
     7
 74
     0
 42
0.000000001
 43
0.00000001
 40
0.0
 40
0.0
 40
0.0
 40
0.0
 40
0.2545825800997244
 40
0.508562758193614
 40
0.7788086828793069
 40
1.0
 40
1.0
 40
1.0
 40
1.0
 10
234.2535336500389
 20
293.6321392049157
 30
0.0
 10
234.2336062739613
 20
293.6265478941382
 30
0.0
 10
234.1937986746447
 20
293.6153785029338
 30
0.0
 10
234.1509655552786
 20
293.5858858420154
 30
0.0
 10
234.1259246715124
 20
293.5530142612156
 30
0.0
 10
234.1231751932263
 20
293.529932959852
 30
0.0
 10
234.1219376787041
 20
293.5195442814712
 30
0.0
  0
LINE
  5
20D
330
1F
100
AcDbEntity
  8
0
  6
Continuous
 62
     7
100
AcDbLine
 10
234.25353365
 20
293.6321392049
 30
0.0
 11
236.0719376787
 21
294.0031863243
 31
0.0
  0
LINE
  5
20E
330
1F
100
AcDbEntity
  8
0
  6
Continuous
 62
     7
100
AcDbLine
 10
234.1219376787
 20
291.9002987265
 30
0.0
 11
234.1219376787
 21
292.8017125187
 31
0.0
  0
SPLINE
  5
20F
330
1F
100
AcDbEntity
  8
0
  6
Continuous
 62
     7
100
AcDbSpline
210
0.0
220
0.0
230
1.0
 70
     8
 71
     3
 72
    11
 73
     7
 74
     0
 42
0.000000001
 43
0.00000001
 40
0.0
 40
0.0
 40
0.0
 40
0.0
 40
0.3183081273705166
 40
0.6377954332649726
 40
0.9252318573625856
 40
1.0
 40
1.0
 40
1.0
 40
1.0
 10
234.1219376787041
 20
292.8017125187473
 30
0.0
 10
234.1244913877569
 20
292.8166836544901
 30
0.0
 10
234.1296082661263
 20
292.8466813868333
 30
0.0
 10
234.1714623420969
 20
292.8852720810842
 30
0.0
 10
234.2185225527611
 20
292.9061323891648
 30
0.0
 10
234.2475430820721
 20
292.9129086511056
 30
0.0
 10
234.2535336500389
 20
292.9143074421918
 30
0.0
  0
LINE
  5
210
330
1F
100
AcDbEntity
  8
0
  6
Continuous
 62
     7
100
AcDbLine
 10
234.1219376787
 20
293.5195442815
 30
0.0
 11
234.1219376787
 21
293.6202157113
 31
0.0
  0
LINE
  5
211
330
1F
100
AcDbEntity
  8
0
  6
Continuous
 62
     7
100
AcDbLine
 10
234.25353365
 20
190.4354983925
 30
0.0
 11
236.0719376787
 21
190.0771629295
 31
0.0
  0
SPLINE
  5
212
330
1F
100
AcDbEntity
  8
0
  6
Continuous
 62
     7
100
AcDbSpline
210
0.0
220
0.0
230
1.0
 70
     8
 71
     3
 72
     9
 73
     5
 74
     0
 42
0.000000001
 43
0.00000001
 40
0.0
 40
0.0
 40
0.0
 40
0.0
 40
0.8642325008921018
 40
0.9999999999999999
 40
0.9999999999999999
 40
0.9999999999999999
 40
0.9999999999999999
 10
236.0719376787041
 20
189.3506502509639
 30
0.0
 10
235.5463457407249
 20
189.4512544549595
 30
0.0
 10
234.9381853933222
 20
189.5676631804953
 30
0.0
 10
234.3353756247551
 20
189.6912344447979
 30
0.0
 10
234.2535336500389
 20
189.7080114063139
 30
0.0
  0
SPLINE
  5
213
330
1F
100
AcDbEntity
  8
0
  6
Continuous
 62
     7
100
AcDbSpline
210
0.0
220
0.0
230
1.0
 70
     8
 71
     3
 72
    11
 73
     7
 74
     0
 42
0.000000001
 43
0.00000001
 40
0.0
 40
0.0
 40
0.0
 40
0.0
 40
0.3183081273702696
 40
0.6377954332650333
 40
0.9252318573627482
 40
1.0
 40
1.0
 40
1.0
 40
1.0
 10
234.121937678704
 20
189.816748954471
 30
0.0
 10
234.1244913877568
 20
189.8022907129803
 30
0.0
 10
234.1296082661263
 20
189.7733206691676
 30
0.0
 10
234.1714623420968
 20
189.736052048646
 30
0.0
 10
234.218522552761
 20
189.7159063912297
 30
0.0
 10
234.247543082072
 20
189.7093622763926
 30
0.0
 10
234.2535336500389
 20
189.7080114063139
 30
0.0
  0
LINE
  5
214
330
1F
100
AcDbEntity
  8
0
  6
Continuous
 62
     7
100
AcDbLine
 10
234.1219376787
 20
189.8167489545
 30
0.0
 11
234.1219376787
 21
190.5442359406
 31
0.0
  0
LINE
  5
215
330
1F
100
AcDbEntity
  8
0
  6
Continuous
 62
     7
100
AcDbLine
 10
234.1219376787
 20
190.5442359406
 30
0.0
 11
234.1219376787
 21
191.4271058553
 31
0.0
  0
SPLINE
  5
216
330
1F
100
AcDbEntity
  8
0
  6
Continuous
 62
     7
100
AcDbSpline
210
0.0
220
0.0
230
1.0
 70
     8
 71
     3
 72
    11
 73
     7
 74
     0
 42
0.000000001
 43
0.00000001
 40
0.0
 40
0.0
 40
0.0
 40
0.0
 40
0.2545825800998208
 40
0.5085627581934501
 40
0.7788086828791043
 40
0.9999999999999999
 40
0.9999999999999999
 40
0.9999999999999999
 40
0.9999999999999999
 10
234.2535336500389
 20
190.435498392456
 30
0.0
 10
234.2336062739613
 20
190.4408981512225
 30
0.0
 10
234.1937986746447
 20
190.4516848916618
 30
0.0
 10
234.1509655552785
 20
190.4801671672279
 30
0.0
 10
234.1259246715123
 20
190.5119126046853
 30
0.0
 10
234.1231751932262
 20
190.5342031666553
 30
0.0
 10
234.121937678704
 20
190.5442359406132
 30
0.0
  0
LINE
  5
217
330
1F
100
AcDbEntity
  8
0
  6
Continuous
 62
     7
100
AcDbLine
 10
234.1219376787
 20
189.7071888706
 30
0.0
 11
234.1219376787
 21
189.8167489545
 31
0.0
  0
LINE
  5
218
330
1F
100
AcDbEntity
  8
0
  6
Continuous
 62
     7
100
AcDbLine
 10
233.0719376787
 20
193.7543678798
 30
0.0
 11
233.0719376787
 21
241.7181733948
 31
0.0
  0
LINE
  5
219
330
1F
100
AcDbEntity
  8
0
  6
Continuous
 62
     7
100
AcDbLine
 10
233.0719376787
 20
139.5514679339
 30
0.0
 11
233.0719376787
 21
192.2498948118
 31
0.0
  0
LINE
  5
21A
330
1F
100
AcDbEntity
  8
0
  6
Continuous
 62
     7
100
AcDbLine
 10
233.0719376787
 20
245.2317571626
 30
0.0
 11
233.0719376787
 21
247.8280509639
 31
0.0
  0
LINE
  5
21B
330
1F
100
AcDbEntity
  8
0
  6
Continuous
 62
     7
100
AcDbLine
 10
233.0719376787
 20
242.0172065909
 30
0.0
 11
233.0719376787
 21
245.2317571626
 31
0.0
  0
LINE
  5
21C
330
1F
100
AcDbEntity
  8
0
  6
Continuous
 62
     7
100
AcDbLine
 10
233.0719376787
 20
247.8280509639
 30
0.0
 11
233.0719376787
 21
265.675211259
 31
0.0
  0
LINE
  5
21D
330
1F
100
AcDbEntity
  8
0
  6
Continuous
 62
     7
100
AcDbLine
 10
233.0719376787
 20
241.7181733948
 30
0.0
 11
233.0719376787
 21
242.0172065909
 31
0.0
  0
LINE
  5
21E
330
1F
100
AcDbEntity
  8
0
  6
Continuous
 62
     7
100
AcDbLine
 10
225.0719376787
 20
244.7196498319
 30
0.0
 11
225.0719376787
 21
248.5488424109
 31
0.0
  0
LINE
  5
21F
330
1F
100
AcDbEntity
  8
0
  6
Continuous
 62
     7
100
AcDbLine
 10
225.0719376787
 20
234.7627245147
 30
0.0
 11
225.0719376787
 21
244.7196498319
 31
0.0
  0
LINE
  5
220
330
1F
100
AcDbEntity
  8
0
  6
Continuous
 62
     7
100
AcDbLine
 10
225.0719376787
 20
248.5488424109
 30
0.0
 11
225.0719376787
 21
252.2797177157
 31
0.0
  0
LINE
  5
221
330
1F
100
AcDbEntity
  8
0
  6
Continuous
 62
     7
100
AcDbLine
 10
233.0719376787
 20
135.5804363288
 30
0.0
 11
233.0719376787
 21
139.0837263672
 31
0.0
  0
LINE
  5
222
330
1F
100
AcDbEntity
  8
0
  6
Continuous
 62
     7
100
AcDbLine
 10
225.0719376787
 20
252.2797177157
 30
0.0
 11
225.0719376787
 21
252.9788119977
 31
0.0
  0
LINE
  5
223
330
1F
100
AcDbEntity
  8
0
  6
Continuous
 62
     7
100
AcDbLine
 10
225.0719376787
 20
233.6150515408
 30
0.0
 11
225.0719376787
 21
234.7627245147
 31
0.0
  0
LINE
  5
224
330
1F
100
AcDbEntity
  8
0
  6
Continuous
 62
     7
100
AcDbLine
 10
233.0719376787
 20
133.2642399474
 30
0.0
 11
233.0719376787
 21
135.5804363288
 31
0.0
  0
LINE
  5
225
330
1F
100
AcDbEntity
  8
0
  6
Continuous
 62
     7
100
AcDbLine
 10
233.0719376787
 20
139.0837263672
 30
0.0
 11
233.0719376787
 21
139.5514679339
 31
0.0
  0
LINE
  5
226
330
1F
100
AcDbEntity
  8
0
  6
Continuous
 62
     7
100
AcDbLine
 10
233.0719376787
 20
123.7679643035
 30
0.0
 11
233.0719376787
 21
133.2642399474
 31
0.0
  0
LINE
  5
227
330
1F
100
AcDbEntity
  8
0
  6
Continuous
 62
     7
100
AcDbLine
 10
233.0719376787
 20
265.675211259
 30
0.0
 11
233.0719376787
 21
266.0001294923
 31
0.0
  0
LINE
  5
228
330
1F
100
AcDbEntity
  8
0
  6
Continuous
 62
     7
100
AcDbLine
 10
233.0719376787
 20
192.2498948118
 30
0.0
 11
233.0719376787
 21
193.7543678798
 31
0.0
  0
LINE
  5
229
330
1F
100
AcDbEntity
  8
0
  6
Continuous
 62
     7
100
AcDbLine
 10
225.0719376787
 20
140.6619905392
 30
0.0
 11
225.0719376787
 21
152.0666902909
 31
0.0
  0
LINE
  5
22A
330
1F
100
AcDbEntity
  8
0
  6
Continuous
 62
     7
100
AcDbLine
 10
225.0719376787
 20
137.2825926722
 30
0.0
 11
225.0719376787
 21
140.6619905392
 31
0.0
  0
SPLINE
  5
22B
330
1F
100
AcDbEntity
  8
0
  6
Continuous
 62
     7
100
AcDbSpline
210
0.0
220
0.0
230
1.0
 70
     8
 71
     3
 72
    11
 73
     7
 74
     0
 42
0.000000001
 43
0.00000001
 40
0.0
 40
0.0
 40
0.0
 40
0.0
 40
0.2496093884321474
 40
0.4993664596451207
 40
0.7495788588214791
 40
1.0
 40
1.0
 40
1.0
 40
1.0
 10
233.0303451939893
 20
152.5623891452406
 30
0.0
 10
233.035391733486
 20
152.6503347273169
 30
0.0
 10
233.0454877982925
 20
152.8262779249615
 30
0.0
 10
233.0589108811219
 20
153.0898101438836
 30
0.0
 10
233.069453920435
 20
153.3532378272662
 30
0.0
 10
233.0711095291759
 20
153.5285182669565
 30
0.0
 10
233.0719376787041
 20
153.6161950288898
 30
0.0
  0
LINE
  5
22C
330
1F
100
AcDbEntity
  8
0
  6
Continuous
 62
     7
100
AcDbLine
 10
225.0719376787
 20
152.0666902909
 30
0.0
 11
225.0719376787
 21
153.982125415
 31
0.0
  0
LINE
  5
22D
330
1F
100
AcDbEntity
  8
0
  6
Continuous
 62
     7
100
AcDbLine
 10
225.0719376787
 20
135.2974353865
 30
0.0
 11
225.0719376787
 21
137.2825926722
 31
0.0
  0
SPLINE
  5
22E
330
1F
100
AcDbEntity
  8
0
  6
Continuous
 62
     7
100
AcDbSpline
210
0.0
220
0.0
230
1.0
 70
     8
 71
     3
 72
    10
 73
     6
 74
     0
 42
0.000000001
 43
0.00000001
 40
0.0
 40
0.0
 40
0.0
 40
0.0
 40
0.0702314637925319
 40
0.8449962751935445
 40
1.0
 40
1.0
 40
1.0
 40
1.0
 10
233.0613398263737
 20
156.6546485548392
 30
0.0
 10
233.0607092307491
 20
156.6524578313477
 30
0.0
 10
233.0531221618602
 20
156.6260999414457
 30
0.0
 10
233.0413403798202
 20
156.6037421571122
 30
0.0
 10
233.0430287739757
 20
156.6050660126493
 30
0.0
 10
233.0433102498193
 20
156.6052867154709
 30
0.0
  0
LINE
  5
22F
330
1F
100
AcDbEntity
  8
0
  6
Continuous
 62
     7
100
AcDbLine
 10
225.0719376787
 20
135.1172278953
 30
0.0
 11
225.0719376787
 21
135.2974353865
 31
0.0
  0
LINE
  5
230
330
1F
100
AcDbEntity
  8
0
  6
Continuous
 62
     7
100
AcDbLine
 10
233.0719376787
 20
123.7334072902
 30
0.0
 11
233.0719376787
 21
123.7679643035
 31
0.0
  0
SPLINE
  5
231
330
1F
100
AcDbEntity
  8
0
  6
Continuous
 62
     7
100
AcDbSpline
210
0.0
220
0.0
230
1.0
 70
     8
 71
     3
 72
    11
 73
     7
 74
     0
 42
0.000000001
 43
0.00000001
 40
0.0
 40
0.0
 40
0.0
 40
0.0
 40
0.3825990618777171
 40
0.7670268683720067
 40
0.9841188104147344
 40
1.0
 40
1.0
 40
1.0
 40
1.0
 10
232.8067803162335
 20
202.8810819515007
 30
0.0
 10
232.8227236020014
 20
202.9221057608194
 30
0.0
 10
232.8546863791552
 20
203.0043494648056
 30
0.0
 10
232.9405153781154
 20
203.0826608116018
 30
0.0
 10
233.0020617748436
 20
203.1174947724988
 30
0.0
 10
233.0258871671259
 20
203.1296344106694
 30
0.0
 10
233.0275112839034
 20
203.1304619391227
 30
0.0
  0
SPLINE
  5
232
330
1F
100
AcDbEntity
  8
0
  6
Continuous
 62
     7
100
AcDbSpline
210
0.0
220
0.0
230
1.0
 70
     8
 71
     3
 72
     9
 73
     5
 74
     0
 42
0.000000001
 43
0.00000001
 40
0.0
 40
0.0
 40
0.0
 40
0.0
 40
0.0196264094686303
 40
1.0
 40
1.0
 40
1.0
 40
1.0
 10
232.5981056568256
 20
202.2290044062455
 30
0.0
 10
232.5995206333343
 20
202.2332541785938
 30
0.0
 10
232.6716161692484
 20
202.4497875366278
 30
0.0
 10
232.7398680120478
 20
202.6675719066754
 30
0.0
 10
232.8067803162335
 20
202.8810819515007
 30
0.0
  0
LINE
  5
233
330
1F
100
AcDbEntity
  8
0
  6
Continuous
 62
     7
100
AcDbLine
 10
225.0719376787
 20
202.627068349
 30
0.0
 11
225.0719376787
 21
213.1190052648
 31
0.0
  0
ARC
  5
234
330
1F
100
AcDbEntity
  8
0
  6
Continuous
 62
     7
100
AcDbCircle
 10
227.0717576641
 20
215.8981009646
 30
0.0
 40
1.999819990919553
100
AcDbArc
 50
92.9951057148
 51
179.9957344981
  0
LINE
  5
235
330
1F
100
AcDbEntity
  8
0
  6
Continuous
 62
     7
100
AcDbLine
 10
225.0719376787
 20
213.1190052648
 30
0.0
 11
225.0719376787
 21
215.8982498453
 31
0.0
  0
LINE
  5
236
330
1F
100
AcDbEntity
  8
0
  6
Continuous
 62
     7
100
AcDbLine
 10
225.0719376787
 20
200.6699681302
 30
0.0
 11
225.0719376787
 21
202.627068349
 31
0.0
  0
ARC
  5
237
330
1F
100
AcDbEntity
  8
0
  6
Continuous
 62
     7
100
AcDbCircle
 10
227.0717576641
 20
216.1059906469
 30
0.0
 40
1.999819990919642
100
AcDbArc
 50
92.9951057148
 51
179.9957344981
  0
LINE
  5
238
330
1F
100
AcDbEntity
  8
0
  6
Continuous
 62
     7
100
AcDbLine
 10
225.0719376787
 20
215.8982498453
 30
0.0
 11
225.0719376787
 21
216.1061395276
 31
0.0
  0
ELLIPSE
  5
239
330
1F
100
AcDbEntity
  8
0
  6
Continuous
 62
     7
100
AcDbEllipse
 10
233.5981056568
 20
218.2261357369
 30
0.0
 11
0.9999908276036253
 21
0.04820864916072766
 31
0.0
210
0.0
220
0.0
230
1.0
 40
0.0888444794
 41
2.484812867331651
 42
3.002422017297345
  0
LINE
  5
23A
330
1F
100
AcDbEntity
  8
0
  6
Continuous
 62
     7
100
AcDbLine
 10
245.0719376787
 20
253.2638264991
 30
0.0
 11
245.0719376787
 21
253.0862875426
 31
0.0
  0
LINE
  5
23B
330
1F
100
AcDbEntity
  8
0
  6
Continuous
 62
     7
100
AcDbLine
 10
236.0719376787
 20
190.5671180089
 30
0.0
 11
236.0719376787
 21
191.4230565787
 31
0.0
  0
LINE
  5
23C
330
1F
100
AcDbEntity
  8
0
  6
Continuous
 62
     7
100
AcDbLine
 10
356.0719376787
 20
187.1313202707
 30
0.0
 11
236.0719376787
 21
187.1313202707
 31
0.0
  0
LINE
  5
23D
330
1F
100
AcDbEntity
  8
0
  6
Continuous
 62
     7
100
AcDbLine
 10
236.0719376787
 20
187.1313202707
 30
0.0
 11
236.0719376787
 21
188.1313202707
 31
0.0
  0
LINE
  5
23E
330
1F
100
AcDbEntity
  8
0
  6
Continuous
 62
     7
100
AcDbLine
 10
236.0719376787
 20
190.5671180089
 30
0.0
 11
236.0719376787
 21
188.1313202707
 31
0.0
  0
LINE
  5
23F
330
1F
100
AcDbEntity
  8
0
  6
Continuous
 62
     7
100
AcDbLine
 10
236.0719376787
 20
205.4093363421
 30
0.0
 11
236.0719376787
 21
191.4230565787
 31
0.0
  0
LINE
  5
240
330
1F
100
AcDbEntity
  8
0
  6
Continuous
 62
     7
100
AcDbLine
 10
327.9886450702
 20
176.3695145268
 30
0.0
 11
250.0805089839
 21
176.3695145268
 31
0.0
  0
LINE
  5
241
330
1F
100
AcDbEntity
  8
0
  6
Continuous
 62
     7
100
AcDbLine
 10
236.0719376787
 20
176.3695145268
 30
0.0
 11
236.0719376787
 21
187.1313202707
 31
0.0
  0
ARC
  5
242
330
1F
100
AcDbEntity
  8
0
  6
Continuous
 62
     7
100
AcDbCircle
 10
356.0719376787
 20
188.1313202707
 30
0.0
 40
1.000000000000028
100
AcDbArc
 50
270.0
 51
0.0
  0
LINE
  5
243
330
1F
100
AcDbEntity
  8
0
  6
Continuous
 62
     7
100
AcDbLine
 10
357.0719376787
 20
190.5671180089
 30
0.0
 11
357.0719376787
 21
188.1313202707
 31
0.0
  0
LINE
  5
244
330
1F
100
AcDbEntity
  8
0
  6
Continuous
 62
     7
100
AcDbLine
 10
357.0719376787
 20
190.5671473629
 30
0.0
 11
357.0719376787
 21
190.5671180089
 31
0.0
  0
LINE
  5
245
330
1F
100
AcDbEntity
  8
0
  6
Continuous
 62
     7
100
AcDbLine
 10
333.4393974685
 20
205.4093133143
 30
0.0
 11
356.5890533186
 21
191.4230629049
 31
0.0
  0
ARC
  5
246
330
1F
100
AcDbEntity
  8
0
  6
Continuous
 62
     7
100
AcDbCircle
 10
356.0719376787
 20
190.5671473629
 30
0.0
 40
1.0
100
AcDbArc
 50
0.0
 51
58.861027563
  0
ARC
  5
247
330
1F
100
AcDbEntity
  8
0
  6
Continuous
 62
     7
100
AcDbCircle
 10
355.2169758957
 20
174.4313202707
 30
0.0
 40
12.69999999999999
100
AcDbArc
 50
90.0
 51
171.2215739776
  0
LINE
  5
248
330
1F
100
AcDbEntity
  8
0
  6
Continuous
 62
     7
100
AcDbLine
 10
236.0719376787
 20
174.1448991995
 30
0.0
 11
238.0719376787
 21
174.1501653191
 31
0.0
  0
SPLINE
  5
249
330
1F
100
AcDbEntity
  8
0
  6
Continuous
 62
     7
100
AcDbSpline
210
0.0
220
0.0
230
1.0
 70
    24
 71
     3
 72
    11
 73
     7
 74
     0
 42
0.000000001
 43
0.00000001
 40
0.0
 40
0.0
 40
0.0
 40
0.0
 40
0.3161041428162312
 40
0.6322078671350106
 40
0.9483216989136516
 40
1.0
 40
1.0
 40
1.0
 40
1.0
 10
238.071937678704
 20
174.150165319095
 30
0.0
 10
238.071937678704
 20
173.9952565612549
 30
0.0
 10
238.071937678704
 20
173.6854392506618
 30
0.0
 10
238.071937678704
 20
173.0473187642796
 30
0.0
 10
238.071937678704
 20
172.5555559100212
 30
0.0
 10
238.071937678704
 20
172.2974565179968
 30
0.0
 10
238.071937678704
 20
172.2611910927759
 30
0.0
  0
SPLINE
  5
24A
330
1F
100
AcDbEntity
  8
0
  6
Continuous
 62
     7
100
AcDbSpline
210
0.0
220
0.0
230
1.0
 70
    24
 71
     3
 72
    10
 73
     6
 74
     0
 42
0.000000001
 43
0.00000001
 40
0.0
 40
0.0
 40
0.0
 40
0.0
 40
0.3222993408928227
 40
0.644598931107078
 40
1.0
 40
1.0
 40
1.0
 40
1.0
 10
236.071937678704
 20
172.2804225567298
 30
0.0
 10
236.071937678704
 20
172.5053944940546
 30
0.0
 10
236.071937678704
 20
172.9553385427359
 30
0.0
 10
236.071937678704
 20
173.6322921119301
 30
0.0
 10
236.071937678704
 20
173.9685553778543
 30
0.0
 10
236.071937678704
 20
174.1448991994706
 30
0.0
  0
LINE
  5
24B
330
1F
100
AcDbEntity
  8
0
  6
Continuous
 62
     7
100
AcDbLine
 10
238.0719376787
 20
7.2116790788
 30
0.0
 11
238.0719376787
 21
172.2611910928
 31
0.0
  0
LINE
  5
24C
330
1F
100
AcDbEntity
  8
0
  6
Continuous
 62
     7
100
AcDbLine
 10
236.0719376787
 20
7.1924476148
 30
0.0
 11
236.0719376787
 21
172.2804225567
 31
0.0
  0
LINE
  5
24D
330
1F
100
AcDbEntity
  8
0
  6
Continuous
 62
     7
100
AcDbLine
 10
238.0719376787
 20
5.6385099452
 30
0.0
 11
236.0719376787
 21
5.6332438256
 31
0.0
  0
ARC
  5
24E
330
1F
100
AcDbEntity
  8
0
  6
Continuous
 62
     7
100
AcDbCircle
 10
250.059262231
 20
172.3806796348
 30
0.0
 40
3.988891477658336
100
AcDbArc
 50
89.6948137011
 51
179.6385955439
  0
LINE
  5
24F
330
1F
100
AcDbEntity
  8
0
  6
Continuous
 62
     7
100
AcDbLine
 10
246.0704501061
 20
6.8003796385
 30
0.0
 11
246.0704501061
 21
172.4058401895
 31
0.0
  0
ARC
  5
250
330
1F
100
AcDbEntity
  8
0
  6
Continuous
 62
     7
100
AcDbCircle
 10
250.035488325
 20
6.8223598031
 30
0.0
 40
3.96509914181439
100
AcDbArc
 50
180.3176155423
 51
271.3632447069
  0
LINE
  5
251
330
1F
100
AcDbEntity
  8
0
  6
Continuous
 62
     7
100
AcDbLine
 10
304.7874507945
 20
3.8124354224
 30
0.0
 11
250.1298214585
 21
2.8583829535
 31
0.0
  0
ARC
  5
252
330
1F
100
AcDbEntity
  8
0
  6
Continuous
 62
     7
100
AcDbCircle
 10
304.7344212952
 20
7.8083897496
 30
0.0
 40
3.99630618356548
100
AcDbArc
 50
270.7603160351
 51
351.6598295542
  0
LINE
  5
253
330
1F
100
AcDbEntity
  8
0
  6
Continuous
 62
     7
100
AcDbLine
 10
331.9389706409
 20
171.8801339056
 30
0.0
 11
308.6884638905
 21
7.2287258235
 31
0.0
  0
ARC
  5
254
330
1F
100
AcDbEntity
  8
0
  6
Continuous
 62
     7
100
AcDbCircle
 10
328.0172618923
 20
172.4120065823
 30
0.0
 40
3.957611407580441
100
AcDbArc
 50
352.2765163913
 51
90.41429975
  0
LINE
  5
255
330
1F
100
AcDbEntity
  8
0
  6
Continuous
 62
     7
100
AcDbLine
 10
236.0719376787
 20
176.3695145268
 30
0.0
 11
236.0719376787
 21
174.1448991995
 31
0.0
  0
LINE
  5
256
330
1F
100
AcDbEntity
  8
0
  6
Continuous
 62
     7
100
AcDbLine
 10
236.0719376787
 20
5.6332438256
 30
0.0
 11
236.0719376787
 21
-5.4353024458
 31
0.0
  0
ARC
  5
257
330
1F
100
AcDbEntity
  8
0
  6
Continuous
 62
     7
100
AcDbCircle
 10
250.0356131277
 20
172.6546414823
 30
0.0
 40
1.994445738829183
100
AcDbArc
 50
89.6948137011
 51
179.6385955439
  0
LINE
  5
258
330
1F
100
AcDbEntity
  8
0
  6
Continuous
 62
     7
100
AcDbLine
 10
327.9543725905
 20
174.6490589283
 30
0.0
 11
250.0462365042
 21
174.6490589283
 31
0.0
  0
LINE
  5
259
330
1F
100
AcDbEntity
  8
0
  6
Continuous
 62
     7
100
AcDbLine
 10
248.0412070653
 20
172.6672217597
 30
0.0
 11
248.0412070653
 21
7.0617612087
 31
0.0
  0
ARC
  5
25A
330
1F
100
AcDbEntity
  8
0
  6
Continuous
 62
     7
100
AcDbCircle
 10
327.9686810015
 20
172.6703049561
 30
0.0
 40
1.978805703790158
100
AcDbArc
 50
352.2765163913
 51
90.41429975
  0
ARC
  5
25B
330
1F
100
AcDbEntity
  8
0
  6
Continuous
 62
     7
100
AcDbCircle
 10
355.2169758957
 20
174.4313202707
 30
0.0
 40
12.70000000000004
100
AcDbArc
 50
171.2215739776
 51
171.962377968
  0
LINE
  5
25C
330
1F
100
AcDbEntity
  8
0
  6
Continuous
 62
     7
100
AcDbLine
 10
342.6417347233
 20
176.2070762947
 30
0.0
 11
317.1912786963
 21
-4.0235511996
 31
0.0
  0
LINE
  5
25D
330
1F
100
AcDbEntity
  8
0
  6
Continuous
 62
     7
100
AcDbLine
 10
306.6790286255
 20
7.7529605356
 30
0.0
 11
329.9295353759
 21
172.4043686177
 31
0.0
  0
LINE
  5
25E
330
1F
100
AcDbEntity
  8
0
  6
Continuous
 62
     7
100
AcDbLine
 10
329.9067369997
 20
172.6060935466
 30
0.0
 11
329.922371533
 21
172.9976583184
 31
0.0
  0
LINE
  5
25F
330
1F
100
AcDbEntity
  8
0
  6
Continuous
 62
     7
100
AcDbLine
 10
329.9067369997
 20
172.6060935466
 30
0.0
 11
306.6562302493
 21
7.9546854646
 31
0.0
  0
LINE
  5
260
330
1F
100
AcDbEntity
  8
0
  6
Continuous
 62
     7
100
AcDbLine
 10
236.0719376787
 20
205.4093363421
 30
0.0
 11
236.0719376787
 21
206.0506178812
 31
0.0
  0
LINE
  5
261
330
1F
100
AcDbEntity
  8
0
  6
Continuous
 62
     7
100
AcDbLine
 10
236.0719376787
 20
252.4581853614
 30
0.0
 11
236.0719376787
 21
206.0506178812
 31
0.0
  0
SPLINE
  5
262
330
1F
100
AcDbEntity
  8
0
  6
Continuous
 62
     7
100
AcDbSpline
210
0.0
220
0.0
230
1.0
 70
     8
 71
     3
 72
    11
 73
     7
 74
     0
 42
0.000000001
 43
0.00000001
 40
0.0
 40
0.0
 40
0.0
 40
0.0
 40
0.2431547797177664
 40
0.2932553296007594
 40
0.6289243663922509
 40
1.0
 40
1.0
 40
1.0
 40
1.0
 10
332.979790018205
 20
206.0505921259352
 30
0.0
 10
333.0050197223031
 20
205.9667384879236
 30
0.0
 10
333.0354478520713
 20
205.8656073224912
 30
0.0
 10
333.1251963924585
 20
205.7000564920994
 30
0.0
 10
333.2480708090174
 20
205.5415733369995
 30
0.0
 10
333.3735048441358
 20
205.4548615552516
 30
0.0
 10
333.4393638679205
 20
205.4093336146798
 30
0.0
  0
LINE
  5
263
330
1F
100
AcDbEntity
  8
0
  6
Continuous
 62
     7
100
AcDbLine
 10
323.1105417993
 20
250.9556715219
 30
0.0
 11
332.9797843577
 21
206.0506178812
 31
0.0
  0
LINE
  5
264
330
1F
100
AcDbEntity
  8
0
  6
Continuous
 62
     7
100
AcDbLine
 10
236.0719376787
 20
253.243383127
 30
0.0
 11
322.1513047161
 21
251.7408621864
 31
0.0
  0
LINE
  5
265
330
1F
100
AcDbEntity
  8
0
  6
Continuous
 62
     7
100
AcDbLine
 10
236.0719376787
 20
252.4581853614
 30
0.0
 11
236.0719376787
 21
253.243383127
 31
0.0
  0
ARC
  5
266
330
1F
100
AcDbEntity
  8
0
  6
Continuous
 62
     7
100
AcDbCircle
 10
322.1338523097
 20
250.7410144912
 30
0.0
 40
0.9999999999999842
100
AcDbArc
 50
12.3954068338
 51
89.0
  0
SPLINE
  5
267
330
1F
100
AcDbEntity
  8
0
  6
Continuous
 62
     7
100
AcDbSpline
210
0.0
220
0.0
230
1.0
 70
    24
 71
     3
 72
    11
 73
     7
 74
     0
 42
0.000000001
 43
0.00000001
 40
0.0
 40
0.0
 40
0.0
 40
0.0
 40
0.3161229669323905
 40
0.6322461567965555
 40
0.9483628949502804
 40
1.0
 40
1.0
 40
1.0
 40
1.0
 10
238.071937678704
 20
7.211679078785532
 30
0.0
 10
238.071937678704
 20
6.992701255880279
 30
0.0
 10
238.071937678704
 20
6.554745455645411
 30
0.0
 10
238.071937678704
 20
6.016840539399687
 30
0.0
 10
238.071937678704
 20
5.745327274150641
 30
0.0
 10
238.071937678704
 20
5.651661725540963
 30
0.0
 10
238.071937678704
 20
5.638509945178977
 30
0.0
  0
SPLINE
  5
268
330
1F
100
AcDbEntity
  8
0
  6
Continuous
 62
     7
100
AcDbSpline
210
0.0
220
0.0
230
1.0
 70
    24
 71
     3
 72
    10
 73
     6
 74
     0
 42
0.000000001
 43
0.00000001
 40
0.0
 40
0.0
 40
0.0
 40
0.0
 40
0.322279401347736
 40
0.6445583350115336
 40
1.0
 40
1.0
 40
1.0
 40
1.0
 10
236.071937678704
 20
5.633243825554551
 30
0.0
 10
236.071937678704
 20
5.735445087067276
 30
0.0
 10
236.071937678704
 20
5.939847461780806
 30
0.0
 10
236.071937678704
 20
6.493624566250716
 30
0.0
 10
236.071937678704
 20
6.952029592744075
 30
0.0
 10
236.071937678704
 20
7.192447614831482
 30
0.0
  0
ARC
  5
269
330
1F
100
AcDbEntity
  8
0
  6
Continuous
 62
     7
100
AcDbCircle
 10
250.0237261747
 20
7.072751291
 30
0.0
 40
1.982549570907426
100
AcDbArc
 50
180.3176155423
 51
271.3632447069
  0
LINE
  5
26A
330
1F
100
AcDbEntity
  8
0
  6
Continuous
 62
     7
100
AcDbLine
 10
250.0708927415
 20
5.0907628662
 30
0.0
 11
304.7285220775
 21
6.0448153351
 31
0.0
  0
ARC
  5
26B
330
1F
100
AcDbEntity
  8
0
  6
Continuous
 62
     7
100
AcDbCircle
 10
304.7020073278
 20
8.0427924987
 30
0.0
 40
1.998153091782917
100
AcDbArc
 50
270.7603160351
 51
351.6598295541
  0
ARC
  5
26C
330
1F
100
AcDbEntity
  8
0
  6
Continuous
 62
     7
100
AcDbCircle
 10
250.0020779849
 20
7.2775320507
 30
0.0
 40
1.98557754918459
100
AcDbArc
 50
189.6825026636
 51
271.3279664954
  0
LINE
  5
26D
330
1F
100
AcDbEntity
  8
0
  6
Continuous
 62
     7
100
AcDbLine
 10
316.2185546324
 20
-4.8835755858
 30
0.0
 11
236.0719376787
 21
-6.2825399885
 31
0.0
  0
LINE
  5
26E
330
1F
100
AcDbEntity
  8
0
  6
Continuous
 62
     7
100
AcDbLine
 10
236.0719376787
 20
-6.2825399885
 30
0.0
 11
236.0719376787
 21
-5.4353024458
 31
0.0
  0
SPLINE
  5
26F
330
1F
100
AcDbEntity
  8
0
  6
Continuous
 62
     7
100
AcDbSpline
210
0.0
220
0.0
230
1.0
 70
    24
 71
     3
 72
    10
 73
     6
 74
     0
 42
0.000000001
 43
0.00000001
 40
0.0
 40
0.0
 40
0.0
 40
0.0
 40
0.3279393248456571
 40
0.6558766622359458
 40
1.0
 40
1.0
 40
1.0
 40
1.0
 10
236.071937678704
 20
253.2433831269786
 30
0.0
 10
236.071937678704
 20
253.299876455217
 30
0.0
 10
236.071937678704
 20
253.4128627693195
 30
0.0
 10
236.071937678704
 20
254.2708234538292
 30
0.0
 10
236.071937678704
 20
255.1928048374662
 30
0.0
 10
236.071937678704
 20
255.6648980915769
 30
0.0
  0
LINE
  5
270
330
1F
100
AcDbEntity
  8
0
  6
Continuous
 62
     7
100
AcDbLine
 10
304.7057237013
 20
6.246540264
 30
0.0
 11
250.0480943654
 21
5.2924877951
 31
0.0
  0
ARC
  5
271
330
1F
100
AcDbEntity
  8
0
  6
Continuous
 62
     7
100
AcDbCircle
 10
304.6792089517
 20
8.2445174276
 30
0.0
 40
1.998153091782861
100
AcDbArc
 50
270.7603160351
 51
351.6598295541
  0
ARC
  5
272
330
1F
100
AcDbEntity
  8
0
  6
Continuous
 62
     7
100
AcDbCircle
 10
316.201102226
 20
-3.8837278907
 30
0.0
 40
0.9999999999999833
100
AcDbArc
 50
271.0
 51
351.962377968
  0
LINE
  5
273
330
1F
100
AcDbEntity
  8
0
  6
Continuous
 62
     7
100
AcDbLine
 10
236.0719376787
 20
255.6648980916
 30
0.0
 11
236.0719376787
 21
276.0981200489
 31
0.0
  0
LINE
  5
274
330
1F
100
AcDbEntity
  8
0
  6
Continuous
 62
     7
100
AcDbLine
 10
236.0719376787
 20
310.9250677381
 30
0.0
 11
236.0719376787
 21
312.0108751012
 31
0.0
  0
LINE
  5
275
330
1F
100
AcDbEntity
  8
0
  6
Continuous
 62
     7
100
AcDbLine
 10
236.0719376787
 20
314.0320211971
 30
0.0
 11
236.0719376787
 21
316.3100532556
 31
0.0
  0
LINE
  5
276
330
1F
100
AcDbEntity
  8
0
  6
Continuous
 62
     7
100
AcDbLine
 10
236.0719376787
 20
312.0108751012
 30
0.0
 11
236.0719376787
 21
314.0320211971
 31
0.0
  0
LINE
  5
277
330
1F
100
AcDbEntity
  8
0
  6
Continuous
 62
     7
100
AcDbLine
 10
236.0719376787
 20
276.0981200489
 30
0.0
 11
236.0719376787
 21
276.583080516
 31
0.0
  0
LINE
  5
278
330
1F
100
AcDbEntity
  8
0
  6
Continuous
 62
     7
100
AcDbLine
 10
236.0719376787
 20
309.2275990978
 30
0.0
 11
236.0719376787
 21
310.9250677381
 31
0.0
  0
LINE
  5
279
330
1F
100
AcDbEntity
  8
0
  6
Continuous
 62
     7
100
AcDbLine
 10
236.0719376787
 20
276.583080516
 30
0.0
 11
236.0719376787
 21
278.8989853326
 31
0.0
  0
LINE
  5
27A
330
1F
100
AcDbEntity
  8
0
  6
Continuous
 62
     7
100
AcDbLine
 10
236.0719376787
 20
278.8989853326
 30
0.0
 11
236.0719376787
 21
279.8679488253
 31
0.0
  0
LINE
  5
27B
330
1F
100
AcDbEntity
  8
0
  6
Continuous
 62
     7
100
AcDbLine
 10
236.0719376787
 20
316.3100532556
 30
0.0
 11
236.0719376787
 21
318.4435127277
 31
0.0
  0
LINE
  5
27C
330
1F
100
AcDbEntity
  8
0
  6
Continuous
 62
     7
100
AcDbLine
 10
244.0719376787
 20
291.2839336791
 30
0.0
 11
262.9169360125
 21
291.2839336791
 31
0.0
  0
LINE
  5
27D
330
1F
100
AcDbEntity
  8
0
  6
Continuous
 62
     7
100
AcDbLine
 10
236.0719376787
 20
291.2839336791
 30
0.0
 11
244.0719376787
 21
291.2839336791
 31
0.0
  0
LINE
  5
27E
330
1F
100
AcDbEntity
  8
0
  6
Continuous
 62
     7
100
AcDbLine
 10
236.0719376787
 20
279.8679488253
 30
0.0
 11
236.0719376787
 21
291.2839336791
 31
0.0
  0
LINE
  5
27F
330
1F
100
AcDbEntity
  8
0
  6
Continuous
 62
     7
100
AcDbLine
 10
236.0719376787
 20
306.4676205632
 30
0.0
 11
236.0719376787
 21
309.2275990978
 31
0.0
  0
LINE
  5
280
330
1F
100
AcDbEntity
  8
0
  6
Continuous
 62
     7
100
AcDbLine
 10
236.0719376787
 20
305.9706522346
 30
0.0
 11
236.0719376787
 21
306.4676205632
 31
0.0
  0
LINE
  5
281
330
1F
100
AcDbEntity
  8
0
  6
Continuous
 62
     7
100
AcDbLine
 10
236.0719376787
 20
294.336223709
 30
0.0
 11
244.0719376787
 21
294.336223709
 31
0.0
  0
LINE
  5
282
330
1F
100
AcDbEntity
  8
0
  6
Continuous
 62
     7
100
AcDbLine
 10
236.0719376787
 20
294.336223709
 30
0.0
 11
236.0719376787
 21
305.9706522346
 31
0.0
  0
LINE
  5
283
330
1F
100
AcDbEntity
  8
0
  6
Continuous
 62
     7
100
AcDbLine
 10
244.0719376787
 20
294.336223709
 30
0.0
 11
262.9169360125
 21
294.336223709
 31
0.0
  0
LINE
  5
284
330
1F
100
AcDbEntity
  8
0
  6
Continuous
 62
     7
100
AcDbLine
 10
236.0719376787
 20
318.4435127277
 30
0.0
 11
236.0719376787
 21
319.1517996507
 31
0.0
  0
LINE
  5
285
330
1F
100
AcDbEntity
  8
0
  6
Continuous
 62
     7
100
AcDbLine
 10
236.0719376787
 20
319.1517996507
 30
0.0
 11
236.0719376787
 21
326.4304538764
 31
0.0
  0
LINE
  5
286
330
1F
100
AcDbEntity
  8
0
  6
Continuous
 62
     7
100
AcDbLine
 10
236.0719376787
 20
291.2839336791
 30
0.0
 11
236.0719376787
 21
294.336223709
 31
0.0
  0
LINE
  5
287
330
1F
100
AcDbEntity
  8
0
  6
Continuous
 62
     7
100
AcDbLine
 10
236.0719376787
 20
326.4304538764
 30
0.0
 11
236.0719376787
 21
326.9258809712
 31
0.0
  0
LINE
  5
288
330
1F
100
AcDbEntity
  8
0
  6
Continuous
 62
     7
100
AcDbLine
 10
236.0719376787
 20
326.9258809712
 30
0.0
 11
236.0719376787
 21
328.5283988163
 31
0.0
  0
LINE
  5
289
330
1F
100
AcDbEntity
  8
0
  6
Continuous
 62
     7
100
AcDbLine
 10
236.0719376787
 20
328.5283988163
 30
0.0
 11
236.0719376787
 21
329.0214054649
 31
0.0
  0
LINE
  5
28A
330
1F
100
AcDbEntity
  8
0
  6
Continuous
 62
     7
100
AcDbLine
 10
236.0719376787
 20
329.0214054649
 30
0.0
 11
236.0719376787
 21
331.2591659806
 31
0.0
  0
LINE
  5
28B
330
1F
100
AcDbEntity
  8
0
  6
Continuous
 62
     7
100
AcDbLine
 10
244.0719376787
 20
333.9864387079
 30
0.0
 11
248.6003405163
 21
333.9864387079
 31
0.0
  0
LINE
  5
28C
330
1F
100
AcDbEntity
  8
0
  6
Continuous
 62
     7
100
AcDbLine
 10
236.0719376787
 20
333.9864387079
 30
0.0
 11
244.0719376787
 21
333.9864387079
 31
0.0
  0
LINE
  5
28D
330
1F
100
AcDbEntity
  8
0
  6
Continuous
 62
     7
100
AcDbLine
 10
236.0719376787
 20
331.2591659806
 30
0.0
 11
236.0719376787
 21
333.9864387079
 31
0.0
  0
LINE
  5
28E
330
1F
100
AcDbEntity
  8
0
  6
Continuous
 62
     8
370
    18
100
AcDbLine
 10
234.25353365
 20
292.9143074422
 30
0.0
 11
234.25353365
 21
291.7123602024
 31
0.0
  0
LINE
  5
28F
330
1F
100
AcDbEntity
  8
0
  6
Continuous
 62
     8
370
    18
100
AcDbLine
 10
234.25353365
 20
293.8081542354
 30
0.0
 11
234.25353365
 21
293.6321392049
 31
0.0
  0
LINE
  5
290
330
1F
100
AcDbEntity
  8
0
  6
Continuous
 62
     8
370
    18
100
AcDbLine
 10
234.25353365
 20
191.6150443794
 30
0.0
 11
234.25353365
 21
190.4354983925
 31
0.0
  0
LINE
  5
291
330
1F
100
AcDbEntity
  8
0
  6
Continuous
 62
     8
370
    18
100
AcDbLine
 10
234.25353365
 20
189.7080114063
 30
0.0
 11
234.25353365
 21
189.5192503464
 31
0.0
  0
LWPOLYLINE
  5
292
330
1F
100
AcDbEntity
  8
0
  6
Continuous
 62
     8
370
    18
100
AcDbPolyline
 90
        3
 70
   128
 43
0.0
 10
296.6777774492
 20
252.1855042588
 10
296.4595142227
 20
252.2049142236
 10
295.5002959627
 20
252.2524284917
  0
LINE
  5
293
330
1F
100
AcDbEntity
  8
0
  6
Continuous
 62
     8
370
    18
100
AcDbLine
 10
233.5719376787
 20
245.0307903587
 30
0.0
 11
233.5719376787
 21
241.816239787
 31
0.0
  0
LINE
  5
294
330
1F
100
AcDbEntity
  8
0
  6
Continuous
 62
     8
370
    18
100
AcDbLine
 10
233.5719376787
 20
245.0307903587
 30
0.0
 11
236.0719376787
 21
245.0307903587
 31
0.0
  0
SPLINE
  5
295
330
1F
100
AcDbEntity
  8
0
  6
Continuous
 62
     8
370
    18
100
AcDbSpline
210
0.0
220
0.0
230
1.0
 70
     8
 71
     3
 72
    10
 73
     6
 74
     0
 42
0.000000001
 43
0.00000001
 40
0.0
 40
0.0
 40
0.0
 40
0.0
 40
0.0064040439326709
 40
0.6844821494931438
 40
0.9999999999999999
 40
0.9999999999999999
 40
0.9999999999999999
 40
0.9999999999999999
 10
235.5719376787041
 20
241.8162397870406
 30
0.0
 10
235.5732254655885
 20
241.8149787071757
 30
0.0
 10
235.7108677341267
 20
241.68019095966
 30
0.0
 10
235.9285096552786
 20
241.4904858517892
 30
0.0
 10
236.0570836190938
 20
241.2485480634288
 30
0.0
 10
236.0979124695399
 20
241.1717203645299
 30
0.0
  0
LINE
  5
296
330
1F
100
AcDbEntity
  8
0
  6
Continuous
 62
     8
370
    18
100
AcDbLine
 10
233.5719376787
 20
241.816239787
 30
0.0
 11
235.5719376787
 21
241.816239787
 31
0.0
  0
LWPOLYLINE
  5
297
330
1F
100
AcDbEntity
  8
0
  6
Continuous
 62
     8
370
    18
100
AcDbPolyline
 90
        9
 70
   128
 43
0.0
 10
236.0719376787
 20
193.424614042
 10
236.0623303189
 20
193.4567799332
 10
236.033877445
 20
193.4877097073
 10
235.9876724849
 20
193.5162147503
 10
235.9254910693
 20
193.5411996295
 10
235.8497227952
 20
193.5617041899
 10
235.7632793949
 20
193.5769404528
 10
235.6694828397
 20
193.5863228972
 10
235.5719376787
 20
193.5894909609
  0
LINE
  5
298
330
1F
100
AcDbEntity
  8
0
  6
Continuous
 62
     8
370
    18
100
AcDbLine
 10
235.5719376787
 20
193.5894909609
 30
0.0
 11
235.5719376787
 21
241.2181733948
 31
0.0
  0
LINE
  5
299
330
1F
100
AcDbEntity
  8
0
  6
Continuous
 62
     8
370
    18
100
AcDbLine
 10
233.5719376787
 20
241.2181733948
 30
0.0
 11
233.5719376787
 21
193.5894909609
 31
0.0
  0
LINE
  5
29A
330
1F
100
AcDbEntity
  8
0
  6
Continuous
 62
     8
370
    18
100
AcDbLine
 10
233.5719376787
 20
193.5894909609
 30
0.0
 11
235.5719376787
 21
193.5894909609
 31
0.0
  0
LWPOLYLINE
  5
29B
330
1F
100
AcDbEntity
  8
0
  6
Continuous
 62
     8
370
    18
100
AcDbPolyline
 90
        9
 70
   128
 43
0.0
 10
233.5719376787
 20
193.5894909609
 10
233.4743925177
 20
193.5926590247
 10
233.3805959625
 20
193.6020414691
 10
233.2941525622
 20
193.617277732
 10
233.2183842881
 20
193.6377822924
 10
233.1562028726
 20
193.6627671716
 10
233.1099979124
 20
193.6912722146
 10
233.0815450385
 20
193.7222019886
 10
233.0719376787
 20
193.7543678798
  0
LINE
  5
29C
330
1F
100
AcDbEntity
  8
0
  6
Continuous
 62
     8
370
    18
100
AcDbLine
 10
233.5719376787
 20
135.6126947622
 30
0.0
 11
236.0719376787
 21
135.6126947622
 31
0.0
  0
LINE
  5
29D
330
1F
100
AcDbEntity
  8
0
  6
Continuous
 62
     8
370
    18
100
AcDbLine
 10
233.5719376787
 20
139.1159848005
 30
0.0
 11
233.5719376787
 21
135.6126947622
 31
0.0
  0
LINE
  5
29E
330
1F
100
AcDbEntity
  8
0
  6
Continuous
 62
     8
370
    18
100
AcDbLine
 10
233.5719376787
 20
139.1159848005
 30
0.0
 11
235.5719376787
 21
139.1159848005
 31
0.0
  0
SPLINE
  5
29F
330
1F
100
AcDbEntity
  8
0
  6
Continuous
 62
     8
370
    18
100
AcDbSpline
210
0.0
220
0.0
230
1.0
 70
     8
 71
     3
 72
    10
 73
     6
 74
     0
 42
0.000000001
 43
0.00000001
 40
0.0
 40
0.0
 40
0.0
 40
0.0
 40
0.2699595884065903
 40
0.9931697110408346
 40
1.0
 40
1.0
 40
1.0
 40
1.0
 10
236.0719376787041
 20
139.7698773044354
 30
0.0
 10
236.0388716907594
 20
139.7029167394986
 30
0.0
 10
235.9172233437378
 20
139.4565717019987
 30
0.0
 10
235.7108624268569
 20
139.2642574216024
 30
0.0
 10
235.5732254163937
 20
139.117359186643
 30
0.0
 10
235.5719376787041
 20
139.1159848005454
 30
0.0
  0
LINE
  5
2A0
330
1F
100
AcDbEntity
  8
0
  6
Continuous
 62
     8
370
    18
100
AcDbLine
 10
235.5719376787
 20
140.0514679339
 30
0.0
 11
235.5719376787
 21
189.0393905232
 31
0.0
  0
LINE
  5
2A1
330
1F
100
AcDbEntity
  8
0
  6
Continuous
 62
     8
370
    18
100
AcDbLine
 10
235.5719376787
 20
192.0949042026
 30
0.0
 11
235.5719376787
 21
192.243383479
 31
0.0
  0
ARC
  5
2A2
330
1F
100
AcDbEntity
  8
0
  6
Continuous
 62
     8
370
    18
100
AcDbCircle
 10
235.6064193535
 20
166.8440441413
 30
0.0
 40
25.39936274349198
100
AcDbArc
 50
89.1737411201
 51
90.0777836461
  0
LINE
  5
2A3
330
1F
100
AcDbEntity
  8
0
  6
Continuous
 62
     8
370
    18
100
AcDbLine
 10
233.5719376787
 20
192.243383479
 30
0.0
 11
233.5719376787
 21
140.0514679339
 31
0.0
  0
ARC
  5
2A4
330
1F
100
AcDbEntity
  8
0
  6
Continuous
 62
     8
370
    18
100
AcDbCircle
 10
233.4469588774
 20
201.8469162973
 30
0.0
 40
9.604346010679171
100
AcDbArc
 50
267.7622010105
 51
270.7455957896
  0
LINE
  5
2A5
330
1F
100
AcDbEntity
  8
0
  6
Continuous
 62
     8
370
    18
100
AcDbLine
 10
233.5719376787
 20
192.243383479
 30
0.0
 11
235.5719376787
 21
192.243383479
 31
0.0
  0
LINE
  5
2A6
330
1F
100
AcDbEntity
  8
0
  6
Continuous
 62
     8
370
    18
100
AcDbLine
 10
233.5719376787
 20
248.1463429202
 30
0.0
 11
233.5719376787
 21
245.0307903587
 31
0.0
  0
LWPOLYLINE
  5
2A7
330
1F
100
AcDbEntity
  8
0
  6
Continuous
 62
     8
370
    18
100
AcDbPolyline
 90
        9
 70
   128
 43
0.0
 10
233.5719376787
 20
245.0307903587
 10
233.4743925177
 20
245.0346518795
 10
233.3805959625
 20
245.0460880458
 10
233.2941525622
 20
245.0646593721
 10
233.2183842881
 20
245.0896521728
 10
233.1562028726
 20
245.1201059885
 10
233.1099979124
 20
245.1548504963
 10
233.0815450385
 20
245.1925504841
 10
233.0719376787
 20
245.2317571626
  0
LWPOLYLINE
  5
2A8
330
1F
100
AcDbEntity
  8
0
  6
Continuous
 62
     8
370
    18
100
AcDbPolyline
 90
        9
 70
   128
 43
0.0
 10
233.5719376787
 20
248.1463429202
 10
233.4743925177
 20
248.1402270295
 10
233.3805959625
 20
248.1221143877
 10
233.2941525622
 20
248.0927010534
 10
233.2183842881
 20
248.0531173646
 10
233.1562028726
 20
248.0048845002
 10
233.1099979124
 20
247.9498560222
 10
233.0815450385
 20
247.8901466441
 10
233.0719376787
 20
247.8280509639
  0
LINE
  5
2A9
330
1F
100
AcDbEntity
  8
0
  6
Continuous
 62
     8
370
    18
100
AcDbLine
 10
233.5719376787
 20
248.1463429202
 30
0.0
 11
236.0719376787
 21
248.1463429202
 31
0.0
  0
LWPOLYLINE
  5
2AA
330
1F
100
AcDbEntity
  8
0
  6
Continuous
 62
     8
370
    18
100
AcDbPolyline
 90
        9
 70
   128
 43
0.0
 10
233.0719376787
 20
242.0172065909
 10
233.0815450385
 20
241.9779999124
 10
233.1099979124
 20
241.9402999246
 10
233.1562028726
 20
241.9055554169
 10
233.2183842881
 20
241.8751016011
 10
233.2941525622
 20
241.8501088004
 10
233.3805959625
 20
241.8315374741
 10
233.4743925177
 20
241.8201013078
 10
233.5719376787
 20
241.816239787
  0
LINE
  5
2AB
330
1F
100
AcDbEntity
  8
0
  6
Continuous
 62
     8
370
    18
100
AcDbLine
 10
233.5719376787
 20
266.1102276123
 30
0.0
 11
233.5719376787
 21
248.1463429202
 31
0.0
  0
LINE
  5
2AC
330
1F
100
AcDbEntity
  8
0
  6
Continuous
 62
     8
370
    18
100
AcDbLine
 10
233.5719376787
 20
266.1102276123
 30
0.0
 11
236.0719376787
 21
266.1102276123
 31
0.0
  0
ARC
  5
2AD
330
1F
100
AcDbEntity
  8
0
  6
Continuous
 62
     8
370
    18
100
AcDbCircle
 10
233.5415572925
 20
265.6402925876
 30
0.0
 40
0.4709160172516487
100
AcDbArc
 50
86.3010865052
 51
175.7475847594
  0
SPLINE
  5
2AE
330
1F
100
AcDbEntity
  8
0
  6
Continuous
 62
     8
370
    18
100
AcDbSpline
210
0.0
220
0.0
230
1.0
 70
     8
 71
     3
 72
    11
 73
     7
 74
     0
 42
0.000000001
 43
0.00000001
 40
0.0
 40
0.0
 40
0.0
 40
0.0
 40
0.2136091813961013
 40
0.5600563106197515
 40
0.9954174024637769
 40
1.0
 40
1.0
 40
1.0
 40
1.0
 10
236.0719376787041
 20
240.7347730351926
 30
0.0
 10
236.0619402521837
 20
240.8172010873391
 30
0.0
 10
236.0357282617808
 20
241.0333170355161
 30
0.0
 10
235.8391499179448
 20
241.3731930765936
 30
0.0
 10
235.6690967935989
 20
241.6498596244737
 30
0.0
 10
235.5729392867836
 20
241.814524582911
 30
0.0
 10
235.5719376787041
 20
241.8162397870406
 30
0.0
  0
LINE
  5
2AF
330
1F
100
AcDbEntity
  8
0
  6
Continuous
 62
     8
370
    18
100
AcDbLine
 10
235.5719376787
 20
241.2181733948
 30
0.0
 11
235.5719376787
 21
241.816239787
 31
0.0
  0
LINE
  5
2B0
330
1F
100
AcDbEntity
  8
0
  6
Continuous
 62
     8
370
    18
100
AcDbLine
 10
233.5719376787
 20
241.816239787
 30
0.0
 11
233.5719376787
 21
241.2181733948
 31
0.0
  0
LINE
  5
2B1
330
1F
100
AcDbEntity
  8
0
  6
Continuous
 62
     8
370
    18
100
AcDbLine
 10
232.8789509906
 20
150.4473612848
 30
0.0
 11
233.0719376787
 21
150.4730783177
 31
0.0
  0
ELLIPSE
  5
2B2
330
1F
100
AcDbEntity
  8
0
  6
Continuous
 62
     8
370
    18
100
AcDbEllipse
 10
232.5632114755
 20
154.0571703077
 30
0.0
 11
-0.01846760777721101
 21
3.78334968071485
 31
0.0
210
0.0
220
0.0
230
1.0
 40
0.2642709619
 41
3.444359932790811
 42
3.656828576438335
  0
LINE
  5
2B3
330
1F
100
AcDbEntity
  8
0
  6
Continuous
 62
     8
370
    18
100
AcDbLine
 10
226.9672657662
 20
250.0788316225
 30
0.0
 11
226.9672657662
 21
243.6902327975
 31
0.0
  0
LINE
  5
2B4
330
1F
100
AcDbEntity
  8
0
  6
Continuous
 62
     8
370
    18
100
AcDbLine
 10
226.9672657662
 20
250.0788316225
 30
0.0
 11
233.0719376787
 21
250.3239139817
 31
0.0
  0
LINE
  5
2B5
330
1F
100
AcDbEntity
  8
0
  6
Continuous
 62
     8
370
    18
100
AcDbLine
 10
226.9672657662
 20
243.6902327975
 30
0.0
 11
233.0719376787
 21
243.5253349319
 31
0.0
  0
LWPOLYLINE
  5
2B6
330
1F
100
AcDbEntity
  8
0
  6
Continuous
 62
     8
370
    18
100
AcDbPolyline
 90
        9
 70
   128
 43
0.0
 10
226.9672657662
 20
243.6902327975
 10
226.5923287494
 20
243.7188984476
 10
226.2346182036
 20
243.7835088304
 10
225.906982285
 20
243.8817432866
 10
225.6211889367
 20
244.0100734562
 10
225.3875032113
 20
244.1638900089
 10
225.214318573
 20
244.3376682009
 10
225.1078554234
 20
244.5251663117
 10
225.0719376787
 20
244.7196498319
  0
ARC
  5
2B7
330
1F
100
AcDbEntity
  8
0
  6
Continuous
 62
     8
370
    18
100
AcDbCircle
 10
226.8395967179
 20
248.2980393008
 30
0.0
 40
1.785362898390519
100
AcDbArc
 50
85.8993512421
 51
171.9245286463
  0
LINE
  5
2B8
330
1F
100
AcDbEntity
  8
0
  6
Continuous
 62
     8
370
    18
100
AcDbLine
 10
226.9672657662
 20
243.6902327975
 30
0.0
 11
226.9672657662
 21
233.7333074803
 31
0.0
  0
ELLIPSE
  5
2B9
330
1F
100
AcDbEntity
  8
0
  6
Continuous
 62
     8
370
    18
100
AcDbEllipse
 10
233.5981056568
 20
232.7636652301
 30
0.0
 11
-0.06090151596026772
 21
4.27210205857557
 31
0.0
210
0.0
220
0.0
230
1.0
 40
0.2336423068
 41
0.4931487810686356
 42
1.374969549768121
  0
LINE
  5
2BA
330
1F
100
AcDbEntity
  8
0
  6
Continuous
 62
     8
370
    18
100
AcDbLine
 10
226.9672657662
 20
233.7333074803
 30
0.0
 11
232.6071891973
 21
233.580963284
 31
0.0
  0
LWPOLYLINE
  5
2BB
330
1F
100
AcDbEntity
  8
0
  6
Continuous
 62
     8
370
    18
100
AcDbPolyline
 90
        9
 70
   128
 43
0.0
 10
226.9672657662
 20
233.7333074803
 10
226.5923287494
 20
233.7619731303
 10
226.2346182036
 20
233.8265835131
 10
225.906982285
 20
233.9248179694
 10
225.6211889367
 20
234.053148139
 10
225.3875032113
 20
234.2069646916
 10
225.214318573
 20
234.3807428837
 10
225.1078554234
 20
234.5682409945
 10
225.0719376787
 20
234.7627245147
  0
LINE
  5
2BC
330
1F
100
AcDbEntity
  8
0
  6
Continuous
 62
     8
370
    18
100
AcDbLine
 10
226.9672657662
 20
253.8097069274
 30
0.0
 11
226.9672657662
 21
250.0788316225
 31
0.0
  0
LINE
  5
2BD
330
1F
100
AcDbEntity
  8
0
  6
Continuous
 62
     8
370
    18
100
AcDbLine
 10
226.9672657662
 20
253.8097069274
 30
0.0
 11
233.0719376787
 21
254.0547892866
 31
0.0
  0
ARC
  5
2BE
330
1F
100
AcDbEntity
  8
0
  6
Continuous
 62
     8
370
    18
100
AcDbCircle
 10
226.8395967179
 20
252.0289146057
 30
0.0
 40
1.785362898390536
100
AcDbArc
 50
85.8993512421
 51
171.9245286463
  0
ARC
  5
2BF
330
1F
100
AcDbEntity
  8
0
  6
Continuous
 62
     8
370
    18
100
AcDbCircle
 10
232.6499946526
 20
233.0709967973
 30
0.0
 40
0.511759830949077
100
AcDbArc
 50
34.4627528563
 51
94.7980334195
  0
LINE
  5
2C0
330
1F
100
AcDbEntity
  8
0
  6
Continuous
 62
     8
370
    18
100
AcDbLine
 10
226.9672657662
 20
254.9760710672
 30
0.0
 11
226.9672657662
 21
253.8097069274
 31
0.0
  0
LWPOLYLINE
  5
2C1
330
1F
100
AcDbEntity
  8
0
  6
Continuous
 62
     8
370
    18
100
AcDbPolyline
 90
        9
 70
   128
 43
0.0
 10
233.0719376787
 20
232.8816438106
 10
233.0629582425
 20
232.9383489882
 10
233.0363424551
 20
232.9930174438
 10
232.9930462956
 20
233.0436856097
 10
232.9346248642
 20
233.0885335996
 10
232.8631765271
 20
233.1259505749
 10
232.7812675475
 20
233.1545926022
 10
232.691839911
 20
233.1734309245
 10
232.5981056568
 20
233.1817889118
  0
SPLINE
  5
2C2
330
1F
100
AcDbEntity
  8
0
  6
Continuous
 62
     8
370
    18
100
AcDbSpline
210
0.0
220
0.0
230
1.0
 70
     8
 71
     3
 72
     9
 73
     5
 74
     0
 42
0.000000001
 43
0.00000001
 40
0.0
 40
0.0
 40
0.0
 40
0.0
 40
0.4992833403643914
 40
0.9999999999999999
 40
0.9999999999999999
 40
0.9999999999999999
 40
0.9999999999999999
 10
232.5981056568256
 20
233.1817889117624
 30
0.0
 10
232.5987116425458
 20
233.2465215956026
 30
0.0
 10
232.5999253536216
 20
233.3761727948453
 30
0.0
 10
232.6047656035468
 20
233.5126345898356
 30
0.0
 10
232.6071891973212
 20
233.580963283991
 30
0.0
  0
ARC
  5
2C3
330
1F
100
AcDbEntity
  8
0
  6
Continuous
 62
     8
370
    18
100
AcDbCircle
 10
233.447457982
 20
133.6510230882
 30
0.0
 40
1.965617193523941
100
AcDbArc
 50
86.3691113567
 51
101.0137447892
  0
ARC
  5
2C4
330
1F
100
AcDbEntity
  8
0
  6
Continuous
 62
     8
370
    18
100
AcDbCircle
 10
233.447457982
 20
137.1543131265
 30
0.0
 40
1.965617193534049
100
AcDbArc
 50
86.3691113568
 51
101.0137447892
  0
ARC
  5
2C5
330
1F
100
AcDbEntity
  8
0
  6
Continuous
 62
     8
370
    18
100
AcDbCircle
 10
232.6335527193
 20
232.0481045275
 30
0.0
 40
0.4436246522167362
100
AcDbArc
 50
8.8147722138
 51
94.5830059897
  0
LINE
  5
2C6
330
1F
100
AcDbEntity
  8
0
  6
Continuous
 62
     8
370
    18
100
AcDbLine
 10
232.5981056568
 20
232.4903107439
 30
0.0
 11
232.5981056568
 21
233.1817889118
 31
0.0
  0
LINE
  5
2C7
330
1F
100
AcDbEntity
  8
0
  6
Continuous
 62
     8
370
    18
100
AcDbLine
 10
226.9672657662
 20
233.7333074803
 30
0.0
 11
226.9672657662
 21
231.6177924713
 31
0.0
  0
SPLINE
  5
2C8
330
1F
100
AcDbEntity
  8
0
  6
Continuous
 62
     8
370
    18
100
AcDbSpline
210
0.0
220
0.0
230
1.0
 70
     8
 71
     3
 72
    10
 73
     6
 74
     0
 42
0.000000001
 43
0.00000001
 40
0.0
 40
0.0
 40
0.0
 40
0.0
 40
0.251049829890672
 40
0.6095114445516183
 40
1.0
 40
1.0
 40
1.0
 40
1.0
 10
233.0719376787041
 20
231.7528599478732
 30
0.0
 10
232.988368242043
 20
231.7950213734874
 30
0.0
 10
232.7854741469471
 20
231.8973830099868
 30
0.0
 10
232.6244830546998
 20
232.1445613569963
 30
0.0
 10
232.6071452583077
 20
232.3718215477713
 30
0.0
 10
232.5981056568256
 20
232.4903107439133
 30
0.0
  0
LINE
  5
2C9
330
1F
100
AcDbEntity
  8
0
  6
Continuous
 62
     8
370
    18
100
AcDbLine
 10
233.5719376787
 20
135.6126947622
 30
0.0
 11
233.5719376787
 21
132.8332591045
 31
0.0
  0
ARC
  5
2CA
330
1F
100
AcDbEntity
  8
0
  6
Continuous
 62
     8
370
    18
100
AcDbCircle
 10
233.5398099222
 20
133.3015127834
 30
0.0
 40
0.4693545573814717
100
AcDbArc
 50
184.554823618
 51
273.9250186709
  0
LINE
  5
2CB
330
1F
100
AcDbEntity
  8
0
  6
Continuous
 62
     8
370
    18
100
AcDbLine
 10
233.5719376787
 20
132.8332591045
 30
0.0
 11
236.0719376787
 21
132.8332591045
 31
0.0
  0
SPLINE
  5
2CC
330
1F
100
AcDbEntity
  8
0
  6
Continuous
 62
     8
370
    18
100
AcDbSpline
210
0.0
220
0.0
230
1.0
 70
     8
 71
     3
 72
    11
 73
     7
 74
     0
 42
0.000000001
 43
0.00000001
 40
0.0
 40
0.0
 40
0.0
 40
0.0
 40
0.0045825975441995
 40
0.4399436893816701
 40
0.7863908186038787
 40
0.9999999999999999
 40
0.9999999999999999
 40
0.9999999999999999
 40
0.9999999999999999
 10
235.5719376787041
 20
139.1159848005454
 30
0.0
 10
235.5729392867592
 20
139.117854604512
 30
0.0
 10
235.6690967910613
 20
139.297361630287
 30
0.0
 10
235.8391499188812
 20
139.6141650270836
 30
0.0
 10
236.0357282616615
 20
140.020726582585
 30
0.0
 10
236.0619402521507
 20
140.2730556781391
 30
0.0
 10
236.0719376787041
 20
140.3692956642294
 30
0.0
  0
LINE
  5
2CD
330
1F
100
AcDbEntity
  8
0
  6
Continuous
 62
     8
370
    18
100
AcDbLine
 10
235.5719376787
 20
139.1159848005
 30
0.0
 11
235.5719376787
 21
140.0514679339
 31
0.0
  0
LINE
  5
2CE
330
1F
100
AcDbEntity
  8
0
  6
Continuous
 62
     8
370
    18
100
AcDbLine
 10
233.5719376787
 20
140.0514679339
 30
0.0
 11
233.5719376787
 21
139.1159848005
 31
0.0
  0
LINE
  5
2CF
330
1F
100
AcDbEntity
  8
0
  6
Continuous
 62
     8
370
    18
100
AcDbLine
 10
233.5719376787
 20
132.8332591045
 30
0.0
 11
233.5719376787
 21
123.2748757062
 31
0.0
  0
ARC
  5
2D0
330
1F
100
AcDbEntity
  8
0
  6
Continuous
 62
     8
370
    18
100
AcDbCircle
 10
233.5685058611
 20
123.7714442234
 30
0.0
 40
0.4965803757942331
100
AcDbArc
 50
180.4015187909
 51
270.3959685859
  0
LINE
  5
2D1
330
1F
100
AcDbEntity
  8
0
  6
Continuous
 62
     8
370
    18
100
AcDbLine
 10
233.5719376787
 20
123.2748757062
 30
0.0
 11
236.0719376787
 21
123.2748757062
 31
0.0
  0
LINE
  5
2D2
330
1F
100
AcDbEntity
  8
0
  6
Continuous
 62
     8
370
    18
100
AcDbLine
 10
233.5719376787
 20
266.5001294923
 30
0.0
 11
233.5719376787
 21
266.1102276123
 31
0.0
  0
LINE
  5
2D3
330
1F
100
AcDbEntity
  8
0
  6
Continuous
 62
     8
370
    18
100
AcDbLine
 10
235.5719376787
 20
192.243383479
 30
0.0
 11
235.5719376787
 21
193.5894909609
 31
0.0
  0
LINE
  5
2D4
330
1F
100
AcDbEntity
  8
0
  6
Continuous
 62
     8
370
    18
100
AcDbLine
 10
233.5719376787
 20
193.5894909609
 30
0.0
 11
233.5719376787
 21
192.243383479
 31
0.0
  0
LINE
  5
2D5
330
1F
100
AcDbEntity
  8
0
  6
Continuous
 62
     8
370
    18
100
AcDbLine
 10
226.9672657662
 20
141.0439474531
 30
0.0
 11
233.0719376787
 21
141.1051314803
 31
0.0
  0
LINE
  5
2D6
330
1F
100
AcDbEntity
  8
0
  6
Continuous
 62
     8
370
    18
100
AcDbLine
 10
226.9672657662
 20
152.4486472048
 30
0.0
 11
226.9672657662
 21
141.0439474531
 31
0.0
  0
LINE
  5
2D7
330
1F
100
AcDbEntity
  8
0
  6
Continuous
 62
     8
370
    18
100
AcDbLine
 10
226.9672657662
 20
152.4486472048
 30
0.0
 11
232.5981056568
 21
152.5050822542
 31
0.0
  0
LINE
  5
2D8
330
1F
100
AcDbEntity
  8
0
  6
Continuous
 62
     8
370
    18
100
AcDbLine
 10
232.5981056568
 20
150.4087838237
 30
0.0
 11
232.5981056568
 21
152.5050822542
 31
0.0
  0
SPLINE
  5
2D9
330
1F
100
AcDbEntity
  8
0
  6
Continuous
 62
     8
370
    18
100
AcDbSpline
210
0.0
220
0.0
230
1.0
 70
     8
 71
     3
 72
    14
 73
    10
 74
     0
 42
0.000000001
 43
0.00000001
 40
0.0
 40
0.0
 40
0.0
 40
0.0
 40
0.2953789314028109
 40
0.6600684991474547
 40
0.8134207940423
 40
0.8951528335768655
 40
0.9375995880262411
 40
0.9809052322589832
 40
1.0
 40
1.0
 40
1.0
 40
1.0
 10
232.8963927655072
 20
150.3147360585813
 30
0.0
 10
232.8636992217248
 20
150.3119607000067
 30
0.0
 10
232.7906405974224
 20
150.305758745249
 30
0.0
 10
232.7000455867487
 20
150.3242721517015
 30
0.0
 10
232.6419446773038
 20
150.3564606401485
 30
0.0
 10
232.6189174844401
 20
150.3765843219998
 30
0.0
 10
232.6072790971817
 20
150.3906860586592
 30
0.0
 10
232.6010269550801
 20
150.4003969120659
 30
0.0
 10
232.5987901330347
 20
150.4068187242644
 30
0.0
 10
232.5981056568256
 20
150.4087838236689
 30
0.0
  0
LINE
  5
2DA
330
1F
100
AcDbEntity
  8
0
  6
Continuous
 62
     8
370
    18
100
AcDbLine
 10
233.0719376787
 20
150.3381288343
 30
0.0
 11
232.8963927655
 21
150.3147360586
 31
0.0
  0
ARC
  5
2DB
330
1F
100
AcDbEntity
  8
0
  6
Continuous
 62
     8
370
    18
100
AcDbCircle
 10
226.530174325
 20
149.7241301235
 30
0.0
 40
2.759355405589679
100
AcDbArc
 50
80.8857605807
 51
121.9021393908
  0
ARC
  5
2DC
330
1F
100
AcDbEntity
  8
0
  6
Continuous
 62
     8
370
    18
100
AcDbCircle
 10
226.530174325
 20
138.3194303718
 30
0.0
 40
2.759355405591002
100
AcDbArc
 50
80.8857605807
 51
121.9021393908
  0
LINE
  5
2DD
330
1F
100
AcDbEntity
  8
0
  6
Continuous
 62
     8
370
    18
100
AcDbLine
 10
226.9672657662
 20
141.0439474531
 30
0.0
 11
226.9672657662
 21
135.4057830627
 31
0.0
  0
LINE
  5
2DE
330
1F
100
AcDbEntity
  8
0
  6
Continuous
 62
     8
370
    18
100
AcDbLine
 10
226.9672657662
 20
135.4057830627
 30
0.0
 11
233.0719376787
 21
135.105145043
 31
0.0
  0
ARC
  5
2DF
330
1F
100
AcDbEntity
  8
0
  6
Continuous
 62
     8
370
    18
100
AcDbCircle
 10
227.0061576351
 20
137.3404781261
 30
0.0
 40
1.935085932378134
100
AcDbArc
 50
181.7141807395
 51
268.8483767276
  0
LWPOLYLINE
  5
2E0
330
1F
100
AcDbEntity
  8
0
  6
Continuous
 62
     8
370
    18
100
AcDbPolyline
 90
        3
 70
   128
 43
0.0
 10
233.0719376787
 20
152.5515317205
 10
233.0627220995
 20
152.5537298941
 10
233.030345194
 20
152.5623891452
  0
SPLINE
  5
2E1
330
1F
100
AcDbEntity
  8
0
  6
Continuous
 62
     8
370
    18
100
AcDbSpline
210
0.0
220
0.0
230
1.0
 70
     8
 71
     3
 72
    10
 73
     6
 74
     0
 42
0.000000001
 43
0.00000001
 40
0.0
 40
0.0
 40
0.0
 40
0.0
 40
0.0193825197936255
 40
0.4881833237606849
 40
1.0
 40
1.0
 40
1.0
 40
1.0
 10
232.5981056568256
 20
150.4087838236689
 30
0.0
 10
232.5999674247739
 20
150.4087558321701
 30
0.0
 10
232.6468593704428
 20
150.408050816359
 30
0.0
 10
232.7436879831129
 20
150.3903733291888
 30
0.0
 10
232.8325637763923
 20
150.4278177853841
 30
0.0
 10
232.8789509906044
 20
150.4473612847611
 30
0.0
  0
ELLIPSE
  5
2E2
330
1F
100
AcDbEntity
  8
0
  6
Continuous
 62
     8
370
    18
100
AcDbEllipse
 10
232.5719376787
 20
154.0943063054
 30
0.0
 11
-0.008976549419941193
 21
3.687746829602616
 31
0.0
210
0.0
220
0.0
230
1.0
 40
0.1355622927
 41
3.175998467748181
 42
4.283668445001744
  0
ARC
  5
2E3
330
1F
100
AcDbEntity
  8
0
  6
Continuous
 62
     8
370
    18
100
AcDbCircle
 10
232.6417367849
 20
153.8347382287
 30
0.0
 40
1.330371634434138
100
AcDbArc
 50
268.1205794004
 51
286.9840305386
  0
LINE
  5
2E4
330
1F
100
AcDbEntity
  8
0
  6
Continuous
 62
     8
370
    18
100
AcDbLine
 10
232.5981056568
 20
152.5050822542
 30
0.0
 11
232.5981056568
 21
154.0569111188
 31
0.0
  0
LWPOLYLINE
  5
2E5
330
1F
100
AcDbEntity
  8
0
  6
Continuous
 62
     8
370
    18
100
AcDbPolyline
 90
        9
 70
   128
 43
0.0
 10
233.0719376787
 20
154.3186516838
 10
233.0629582425
 20
154.2692021169
 10
233.0363424551
 20
154.221528667
 10
232.9930462956
 20
154.1773436568
 10
232.9346248642
 20
154.1382341122
 10
232.8631765271
 20
154.1056047599
 10
232.7812675475
 20
154.0806275726
 10
232.691839911
 20
154.0641996746
 10
232.5981056568
 20
154.0569111188
  0
SPLINE
  5
2E6
330
1F
100
AcDbEntity
  8
0
  6
Continuous
 62
     8
370
    18
100
AcDbSpline
210
0.0
220
0.0
230
1.0
 70
     8
 71
     3
 72
    11
 73
     7
 74
     0
 42
0.000000001
 43
0.00000001
 40
0.0
 40
0.0
 40
0.0
 40
0.0
 40
0.2699608317474102
 40
0.6017984585299433
 40
0.9190162157162973
 40
0.9999999999999999
 40
0.9999999999999999
 40
0.9999999999999999
 40
0.9999999999999999
 10
232.5981056568256
 20
156.120804005959
 30
0.0
 10
232.6057785385307
 20
156.0974559628035
 30
0.0
 10
232.6228829768033
 20
156.0454083517122
 30
0.0
 10
232.7696093532167
 20
155.9616569943185
 30
0.0
 10
232.9316509388576
 20
155.8988499374836
 30
0.0
 10
233.0482287910004
 20
155.8814013854167
 30
0.0
 10
233.0719376787041
 20
155.877852806043
 30
0.0
  0
SPLINE
  5
2E7
330
1F
100
AcDbEntity
  8
0
  6
Continuous
 62
     8
370
    18
100
AcDbSpline
210
0.0
220
0.0
230
1.0
 70
     8
 71
     3
 72
    10
 73
     6
 74
     0
 42
0.000000001
 43
0.00000001
 40
0.0
 40
0.0
 40
0.0
 40
0.0
 40
0.168623951004753
 40
0.469861351440488
 40
1.0
 40
1.0
 40
1.0
 40
1.0
 10
233.0719376787041
 20
154.9593398204783
 30
0.0
 10
233.0152779403767
 20
154.9262460717069
 30
0.0
 10
232.8573987004222
 20
154.8340321636036
 30
0.0
 10
232.6478773612222
 20
154.5404737755091
 30
0.0
 10
232.617485472668
 20
154.2451979245195
 30
0.0
 10
232.5981056568256
 20
154.0569111188254
 30
0.0
  0
LINE
  5
2E8
330
1F
100
AcDbEntity
  8
0
  6
Continuous
 62
     8
370
    18
100
AcDbLine
 10
226.9672657662
 20
155.9793844845
 30
0.0
 11
226.9672657662
 21
152.4486472048
 31
0.0
  0
LINE
  5
2E9
330
1F
100
AcDbEntity
  8
0
  6
Continuous
 62
     8
370
    18
100
AcDbLine
 10
232.5981056568
 20
156.120804006
 30
0.0
 11
232.5981056568
 21
156.2744842987
 31
0.0
  0
ARC
  5
2EA
330
1F
100
AcDbEntity
  8
0
  6
Continuous
 62
     8
370
    18
100
AcDbCircle
 10
214.8526113716
 20
148.0092263964
 30
0.0
 40
18.19047612882348
100
AcDbArc
 50
7.2814044017
 51
7.7027410238
  0
LINE
  5
2EB
330
1F
100
AcDbEntity
  8
0
  6
Continuous
 62
     8
370
    18
100
AcDbLine
 10
226.9672657662
 20
135.4057830627
 30
0.0
 11
226.9672657662
 21
133.4206257771
 31
0.0
  0
ARC
  5
2EC
330
1F
100
AcDbEntity
  8
0
  6
Continuous
 62
     8
370
    18
100
AcDbCircle
 10
227.0061576351
 20
135.3553208405
 30
0.0
 40
1.935085932378426
100
AcDbArc
 50
181.7141807395
 51
268.8483767276
  0
LINE
  5
2ED
330
1F
100
AcDbEntity
  8
0
  6
Continuous
 62
     8
370
    18
100
AcDbLine
 10
226.9672657662
 20
133.4206257771
 30
0.0
 11
233.0719376787
 21
133.1199877574
 31
0.0
  0
ARC
  5
2EE
330
1F
100
AcDbEntity
  8
0
  6
Continuous
 62
     8
370
    18
100
AcDbCircle
 10
232.5810558153
 20
156.6114516395
 30
0.0
 40
0.4909437823047294
100
AcDbArc
 50
271.9902083895
 51
359.0900072125
  0
LINE
  5
2EF
330
1F
100
AcDbEntity
  8
0
  6
Continuous
 62
     8
370
    18
100
AcDbLine
 10
226.9672657662
 20
133.4206257771
 30
0.0
 11
226.9672657662
 21
133.1199688258
 31
0.0
  0
LINE
  5
2F0
330
1F
100
AcDbEntity
  8
0
  6
Continuous
 62
     8
370
    18
100
AcDbLine
 10
233.5719376787
 20
123.2748757062
 30
0.0
 11
233.5719376787
 21
123.2334072902
 31
0.0
  0
LINE
  5
2F1
330
1F
100
AcDbEntity
  8
0
  6
Continuous
 62
     8
370
    18
100
AcDbLine
 10
233.0275112839
 20
203.1304619391
 30
0.0
 11
233.0719376787
 21
203.1328770236
 31
0.0
  0
LINE
  5
2F2
330
1F
100
AcDbEntity
  8
0
  6
Continuous
 62
     8
370
    18
100
AcDbLine
 10
226.9672657662
 20
202.2802479512
 30
0.0
 11
232.5981056568
 21
202.2290044062
 31
0.0
  0
LINE
  5
2F3
330
1F
100
AcDbEntity
  8
0
  6
Continuous
 62
     8
370
    18
100
AcDbLine
 10
226.9672657662
 20
212.7721848671
 30
0.0
 11
226.9672657662
 21
202.2802479512
 31
0.0
  0
LINE
  5
2F4
330
1F
100
AcDbEntity
  8
0
  6
Continuous
 62
     8
370
    18
100
AcDbLine
 10
226.9672657662
 20
212.7721848671
 30
0.0
 11
233.0719376787
 21
212.7166292065
 31
0.0
  0
ARC
  5
2F5
330
1F
100
AcDbEntity
  8
0
  6
Continuous
 62
     8
370
    18
100
AcDbCircle
 10
226.5265645883
 20
205.2241438687
 30
0.0
 40
2.976699632393838
100
AcDbArc
 50
240.746729641
 51
278.5139535941
  0
ARC
  5
2F6
330
1F
100
AcDbEntity
  8
0
  6
Continuous
 62
     8
370
    18
100
AcDbCircle
 10
226.5265645883
 20
215.7160807846
 30
0.0
 40
2.976699632394733
100
AcDbArc
 50
240.7467296411
 51
278.5139535941
  0
LINE
  5
2F7
330
1F
100
AcDbEntity
  8
0
  6
Continuous
 62
     8
370
    18
100
AcDbLine
 10
226.9672657662
 20
217.8951892048
 30
0.0
 11
226.9672657662
 21
212.7721848671
 31
0.0
  0
LINE
  5
2F8
330
1F
100
AcDbEntity
  8
0
  6
Continuous
 62
     8
370
    18
100
AcDbLine
 10
226.9672657662
 20
217.8951892048
 30
0.0
 11
232.6071891973
 21
218.190717753
 31
0.0
  0
SPLINE
  5
2F9
330
1F
100
AcDbEntity
  8
0
  6
Continuous
 62
     8
370
    18
100
AcDbSpline
210
0.0
220
0.0
230
1.0
 70
     8
 71
     3
 72
     9
 73
     5
 74
     0
 42
0.000000001
 43
0.00000001
 40
0.0
 40
0.0
 40
0.0
 40
0.0
 40
0.4992833403644317
 40
1.0
 40
1.0
 40
1.0
 40
1.0
 10
232.5981056568256
 20
218.1567441609297
 30
0.0
 10
232.5987116425458
 20
218.1654554400288
 30
0.0
 10
232.5999253536216
 20
218.1829030061597
 30
0.0
 10
232.6047656035469
 20
218.188110349491
 30
0.0
 10
232.6071891973213
 20
218.1907177530494
 30
0.0
  0
LINE
  5
2FA
330
1F
100
AcDbEntity
  8
0
  6
Continuous
 62
     8
370
    18
100
AcDbLine
 10
232.5981056568
 20
217.9489736759
 30
0.0
 11
232.5981056568
 21
218.1567441609
 31
0.0
  0
SPLINE
  5
2FB
330
1F
100
AcDbEntity
  8
0
  6
Continuous
 62
     8
370
    18
100
AcDbSpline
210
0.0
220
0.0
230
1.0
 70
     8
 71
     3
 72
    10
 73
     6
 74
     0
 42
0.000000001
 43
0.00000001
 40
0.0
 40
0.0
 40
0.0
 40
0.0
 40
0.2510498298908049
 40
0.6095114445517511
 40
1.0
 40
1.0
 40
1.0
 40
1.0
 10
233.0719376787041
 20
217.3895158397588
 30
0.0
 10
232.988368242043
 20
217.4339119589494
 30
0.0
 10
232.7854741469471
 20
217.541699097272
 30
0.0
 10
232.6244830546997
 20
217.7605050261412
 30
0.0
 10
232.6071452583077
 20
217.8843849892502
 30
0.0
 10
232.5981056568256
 20
217.9489736758865
 30
0.0
  0
ARC
  5
2FC
330
1F
100
AcDbEntity
  8
0
  6
Continuous
 62
     8
370
    18
100
AcDbCircle
 10
232.6428315185
 20
199.3220458041
 30
0.0
 40
0.4371097107168166
100
AcDbArc
 50
10.9811708999
 51
95.87288702
  0
LINE
  5
2FD
330
1F
100
AcDbEntity
  8
0
  6
Continuous
 62
     8
370
    18
100
AcDbLine
 10
232.5981056568
 20
199.7568612782
 30
0.0
 11
232.5981056568
 21
202.2290044062
 31
0.0
  0
SPLINE
  5
2FE
330
1F
100
AcDbEntity
  8
0
  6
Continuous
 62
     8
370
    18
100
AcDbSpline
210
0.0
220
0.0
230
1.0
 70
     8
 71
     3
 72
    17
 73
    13
 74
     0
 42
0.000000001
 43
0.00000001
 40
0.0
 40
0.0
 40
0.0
 40
0.0
 40
0.0469968871142278
 40
0.095587331145317
 40
0.1559759093776946
 40
0.2453908428629485
 40
0.3376670046916051
 40
0.5004232795882437
 40
0.6663218136329562
 40
0.7829542221595425
 40
0.9001087800388942
 40
0.9999999999999999
 40
0.9999999999999999
 40
0.9999999999999999
 40
0.9999999999999999
 10
233.0719376787041
 20
202.0982526102764
 30
0.0
 10
233.0715501663806
 20
202.1028478340481
 30
0.0
 10
233.0707620020772
 20
202.1121940951161
 30
0.0
 10
233.064223086365
 20
202.1367216509358
 30
0.0
 10
233.0515449938778
 20
202.1752791535516
 30
0.0
 10
233.0303988021792
 20
202.2317430132274
 30
0.0
 10
232.995368730204
 20
202.3202837039933
 30
0.0
 10
232.9484131412265
 20
202.4366350038586
 30
0.0
 10
232.8987682580077
 20
202.5645717570847
 30
0.0
 10
232.8576799273769
 20
202.6824733040379
 30
0.0
 10
232.827006323914
 20
202.7829696403378
 30
0.0
 10
232.8131550866016
 20
202.8501592175717
 30
0.0
 10
232.8067803162335
 20
202.8810819515007
 30
0.0
  0
SPLINE
  5
2FF
330
1F
100
AcDbEntity
  8
0
  6
Continuous
 62
     8
370
    18
100
AcDbSpline
210
0.0
220
0.0
230
1.0
 70
     8
 71
     3
 72
    14
 73
    10
 74
     0
 42
0.000000001
 43
0.00000001
 40
0.0
 40
0.0
 40
0.0
 40
0.0
 40
0.1296438726425212
 40
0.2676227295185388
 40
0.3564508058621629
 40
0.4691457874404205
 40
0.5683665184298736
 40
0.876861856883925
 40
1.0
 40
1.0
 40
1.0
 40
1.0
 10
233.0275112839034
 20
203.1304619391227
 30
0.0
 10
233.0198831479823
 20
203.1216609289785
 30
0.0
 10
233.0041364527104
 20
203.1034930795514
 30
0.0
 10
232.9879109923818
 20
203.0752003036722
 30
0.0
 10
232.9797034179188
 20
203.0452048444334
 30
0.0
 10
232.9811304856676
 20
203.0171838585019
 30
0.0
 10
232.9988826582241
 20
202.9731679118472
 30
0.0
 10
233.0319944810993
 20
202.9361979143156
 30
0.0
 10
233.0630718121668
 20
202.9149260374884
 30
0.0
 10
233.0719376787041
 20
202.9088575105439
 30
0.0
  0
ARC
  5
300
330
1F
100
AcDbEntity
  8
0
  6
Continuous
 62
     8
370
    18
100
AcDbCircle
 10
232.5861584735
 20
218.4347643169
 30
0.0
 40
0.4859375289817625
100
AcDbArc
 50
271.4088069393
 51
358.5373774943
  0
LINE
  5
301
330
1F
100
AcDbEntity
  8
0
  6
Continuous
 62
     8
370
    18
100
AcDbLine
 10
233.0651516257
 20
201.045030545
 30
0.0
 11
233.0719376787
 21
201.0097591797
 31
0.0
  0
SPLINE
  5
302
330
1F
100
AcDbEntity
  8
0
  6
Continuous
 62
     8
370
    18
100
AcDbSpline
210
0.0
220
0.0
230
1.0
 70
     8
 71
     3
 72
    11
 73
     7
 74
     0
 42
0.000000001
 43
0.00000001
 40
0.0
 40
0.0
 40
0.0
 40
0.0
 40
0.2699608317474718
 40
0.6017984585300228
 40
0.919016215716335
 40
1.0
 40
1.0
 40
1.0
 40
1.0
 10
232.5981056568256
 20
199.7568612781825
 30
0.0
 10
232.6057785385307
 20
199.6955096405426
 30
0.0
 10
232.6228829768033
 20
199.5587441671182
 30
0.0
 10
232.7696093532167
 20
199.3841266478916
 30
0.0
 10
232.9316509388576
 20
199.2683708199832
 30
0.0
 10
233.0482287910004
 20
199.2324261029364
 30
0.0
 10
233.0719376787041
 20
199.2251158871077
 30
0.0
  0
SPLINE
  5
303
330
1F
100
AcDbEntity
  8
0
  6
Continuous
 62
     8
370
    18
100
AcDbSpline
210
0.0
220
0.0
230
1.0
 70
     8
 71
     3
 72
    13
 73
     9
 74
     0
 42
0.000000001
 43
0.00000001
 40
0.0
 40
0.0
 40
0.0
 40
0.0
 40
0.0429964199659669
 40
0.1735055901852943
 40
0.3210926288799965
 40
0.4726336653627694
 40
0.7306279498622928
 40
1.0
 40
1.0
 40
1.0
 40
1.0
 10
233.0719376787041
 20
198.5282734926738
 30
0.0
 10
233.05683931037
 20
198.5260942842025
 30
0.0
 10
232.9959121143214
 20
198.5173004159631
 30
0.0
 10
232.9019812082429
 20
198.496297061177
 30
0.0
 10
232.7947887738713
 20
198.4677945591679
 30
0.0
 10
232.6908983938579
 20
198.4322018292913
 30
0.0
 10
232.6123221888795
 20
198.3957457467865
 30
0.0
 10
232.6029121735673
 20
198.3849655617153
 30
0.0
 10
232.5981056568256
 20
198.3794591795995
 30
0.0
  0
LINE
  5
304
330
1F
100
AcDbEntity
  8
0
  6
Continuous
 62
     8
370
    18
100
AcDbLine
 10
232.5981056568
 20
198.3776092465
 30
0.0
 11
232.5981056568
 21
198.3794591796
 31
0.0
  0
LINE
  5
305
330
1F
100
AcDbEntity
  8
0
  6
Continuous
 62
     8
370
    18
100
AcDbLine
 10
226.9672657662
 20
202.2802479512
 30
0.0
 11
226.9672657662
 21
198.6727090607
 31
0.0
  0
ARC
  5
306
330
1F
100
AcDbEntity
  8
0
  6
Continuous
 62
     8
370
    18
100
AcDbCircle
 10
232.5739958891
 20
218.6541048798
 30
0.0
 40
0.4979447414426887
100
AcDbArc
 50
272.7752642683
 51
359.8027141731
  0
LINE
  5
307
330
1F
100
AcDbEntity
  8
0
  6
Continuous
 62
     8
370
    18
100
AcDbLine
 10
226.9672657662
 20
218.1030788871
 30
0.0
 11
226.9672657662
 21
217.8951892048
 31
0.0
  0
LWPOLYLINE
  5
308
330
1F
100
AcDbEntity
  8
0
  6
Continuous
 62
     8
370
    18
100
AcDbPolyline
 90
        3
 70
   128
 43
0.0
 10
232.7364193564
 20
218.2147397865
 10
232.6928595433
 20
218.2026622612
 10
232.6071891973
 20
218.190717753
  0
LINE
  5
309
330
1F
100
AcDbEntity
  8
0
  6
Continuous
 62
     8
370
    18
100
AcDbLine
 10
226.9672657662
 20
218.1030788871
 30
0.0
 11
232.9979746151
 21
218.4190843529
 31
0.0
  0
ARC
  5
30A
330
1F
100
AcDbEntity
  8
0
  6
Continuous
 62
     8
370
    18
100
AcDbCircle
 10
232.5720492564
 20
197.8802502982
 30
0.0
 40
0.4998884307902552
100
AcDbArc
 50
0.0105793892
 51
87.0121360259
  0
LINE
  5
30B
330
1F
100
AcDbEntity
  8
0
  6
Continuous
 62
     8
370
    18
100
AcDbLine
 10
236.0719376787
 20
191.4230565787
 30
0.0
 11
356.0809619258
 21
191.4230565787
 31
0.0
  0
ARC
  5
30C
330
1F
100
AcDbEntity
  8
0
  6
Continuous
 62
     8
370
    18
100
AcDbCircle
 10
321.7308455418
 20
190.6568109482
 30
0.0
 40
34.35866161476803
100
AcDbArc
 50
359.850429776
 51
1.2778809948
  0
LINE
  5
30D
330
1F
100
AcDbEntity
  8
0
  6
Continuous
 62
     8
370
    18
100
AcDbLine
 10
356.0893900851
 20
190.5671180089
 30
0.0
 11
236.0719376787
 21
190.5671180089
 31
0.0
  0
LINE
  5
30E
330
1F
100
AcDbEntity
  8
0
  6
Continuous
 62
     8
370
    18
100
AcDbLine
 10
236.0719376787
 20
188.1313202707
 30
0.0
 11
356.0893900851
 21
188.1313202707
 31
0.0
  0
ARC
  5
30F
330
1F
100
AcDbEntity
  8
0
  6
Continuous
 62
     8
370
    18
100
AcDbCircle
 10
341.7516286558
 20
187.8813964173
 30
0.0
 40
14.33993949562931
100
AcDbArc
 50
357.0016736235
 51
0.9986309244
  0
LINE
  5
310
330
1F
100
AcDbEntity
  8
0
  6
Continuous
 62
     8
370
    18
100
AcDbLine
 10
356.0893900851
 20
188.1313202707
 30
0.0
 11
356.0893900851
 21
190.5671180089
 31
0.0
  0
LINE
  5
311
330
1F
100
AcDbEntity
  8
0
  6
Continuous
 62
     8
370
    18
100
AcDbLine
 10
332.9313060757
 20
205.4093363421
 30
0.0
 11
236.0719376787
 21
205.4093363421
 31
0.0
  0
LINE
  5
312
330
1F
100
AcDbEntity
  8
0
  6
Continuous
 62
     8
370
    18
100
AcDbLine
 10
356.0809619258
 20
191.4230859327
 30
0.0
 11
332.9313060757
 21
205.4093363421
 31
0.0
  0
LINE
  5
313
330
1F
100
AcDbEntity
  8
0
  6
Continuous
 62
     8
370
    18
100
AcDbLine
 10
356.0809619258
 20
191.4230565787
 30
0.0
 11
356.0809619258
 21
191.4230859327
 31
0.0
  0
LINE
  5
314
330
1F
100
AcDbEntity
  8
0
  6
Continuous
 62
     8
370
    18
100
AcDbLine
 10
250.0805089839
 20
176.3695145268
 30
0.0
 11
236.0719376787
 21
176.3695145268
 31
0.0
  0
ELLIPSE
  5
315
330
1F
100
AcDbEntity
  8
0
  6
Continuous
 62
     8
370
    18
100
AcDbEllipse
 10
355.2169758957
 20
174.4313202707
 30
0.0
 11
13.68254759356273
 21
0.0
 31
0.0
210
0.0
220
0.0
230
1.0
 40
0.9281897186
 41
1.570796326794897
 42
2.988380216355312
  0
LINE
  5
316
330
1F
100
AcDbEntity
  8
0
  6
Continuous
 62
     8
370
    18
100
AcDbLine
 10
341.6947068111
 20
176.3695145268
 30
0.0
 11
327.9886450702
 21
176.3695145268
 31
0.0
  0
LINE
  5
317
330
1F
100
AcDbEntity
  8
0
  6
Continuous
 62
     8
370
    18
100
AcDbLine
 10
356.0893900851
 20
188.1313202707
 30
0.0
 11
357.0719376787
 21
188.1313202707
 31
0.0
  0
ARC
  5
318
330
1F
100
AcDbEntity
  8
0
  6
Continuous
 62
     8
370
    18
100
AcDbCircle
 10
356.1401818409
 20
190.4899914998
 30
0.0
 40
0.934942479313907
100
AcDbArc
 50
4.7318963278
 51
93.6315861424
  0
LINE
  5
319
330
1F
100
AcDbEntity
  8
0
  6
Continuous
 62
     8
370
    18
100
AcDbLine
 10
357.0719376787
 20
190.5671180089
 30
0.0
 11
356.0893900851
 21
190.5671180089
 31
0.0
  0
ARC
  5
31A
330
1F
100
AcDbEntity
  8
0
  6
Continuous
 62
     8
370
    18
100
AcDbCircle
 10
356.1401818409
 20
190.4900208539
 30
0.0
 40
0.9349424793139093
100
AcDbArc
 50
4.7318963278
 51
93.6315861424
  0
ARC
  5
31B
330
1F
100
AcDbEntity
  8
0
  6
Continuous
 62
     8
370
    18
100
AcDbCircle
 10
333.185329777
 20
204.9240196116
 30
0.0
 40
0.5477776645200302
100
AcDbArc
 50
62.366419278
 51
117.6283871782
  0
ARC
  5
31C
330
1F
100
AcDbEntity
  8
0
  6
Continuous
 62
     8
370
    18
100
AcDbCircle
 10
356.3349856271
 20
190.9377692022
 30
0.0
 40
0.5477776645203147
100
AcDbArc
 50
62.366419278
 51
117.6283871782
  0
ARC
  5
31D
330
1F
100
AcDbEntity
  8
0
  6
Continuous
 62
     8
370
    18
100
AcDbCircle
 10
342.1802257855
 20
178.0224789435
 30
0.0
 40
1.722794252799195
100
AcDbArc
 50
253.6311038689
 51
286.3688961311
  0
LINE
  5
31E
330
1F
100
AcDbEntity
  8
0
  6
Continuous
 62
     8
370
    18
100
AcDbLine
 10
238.0719376787
 20
172.2611910928
 30
0.0
 11
236.0719376787
 21
172.2804225567
 31
0.0
  0
LINE
  5
31F
330
1F
100
AcDbEntity
  8
0
  6
Continuous
 62
     8
370
    18
100
AcDbLine
 10
236.0719376787
 20
7.1924476148
 30
0.0
 11
238.0719376787
 21
7.2116790788
 31
0.0
  0
ARC
  5
320
330
1F
100
AcDbEntity
  8
0
  6
Continuous
 62
     8
370
    18
100
AcDbCircle
 10
355.2342238631
 20
174.2787065497
 30
0.0
 40
13.70000000000002
100
AcDbArc
 50
171.2215739776
 51
171.962377968
  0
LINE
  5
321
330
1F
100
AcDbEntity
  8
0
  6
Continuous
 62
     8
370
    18
100
AcDbLine
 10
316.2183501935
 20
-4.0363416116
 30
0.0
 11
341.6688062205
 21
176.1942858827
 31
0.0
  0
LINE
  5
322
330
1F
100
AcDbEntity
  8
0
  6
Continuous
 62
     8
370
    18
100
AcDbLine
 10
236.0719376787
 20
-5.4353024458
 30
0.0
 11
316.2183501935
 21
-4.0363416116
 31
0.0
  0
LINE
  5
323
330
1F
100
AcDbEntity
  8
0
  6
Continuous
 62
     8
370
    18
100
AcDbLine
 10
250.0805089839
 20
176.3695145268
 30
0.0
 11
250.0462365042
 21
174.6490589283
 31
0.0
  0
LINE
  5
324
330
1F
100
AcDbEntity
  8
0
  6
Continuous
 62
     8
370
    18
100
AcDbLine
 10
246.0704501061
 20
172.4058401895
 30
0.0
 11
248.0412070653
 21
172.6672217597
 31
0.0
  0
LINE
  5
325
330
1F
100
AcDbEntity
  8
0
  6
Continuous
 62
     8
370
    18
100
AcDbLine
 10
327.9543725905
 20
174.6490589283
 30
0.0
 11
327.9886450702
 21
176.3695145268
 31
0.0
  0
LINE
  5
326
330
1F
100
AcDbEntity
  8
0
  6
Continuous
 62
     8
370
    18
100
AcDbLine
 10
246.0704501061
 20
6.8003796385
 30
0.0
 11
248.0412070653
 21
7.0617612087
 31
0.0
  0
LINE
  5
327
330
1F
100
AcDbEntity
  8
0
  6
Continuous
 62
     8
370
    18
100
AcDbLine
 10
329.9295353759
 20
172.4043686177
 30
0.0
 11
331.9389706409
 21
171.8801339056
 31
0.0
  0
ARC
  5
328
330
1F
100
AcDbEntity
  8
0
  6
Continuous
 62
     8
370
    18
100
AcDbCircle
 10
342.1335544667
 20
177.8525528577
 30
0.0
 40
1.722161517603608
100
AcDbArc
 50
254.3438654997
 51
287.162502973
  0
ARC
  5
329
330
1F
100
AcDbEntity
  8
0
  6
Continuous
 62
     8
370
    18
100
AcDbCircle
 10
316.6830984396
 20
-2.3780746366
 30
0.0
 40
1.722161517602916
100
AcDbArc
 50
254.3438654996
 51
287.162502973
  0
LINE
  5
32A
330
1F
100
AcDbEntity
  8
0
  6
Continuous
 62
     8
370
    18
100
AcDbLine
 10
306.6790286255
 20
7.7529605356
 30
0.0
 11
308.6884638905
 21
7.2287258235
 31
0.0
  0
LINE
  5
32B
330
1F
100
AcDbEntity
  8
0
  6
Continuous
 62
     8
370
    18
100
AcDbLine
 10
329.9295353759
 20
172.4043686177
 30
0.0
 11
329.9067369997
 21
172.6060935466
 31
0.0
  0
LINE
  5
32C
330
1F
100
AcDbEntity
  8
0
  6
Continuous
 62
     8
370
    18
100
AcDbLine
 10
306.6562302493
 20
7.9546854646
 30
0.0
 11
306.6790286255
 21
7.7529605356
 31
0.0
  0
LINE
  5
32D
330
1F
100
AcDbEntity
  8
0
  6
Continuous
 62
     8
370
    18
100
AcDbLine
 10
236.0719376787
 20
206.0506178812
 30
0.0
 11
332.0201432309
 21
206.0506178812
 31
0.0
  0
SPLINE
  5
32E
330
1F
100
AcDbEntity
  8
0
  6
Continuous
 62
     8
370
    18
100
AcDbSpline
210
0.0
220
0.0
230
1.0
 70
     8
 71
     3
 72
    11
 73
     7
 74
     0
 42
0.000000001
 43
0.00000001
 40
0.0
 40
0.0
 40
0.0
 40
0.0
 40
0.3708542775827824
 40
0.7063259998111341
 40
0.9312813413242387
 40
1.0
 40
1.0
 40
1.0
 40
1.0
 10
332.9312727683142
 20
205.4093464923248
 30
0.0
 10
332.8006239023902
 20
205.4550091485671
 30
0.0
 10
332.5517911494029
 20
205.5419778672096
 30
0.0
 10
332.2528127928535
 20
205.7355099769159
 30
0.0
 10
332.0838877902031
 20
205.9198683127162
 30
0.0
 10
332.0322330778197
 20
206.0258140763467
 30
0.0
 10
332.020146061104
 20
206.0506050035802
 30
0.0
  0
LINE
  5
32F
330
1F
100
AcDbEntity
  8
0
  6
Continuous
 62
     8
370
    18
100
AcDbLine
 10
332.9313060757
 20
205.4093363421
 30
0.0
 11
332.9312727683
 21
205.4093464923
 31
0.0
  0
LINE
  5
330
330
1F
100
AcDbEntity
  8
0
  6
Continuous
 62
     8
370
    18
100
AcDbLine
 10
322.1508978916
 20
250.9556715219
 30
0.0
 11
236.0719376787
 21
252.4581853614
 31
0.0
  0
LINE
  5
331
330
1F
100
AcDbEntity
  8
0
  6
Continuous
 62
     8
370
    18
100
AcDbLine
 10
332.02014045
 20
206.0506178812
 30
0.0
 11
322.1508978916
 21
250.9556715219
 31
0.0
  0
ARC
  5
332
330
1F
100
AcDbEntity
  8
0
  6
Continuous
 62
     8
370
    18
100
AcDbCircle
 10
333.1853060183
 20
204.924048963
 30
0.0
 40
0.547765081101107
100
AcDbArc
 50
62.3668922015
 51
117.6302034583
  0
ARC
  5
333
330
1F
100
AcDbEntity
  8
0
  6
Continuous
 62
     8
370
    18
100
AcDbCircle
 10
332.4999517043
 20
204.857426466
 30
0.0
 40
1.286036196880159
100
AcDbArc
 50
68.092195789
 51
111.9062992416
  0
ARC
  5
334
330
1F
100
AcDbEntity
  8
0
  6
Continuous
 62
     8
370
    18
100
AcDbCircle
 10
332.4999627278
 20
204.8573833012
 30
0.0
 40
1.286093915511842
100
AcDbArc
 50
68.0940310054
 51
111.9059362401
  0
ARC
  5
335
330
1F
100
AcDbEntity
  8
0
  6
Continuous
 62
     8
370
    18
100
AcDbCircle
 10
322.6307198455
 20
249.762434727
 30
0.0
 40
1.286096091344876
100
AcDbArc
 50
68.0940544267
 51
111.9059455733
  0
ARC
  5
336
330
1F
100
AcDbEntity
  8
0
  6
Continuous
 62
     8
370
    18
100
AcDbCircle
 10
308.9698404309
 20
251.3550963544
 30
0.0
 40
13.18710794596972
100
AcDbArc
 50
358.2643004102
 51
1.6763271956
  0
ARC
  5
337
330
1F
100
AcDbEntity
  8
0
  6
Continuous
 62
     8
370
    18
100
AcDbCircle
 10
200.4957308252
 20
255.8829708701
 30
0.0
 40
43.57756265882756
100
AcDbArc
 50
356.3453957001
 51
359.5480338031
  0
SPLINE
  5
338
330
1F
100
AcDbEntity
  8
0
  6
Continuous
 62
     8
370
    18
100
AcDbSpline
210
0.0
220
0.0
230
1.0
 70
     8
 71
     3
 72
    26
 73
    22
 74
     0
 42
0.000000001
 43
0.00000001
 40
0.0
 40
0.0
 40
0.0
 40
0.0
 40
0.0523163650567303
 40
0.1049948159229136
 40
0.1588150629344197
 40
0.2130297947222235
 40
0.2654195274909201
 40
0.3181728480088098
 40
0.3720728329178294
 40
0.4263690122393284
 40
0.4787575519442761
 40
0.5315095839039181
 40
0.5854079550708536
 40
0.6397024012828595
 40
0.6920931710393672
 40
0.7448474056122489
 40
0.7987478993551459
 40
0.8530444457400843
 40
0.905047612397838
 40
0.9574061269297026
 40
1.0
 40
1.0
 40
1.0
 40
1.0
 10
244.0719376787038
 20
255.5392216240938
 30
0.0
 10
245.7550198791504
 20
255.5109218895439
 30
0.0
 10
249.1328330285808
 20
255.4541265556842
 30
0.0
 10
254.2124569896458
 20
255.3687097501955
 30
0.0
 10
259.2849293301011
 20
255.283408254822
 30
0.0
 10
264.2431584024244
 20
255.2000226764944
 30
0.0
 10
269.0294775833013
 20
255.1195235013727
 30
0.0
 10
273.6369845822677
 20
255.0420273694971
 30
0.0
 10
278.0930930306913
 20
254.9670736580223
 30
0.0
 10
282.2975646106536
 20
254.8963489505479
 30
0.0
 10
286.2051333667453
 20
254.8306154319465
 30
0.0
 10
289.8140338717337
 20
254.7699035240367
 30
0.0
 10
293.1439292161814
 20
254.713883033731
 30
0.0
 10
296.1159721075414
 20
254.6638810564638
 30
0.0
 10
298.7023006436503
 20
254.6203670124027
 30
0.0
 10
300.9064489347123
 20
254.5832820186246
 30
0.0
 10
302.7348779090095
 20
254.5525178365121
 30
0.0
 10
304.1380299794977
 20
254.5289087063443
 30
0.0
 10
305.1028400812212
 20
254.5126748113667
 30
0.0
 10
305.6361904237784
 20
254.50370058153
 30
0.0
 10
305.6964486159336
 20
254.5026866656162
 30
0.0
 10
305.7234793189302
 20
254.5022318418162
 30
0.0
  0
LINE
  5
339
330
1F
100
AcDbEntity
  8
0
  6
Continuous
 62
     8
370
    18
100
AcDbLine
 10
250.1298214585
 20
2.8583829535
 30
0.0
 11
250.0708927415
 21
5.0907628662
 31
0.0
  0
LINE
  5
33A
330
1F
100
AcDbEntity
  8
0
  6
Continuous
 62
     8
370
    18
100
AcDbLine
 10
304.7285220775
 20
6.0448153351
 30
0.0
 11
304.7874507945
 21
3.8124354224
 31
0.0
  0
LINE
  5
33B
330
1F
100
AcDbEntity
  8
0
  6
Continuous
 62
     8
370
    18
100
AcDbLine
 10
250.0480943654
 20
5.2924877951
 30
0.0
 11
250.0708927415
 21
5.0907628662
 31
0.0
  0
ARC
  5
33C
330
1F
100
AcDbEntity
  8
0
  6
Continuous
 62
     8
370
    18
100
AcDbCircle
 10
302.7004249555
 20
-4.463220521
 30
0.0
 40
13.52466370540461
100
AcDbArc
 50
358.2189242585
 51
1.8087268726
  0
LINE
  5
33D
330
1F
100
AcDbEntity
  8
0
  6
Continuous
 62
     8
370
    18
100
AcDbLine
 10
236.0719376787
 20
255.6648980916
 30
0.0
 11
244.0719376787
 21
255.5392216241
 31
0.0
  0
LINE
  5
33E
330
1F
100
AcDbEntity
  8
0
  6
Continuous
 62
     8
370
    18
100
AcDbLine
 10
304.7285220775
 20
6.0448153351
 30
0.0
 11
304.7057237013
 21
6.246540264
 31
0.0
  0
LINE
  5
33F
330
1F
100
AcDbEntity
  8
0
  6
Continuous
 62
     8
370
    18
100
AcDbLine
 10
244.0719376787
 20
276.0981200489
 30
0.0
 11
244.0719376787
 21
255.5392216241
 31
0.0
  0
LINE
  5
340
330
1F
100
AcDbEntity
  8
0
  6
Continuous
 62
     8
370
    18
100
AcDbLine
 10
277.4502275914
 20
276.0981200489
 30
0.0
 11
244.0719376787
 21
276.0981200489
 31
0.0
  0
LINE
  5
341
330
1F
100
AcDbEntity
  8
0
  6
Continuous
 62
     8
370
    18
100
AcDbLine
 10
244.0719376787
 20
276.0981200489
 30
0.0
 11
236.0719376787
 21
276.0981200489
 31
0.0
  0
LINE
  5
342
330
1F
100
AcDbEntity
  8
0
  6
Continuous
 62
     8
370
    18
100
AcDbLine
 10
244.0719376787
 20
314.0320211971
 30
0.0
 11
278.3978812512
 21
314.0320211971
 31
0.0
  0
LINE
  5
343
330
1F
100
AcDbEntity
  8
0
  6
Continuous
 62
     8
370
    18
100
AcDbLine
 10
244.0719376787
 20
316.3100532556
 30
0.0
 11
244.0719376787
 21
314.0320211971
 31
0.0
  0
LINE
  5
344
330
1F
100
AcDbEntity
  8
0
  6
Continuous
 62
     8
370
    18
100
AcDbLine
 10
244.0719376787
 20
316.3100532556
 30
0.0
 11
276.9277210156
 21
316.3100532556
 31
0.0
  0
LINE
  5
345
330
1F
100
AcDbEntity
  8
0
  6
Continuous
 62
     8
370
    18
100
AcDbLine
 10
244.0719376787
 20
310.9250677381
 30
0.0
 11
277.3254351204
 21
310.9250677381
 31
0.0
  0
LINE
  5
346
330
1F
100
AcDbEntity
  8
0
  6
Continuous
 62
     8
370
    18
100
AcDbLine
 10
244.0719376787
 20
312.0108751012
 30
0.0
 11
244.0719376787
 21
310.9250677381
 31
0.0
  0
LINE
  5
347
330
1F
100
AcDbEntity
  8
0
  6
Continuous
 62
     8
370
    18
100
AcDbLine
 10
244.0719376787
 20
312.0108751012
 30
0.0
 11
278.3978812512
 21
312.0108751012
 31
0.0
  0
LINE
  5
348
330
1F
100
AcDbEntity
  8
0
  6
Continuous
 62
     8
370
    18
100
AcDbLine
 10
244.0719376787
 20
314.0320211971
 30
0.0
 11
244.0719376787
 21
312.0108751012
 31
0.0
  0
LINE
  5
349
330
1F
100
AcDbEntity
  8
0
  6
Continuous
 62
     8
370
    18
100
AcDbLine
 10
236.0719376787
 20
312.0108751012
 30
0.0
 11
244.0719376787
 21
312.0108751012
 31
0.0
  0
LINE
  5
34A
330
1F
100
AcDbEntity
  8
0
  6
Continuous
 62
     8
370
    18
100
AcDbLine
 10
236.0719376787
 20
310.9250677381
 30
0.0
 11
244.0719376787
 21
310.9250677381
 31
0.0
  0
LINE
  5
34B
330
1F
100
AcDbEntity
  8
0
  6
Continuous
 62
     8
370
    18
100
AcDbLine
 10
236.0719376787
 20
316.3100532556
 30
0.0
 11
244.0719376787
 21
316.3100532556
 31
0.0
  0
LINE
  5
34C
330
1F
100
AcDbEntity
  8
0
  6
Continuous
 62
     8
370
    18
100
AcDbLine
 10
236.0719376787
 20
314.0320211971
 30
0.0
 11
244.0719376787
 21
314.0320211971
 31
0.0
  0
LINE
  5
34D
330
1F
100
AcDbEntity
  8
0
  6
Continuous
 62
     8
370
    18
100
AcDbLine
 10
236.0719376787
 20
276.583080516
 30
0.0
 11
244.0719376787
 21
276.583080516
 31
0.0
  0
LINE
  5
34E
330
1F
100
AcDbEntity
  8
0
  6
Continuous
 62
     8
370
    18
100
AcDbLine
 10
244.0719376787
 20
276.0981200489
 30
0.0
 11
244.0719376787
 21
276.583080516
 31
0.0
  0
LINE
  5
34F
330
1F
100
AcDbEntity
  8
0
  6
Continuous
 62
     8
370
    18
100
AcDbLine
 10
244.0719376787
 20
276.583080516
 30
0.0
 11
277.0719376787
 21
276.583080516
 31
0.0
  0
LINE
  5
350
330
1F
100
AcDbEntity
  8
0
  6
Continuous
 62
     8
370
    18
100
AcDbLine
 10
244.0719376787
 20
309.2275990978
 30
0.0
 11
274.7855124669
 21
309.2275990978
 31
0.0
  0
LINE
  5
351
330
1F
100
AcDbEntity
  8
0
  6
Continuous
 62
     8
370
    18
100
AcDbLine
 10
244.0719376787
 20
310.9250677381
 30
0.0
 11
244.0719376787
 21
309.2275990978
 31
0.0
  0
LINE
  5
352
330
1F
100
AcDbEntity
  8
0
  6
Continuous
 62
     8
370
    18
100
AcDbLine
 10
236.0719376787
 20
309.2275990978
 30
0.0
 11
244.0719376787
 21
309.2275990978
 31
0.0
  0
LINE
  5
353
330
1F
100
AcDbEntity
  8
0
  6
Continuous
 62
     8
370
    18
100
AcDbLine
 10
244.0719376787
 20
278.8989853326
 30
0.0
 11
244.0719376787
 21
279.8679488253
 31
0.0
  0
LINE
  5
354
330
1F
100
AcDbEntity
  8
0
  6
Continuous
 62
     8
370
    18
100
AcDbLine
 10
244.0719376787
 20
279.8679488253
 30
0.0
 11
276.3191415415
 21
279.8679488253
 31
0.0
  0
LINE
  5
355
330
1F
100
AcDbEntity
  8
0
  6
Continuous
 62
     8
370
    18
100
AcDbLine
 10
277.0719376787
 20
278.8989853326
 30
0.0
 11
244.0719376787
 21
278.8989853326
 31
0.0
  0
LINE
  5
356
330
1F
100
AcDbEntity
  8
0
  6
Continuous
 62
     8
370
    18
100
AcDbLine
 10
244.0719376787
 20
278.8989853326
 30
0.0
 11
244.0719376787
 21
276.583080516
 31
0.0
  0
LINE
  5
357
330
1F
100
AcDbEntity
  8
0
  6
Continuous
 62
     8
370
    18
100
AcDbLine
 10
244.0719376787
 20
278.8989853326
 30
0.0
 11
236.0719376787
 21
278.8989853326
 31
0.0
  0
LINE
  5
358
330
1F
100
AcDbEntity
  8
0
  6
Continuous
 62
     8
370
    18
100
AcDbLine
 10
236.0719376787
 20
279.8679488253
 30
0.0
 11
244.0719376787
 21
279.8679488253
 31
0.0
  0
LINE
  5
359
330
1F
100
AcDbEntity
  8
0
  6
Continuous
 62
     8
370
    18
100
AcDbLine
 10
236.0719376787
 20
318.4435127277
 30
0.0
 11
244.0719376787
 21
318.4435127277
 31
0.0
  0
LINE
  5
35A
330
1F
100
AcDbEntity
  8
0
  6
Continuous
 62
     8
370
    18
100
AcDbLine
 10
244.0719376787
 20
318.4435127277
 30
0.0
 11
244.0719376787
 21
316.3100532556
 31
0.0
  0
LINE
  5
35B
330
1F
100
AcDbEntity
  8
0
  6
Continuous
 62
     8
370
    18
100
AcDbLine
 10
244.0719376787
 20
318.4435127277
 30
0.0
 11
272.2084537656
 21
318.4435127277
 31
0.0
  0
LINE
  5
35C
330
1F
100
AcDbEntity
  8
0
  6
Continuous
 62
     8
370
    18
100
AcDbLine
 10
244.0719376787
 20
291.2839336791
 30
0.0
 11
244.0719376787
 21
279.8679488253
 31
0.0
  0
LINE
  5
35D
330
1F
100
AcDbEntity
  8
0
  6
Continuous
 62
     8
370
    18
100
AcDbLine
 10
244.0719376787
 20
306.4676205632
 30
0.0
 11
273.6026645235
 21
306.4676205632
 31
0.0
  0
LINE
  5
35E
330
1F
100
AcDbEntity
  8
0
  6
Continuous
 62
     8
370
    18
100
AcDbLine
 10
244.0719376787
 20
309.2275990978
 30
0.0
 11
244.0719376787
 21
306.4676205632
 31
0.0
  0
LINE
  5
35F
330
1F
100
AcDbEntity
  8
0
  6
Continuous
 62
     8
370
    18
100
AcDbLine
 10
236.0719376787
 20
306.4676205632
 30
0.0
 11
244.0719376787
 21
306.4676205632
 31
0.0
  0
LINE
  5
360
330
1F
100
AcDbEntity
  8
0
  6
Continuous
 62
     8
370
    18
100
AcDbLine
 10
244.0719376787
 20
305.9706522346
 30
0.0
 11
273.1377432663
 21
305.9706522346
 31
0.0
  0
LINE
  5
361
330
1F
100
AcDbEntity
  8
0
  6
Continuous
 62
     8
370
    18
100
AcDbLine
 10
244.0719376787
 20
306.4676205632
 30
0.0
 11
244.0719376787
 21
305.9706522346
 31
0.0
  0
LINE
  5
362
330
1F
100
AcDbEntity
  8
0
  6
Continuous
 62
     8
370
    18
100
AcDbLine
 10
236.0719376787
 20
305.9706522346
 30
0.0
 11
244.0719376787
 21
305.9706522346
 31
0.0
  0
LINE
  5
363
330
1F
100
AcDbEntity
  8
0
  6
Continuous
 62
     8
370
    18
100
AcDbLine
 10
244.0719376787
 20
305.9706522346
 30
0.0
 11
244.0719376787
 21
294.336223709
 31
0.0
  0
LINE
  5
364
330
1F
100
AcDbEntity
  8
0
  6
Continuous
 62
     8
370
    18
100
AcDbLine
 10
236.0719376787
 20
319.1517996507
 30
0.0
 11
244.0719376787
 21
319.1517996507
 31
0.0
  0
LINE
  5
365
330
1F
100
AcDbEntity
  8
0
  6
Continuous
 62
     8
370
    18
100
AcDbLine
 10
244.0719376787
 20
319.1517996507
 30
0.0
 11
244.0719376787
 21
318.4435127277
 31
0.0
  0
LINE
  5
366
330
1F
100
AcDbEntity
  8
0
  6
Continuous
 62
     8
370
    18
100
AcDbLine
 10
244.0719376787
 20
319.1517996507
 30
0.0
 11
271.0752332544
 21
319.1517996507
 31
0.0
  0
LINE
  5
367
330
1F
100
AcDbEntity
  8
0
  6
Continuous
 62
     8
370
    18
100
AcDbLine
 10
244.0719376787
 20
326.4304538764
 30
0.0
 11
244.0719376787
 21
319.1517996507
 31
0.0
  0
LINE
  5
368
330
1F
100
AcDbEntity
  8
0
  6
Continuous
 62
     8
370
    18
100
AcDbLine
 10
254.5100976266
 20
326.4304538764
 30
0.0
 11
244.0719376787
 21
326.4304538764
 31
0.0
  0
LINE
  5
369
330
1F
100
AcDbEntity
  8
0
  6
Continuous
 62
     8
370
    18
100
AcDbLine
 10
244.0719376787
 20
326.4304538764
 30
0.0
 11
236.0719376787
 21
326.4304538764
 31
0.0
  0
LINE
  5
36A
330
1F
100
AcDbEntity
  8
0
  6
Continuous
 62
     8
370
    18
100
AcDbLine
 10
244.0719376787
 20
294.336223709
 30
0.0
 11
244.0719376787
 21
291.2839336791
 31
0.0
  0
LINE
  5
36B
330
1F
100
AcDbEntity
  8
0
  6
Continuous
 62
     8
370
    18
100
AcDbLine
 10
244.0719376787
 20
326.4304538764
 30
0.0
 11
244.0719376787
 21
326.9258809712
 31
0.0
  0
LINE
  5
36C
330
1F
100
AcDbEntity
  8
0
  6
Continuous
 62
     8
370
    18
100
AcDbLine
 10
244.0719376787
 20
326.9258809712
 30
0.0
 11
254.0775660914
 21
326.9258809712
 31
0.0
  0
LINE
  5
36D
330
1F
100
AcDbEntity
  8
0
  6
Continuous
 62
     8
370
    18
100
AcDbLine
 10
236.0719376787
 20
326.9258809712
 30
0.0
 11
244.0719376787
 21
326.9258809712
 31
0.0
  0
LINE
  5
36E
330
1F
100
AcDbEntity
  8
0
  6
Continuous
 62
     8
370
    18
100
AcDbLine
 10
244.0719376787
 20
328.5283988163
 30
0.0
 11
236.0719376787
 21
328.5283988163
 31
0.0
  0
LINE
  5
36F
330
1F
100
AcDbEntity
  8
0
  6
Continuous
 62
     8
370
    18
100
AcDbLine
 10
244.0719376787
 20
328.5283988163
 30
0.0
 11
244.0719376787
 21
326.9258809712
 31
0.0
  0
LINE
  5
370
330
1F
100
AcDbEntity
  8
0
  6
Continuous
 62
     8
370
    18
100
AcDbLine
 10
254.0775660914
 20
328.5283988163
 30
0.0
 11
244.0719376787
 21
328.5283988163
 31
0.0
  0
LINE
  5
371
330
1F
100
AcDbEntity
  8
0
  6
Continuous
 62
     8
370
    18
100
AcDbLine
 10
244.0719376787
 20
328.5283988163
 30
0.0
 11
244.0719376787
 21
329.0214054649
 31
0.0
  0
LINE
  5
372
330
1F
100
AcDbEntity
  8
0
  6
Continuous
 62
     8
370
    18
100
AcDbLine
 10
244.0719376787
 20
329.0214054649
 30
0.0
 11
253.6608994247
 21
329.0214054649
 31
0.0
  0
LINE
  5
373
330
1F
100
AcDbEntity
  8
0
  6
Continuous
 62
     8
370
    18
100
AcDbLine
 10
236.0719376787
 20
329.0214054649
 30
0.0
 11
244.0719376787
 21
329.0214054649
 31
0.0
  0
LINE
  5
374
330
1F
100
AcDbEntity
  8
0
  6
Continuous
 62
     8
370
    18
100
AcDbLine
 10
244.0719376787
 20
331.2591659806
 30
0.0
 11
251.5879181027
 21
331.2591659806
 31
0.0
  0
LINE
  5
375
330
1F
100
AcDbEntity
  8
0
  6
Continuous
 62
     8
370
    18
100
AcDbLine
 10
244.0719376787
 20
331.2591659806
 30
0.0
 11
244.0719376787
 21
329.0214054649
 31
0.0
  0
LINE
  5
376
330
1F
100
AcDbEntity
  8
0
  6
Continuous
 62
     8
370
    18
100
AcDbLine
 10
236.0719376787
 20
331.2591659806
 30
0.0
 11
244.0719376787
 21
331.2591659806
 31
0.0
  0
LINE
  5
377
330
1F
100
AcDbEntity
  8
0
  6
Continuous
 62
     8
370
    18
100
AcDbLine
 10
244.0719376787
 20
333.9864387079
 30
0.0
 11
244.0719376787
 21
331.2591659806
 31
0.0
  0
ENDSEC
  0
SECTION
  2
OBJECTS
  0
DICTIONARY
  5
C
330
0
100
AcDbDictionary
281
     1
  3
ACAD_DETAILVIEWSTYLE
350
37F
  3
ACAD_GROUP
350
D
  3
ACAD_LAYOUT
350
1A
  3
ACAD_MATERIAL
350
43
  3
ACAD_MLEADERSTYLE
350
6B
  3
ACAD_MLINESTYLE
350
17
  3
ACAD_PLOTSETTINGS
350
19
  3
ACAD_PLOTSTYLENAME
350
E
  3
ACAD_SCALELIST
350
47
  3
ACAD_SECTIONVIEWSTYLE
350
380
  3
ACAD_TABLESTYLE
350
69
  3
ACAD_VISUALSTYLE
350
2A
  3
ACDB_RECOMPOSE_DATA
350
37C
  3
AcDbVariableDictionary
350
378
  0
SUN
  5
6D
330
29
100
AcDbSun
 90
        1
290
     0
 63
     7
421
 16777215
 40
1.0
291
     1
 91
  2455826
 92
 54000000
292
     0
 70
     2
 71
   256
280
     1
  0
DICTIONARY
  5
37F
102
{ACAD_REACTORS
330
C
102
}
330
C
100
AcDbDictionary
281
     1
  0
DICTIONARY
  5
D
102
{ACAD_REACTORS
330
C
102
}
330
C
100
AcDbDictionary
281
     1
  0
DICTIONARY
  5
1A
102
{ACAD_REACTORS
330
C
102
}
330
C
100
AcDbDictionary
281
     1
  3
Layout1
350
1E
  3
Layout2
350
26
  3
Model
350
22
  0
DICTIONARY
  5
43
102
{ACAD_REACTORS
330
C
102
}
330
C
100
AcDbDictionary
281
     1
  3
ByBlock
350
45
  3
ByLayer
350
44
  3
Global
350
46
  0
DICTIONARY
  5
6B
102
{ACAD_REACTORS
330
C
102
}
330
C
100
AcDbDictionary
281
     1
  3
Standard
350
6C
  0
DICTIONARY
  5
17
102
{ACAD_REACTORS
330
C
102
}
330
C
100
AcDbDictionary
281
     1
  3
Standard
350
18
  0
DICTIONARY
  5
19
102
{ACAD_REACTORS
330
C
102
}
330
C
100
AcDbDictionary
281
     1
  0
ACDBDICTIONARYWDFLT
  5
E
102
{ACAD_REACTORS
330
C
102
}
330
C
100
AcDbDictionary
281
     1
  3
Normal
350
F
100
AcDbDictionaryWithDefault
340
F
  0
DICTIONARY
  5
47
102
{ACAD_REACTORS
330
C
102
}
330
C
100
AcDbDictionary
281
     1
  3
A0
350
48
  3
A1
350
49
  3
A2
350
4A
  3
A3
350
4B
  3
A4
350
4C
  3
A5
350
4D
  3
A6
350
4E
  3
A7
350
4F
  3
A8
350
50
  3
A9
350
51
  3
B0
350
52
  3
B1
350
53
  3
B2
350
54
  3
B3
350
55
  3
B4
350
56
  3
B5
350
57
  3
B6
350
58
  3
B7
350
59
  3
B8
350
5A
  3
B9
350
5B
  3
C0
350
5C
  3
C1
350
5D
  3
C2
350
5E
  3
C3
350
5F
  3
C4
350
60
  3
C5
350
61
  3
C6
350
62
  3
C7
350
63
  3
C8
350
64
  3
C9
350
65
  3
D0
350
66
  3
D1
350
67
  3
D2
350
68
  0
DICTIONARY
  5
380
102
{ACAD_REACTORS
330
C
102
}
330
C
100
AcDbDictionary
281
     1
  0
DICTIONARY
  5
69
102
{ACAD_REACTORS
330
C
102
}
330
C
100
AcDbDictionary
281
     1
  3
Standard
350
6A
  0
DICTIONARY
  5
2A
102
{ACAD_REACTORS
330
C
102
}
330
C
100
AcDbDictionary
281
     1
  3
2dWireframe
350
2F
  3
Basic
350
32
  3
Brighten
350
36
  3
ColorChange
350
3A
  3
Conceptual
350
34
  3
Dim
350
35
  3
EdgeColorOff
350
3D
  3
Facepattern
350
39
  3
Flat
350
2B
  3
FlatWithEdges
350
2C
  3
Gouraud
350
2D
  3
GouraudWithEdges
350
2E
  3
Hidden
350
31
  3
JitterOff
350
3B
  3
Linepattern
350
38
  3
OverhangOff
350
3C
  3
Realistic
350
33
  3
Shaded
350
42
  3
Shaded with edges
350
41
  3
Shades of Gray
350
3E
  3
Sketchy
350
3F
  3
Thicken
350
37
  3
Wireframe
350
30
  3
X-Ray
350
40
  0
XRECORD
  5
37C
102
{ACAD_REACTORS
330
C
102
}
330
C
100
AcDbXrecord
280
     1
 90
        1
330
6A
  0
DICTIONARY
  5
378
102
{ACAD_REACTORS
330
C
102
}
330
C
100
AcDbDictionary
281
     1
  3
CANNOSCALE
350
379
  3
CENTEREXE
350
381
  3
CENTERLTYPEFILE
350
382
  3
CMLEADERSTYLE
350
37E
  3
CTABLESTYLE
350
37D
  0
LAYOUT
  5
1E
102
{ACAD_REACTORS
330
1A
102
}
330
1A
100
AcDbPlotSettings
  1

  2
none_device
  4

  6

 40
0.0
 41
0.0
 42
0.0
 43
0.0
 44
0.0
 45
0.0
 46
0.0
 47
0.0
 48
0.0
 49
0.0
140
0.0
141
0.0
142
1.0
143
1.0
 70
   688
 72
     1
 73
     0
 74
     5
  7

 75
    16
 76
     0
 77
     2
 78
   300
147
1.0
148
0.0
149
0.0
100
AcDbLayout
  1
Layout1
 70
     1
 71
     1
 10
0.0
 20
0.0
 11
420.0
 21
297.0
 12
0.0
 22
0.0
 32
0.0
 14
1.0000000000E+20
 24
1.0000000000E+20
 34
1.0000000000E+20
 15
-1.0000000000E+20
 25
-1.0000000000E+20
 35
-1.0000000000E+20
146
0.0
 13
0.0
 23
0.0
 33
0.0
 16
1.0
 26
0.0
 36
0.0
 17
0.0
 27
1.0
 37
0.0
 76
     0
330
1B
  0
LAYOUT
  5
26
102
{ACAD_REACTORS
330
1A
102
}
330
1A
100
AcDbPlotSettings
  1

  2
none_device
  4

  6

 40
0.0
 41
0.0
 42
0.0
 43
0.0
 44
0.0
 45
0.0
 46
0.0
 47
0.0
 48
0.0
 49
0.0
140
0.0
141
0.0
142
1.0
143
1.0
 70
   688
 72
     1
 73
     0
 74
     5
  7

 75
    16
 76
     0
 77
     2
 78
   300
147
1.0
148
0.0
149
0.0
100
AcDbLayout
  1
Layout2
 70
     1
 71
     2
 10
0.0
 20
0.0
 11
0.0
 21
0.0
 12
0.0
 22
0.0
 32
0.0
 14
0.0
 24
0.0
 34
0.0
 15
0.0
 25
0.0
 35
0.0
146
0.0
 13
0.0
 23
0.0
 33
0.0
 16
1.0
 26
0.0
 36
0.0
 17
0.0
 27
1.0
 37
0.0
 76
     0
330
23
  0
LAYOUT
  5
22
102
{ACAD_REACTORS
330
1A
102
}
330
1A
100
AcDbPlotSettings
  1

  2
none_device
  4
Letter_(8.50_x_11.00_Inches)
  6

 40
6.35
 41
6.35
 42
6.35000508
 43
6.35000508
 44
215.9
 45
279.4
 46
0.0
 47
0.0
 48
0.0
 49
0.0
140
0.0
141
0.0
142
1.0
143
1.0
 70
  1712
 72
     1
 73
     0
 74
     0
  7

 75
     0
 76
     0
 77
     2
 78
   300
147
1.0
148
0.0
149
0.0
100
AcDbLayout
  1
Model
 70
     1
 71
     0
 10
0.0
 20
0.0
 11
420.0
 21
297.0
 12
0.0
 22
0.0
 32
0.0
 14
0.0
 24
0.0
 34
0.0
 15
420.0
 25
297.0
 35
0.0
146
0.0
 13
0.0
 23
0.0
 33
0.0
 16
1.0
 26
0.0
 36
0.0
 17
0.0
 27
1.0
 37
0.0
 76
     0
330
1F
331
29
  0
MATERIAL
  5
45
102
{ACAD_REACTORS
330
43
102
}
330
43
100
AcDbMaterial
  1
ByBlock
 72
     1
 94
      127
  0
MATERIAL
  5
44
102
{ACAD_REACTORS
330
43
102
}
330
43
100
AcDbMaterial
  1
ByLayer
 72
     1
 94
      127
  0
MATERIAL
  5
46
102
{ACAD_REACTORS
330
43
102
}
330
43
100
AcDbMaterial
  1
Global
 72
     1
 94
      127
  0
MLEADERSTYLE
  5
6C
102
{ACAD_REACTORS
330
6B
102
}
330
6B
100
AcDbMLeaderStyle
179
     2
170
     2
171
     1
172
     0
 90
        2
 40
0.0
 41
0.0
173
     1
 91
-1056964608
340
14
 92
       -2
290
     1
 42
2.0
291
     1
 43
8.0
  3
Standard
341
0
 44
4.0
300

342
11
174
     1
178
     6
175
     1
176
     0
 93
-1056964608
 45
4.0
292
     0
297
     0
 46
4.0
343
0
 94
-1056964608
 47
1.0
 49
1.0
140
1.0
293
     1
141
0.0
294
     1
177
     0
142
1.0
295
     0
296
     0
143
3.75
271
     0
272
     9
273
     9
  0
MLINESTYLE
  5
18
102
{ACAD_REACTORS
330
17
102
}
330
17
100
AcDbMlineStyle
  2
Standard
 70
     0
  3

 62
   256
 51
90.0
 52
90.0
 71
     2
 49
0.5
 62
   256
  6
BYLAYER
 49
-0.5
 62
   256
  6
BYLAYER
  0
ACDBPLACEHOLDER
  5
F
102
{ACAD_REACTORS
330
E
102
}
330
E
  0
SCALE
  5
48
102
{ACAD_REACTORS
330
47
102
}
330
47
100
AcDbScale
 70
     0
300
1:1
140
1.0
141
1.0
290
     1
  0
SCALE
  5
49
102
{ACAD_REACTORS
330
47
102
}
330
47
100
AcDbScale
 70
     0
300
1:2
140
1.0
141
2.0
290
     0
  0
SCALE
  5
4A
102
{ACAD_REACTORS
330
47
102
}
330
47
100
AcDbScale
 70
     0
300
1:4
140
1.0
141
4.0
290
     0
  0
SCALE
  5
4B
102
{ACAD_REACTORS
330
47
102
}
330
47
100
AcDbScale
 70
     0
300
1:5
140
1.0
141
5.0
290
     0
  0
SCALE
  5
4C
102
{ACAD_REACTORS
330
47
102
}
330
47
100
AcDbScale
 70
     0
300
1:8
140
1.0
141
8.0
290
     0
  0
SCALE
  5
4D
102
{ACAD_REACTORS
330
47
102
}
330
47
100
AcDbScale
 70
     0
300
1:10
140
1.0
141
10.0
290
     0
  0
SCALE
  5
4E
102
{ACAD_REACTORS
330
47
102
}
330
47
100
AcDbScale
 70
     0
300
1:16
140
1.0
141
16.0
290
     0
  0
SCALE
  5
4F
102
{ACAD_REACTORS
330
47
102
}
330
47
100
AcDbScale
 70
     0
300
1:20
140
1.0
141
20.0
290
     0
  0
SCALE
  5
50
102
{ACAD_REACTORS
330
47
102
}
330
47
100
AcDbScale
 70
     0
300
1:30
140
1.0
141
30.0
290
     0
  0
SCALE
  5
51
102
{ACAD_REACTORS
330
47
102
}
330
47
100
AcDbScale
 70
     0
300
1:40
140
1.0
141
40.0
290
     0
  0
SCALE
  5
52
102
{ACAD_REACTORS
330
47
102
}
330
47
100
AcDbScale
 70
     0
300
1:50
140
1.0
141
50.0
290
     0
  0
SCALE
  5
53
102
{ACAD_REACTORS
330
47
102
}
330
47
100
AcDbScale
 70
     0
300
1:100
140
1.0
141
100.0
290
     0
  0
SCALE
  5
54
102
{ACAD_REACTORS
330
47
102
}
330
47
100
AcDbScale
 70
     0
300
2:1
140
2.0
141
1.0
290
     0
  0
SCALE
  5
55
102
{ACAD_REACTORS
330
47
102
}
330
47
100
AcDbScale
 70
     0
300
4:1
140
4.0
141
1.0
290
     0
  0
SCALE
  5
56
102
{ACAD_REACTORS
330
47
102
}
330
47
100
AcDbScale
 70
     0
300
8:1
140
8.0
141
1.0
290
     0
  0
SCALE
  5
57
102
{ACAD_REACTORS
330
47
102
}
330
47
100
AcDbScale
 70
     0
300
10:1
140
10.0
141
1.0
290
     0
  0
SCALE
  5
58
102
{ACAD_REACTORS
330
47
102
}
330
47
100
AcDbScale
 70
     0
300
100:1
140
100.0
141
1.0
290
     0
  0
SCALE
  5
59
102
{ACAD_REACTORS
330
47
102
}
330
47
100
AcDbScale
 70
     0
300
1/128" = 1'-0"
140
0.0078125
141
12.0
290
     0
  0
SCALE
  5
5A
102
{ACAD_REACTORS
330
47
102
}
330
47
100
AcDbScale
 70
     0
300
1/64" = 1'-0"
140
0.015625
141
12.0
290
     0
  0
SCALE
  5
5B
102
{ACAD_REACTORS
330
47
102
}
330
47
100
AcDbScale
 70
     0
300
1/32" = 1'-0"
140
0.03125
141
12.0
290
     0
  0
SCALE
  5
5C
102
{ACAD_REACTORS
330
47
102
}
330
47
100
AcDbScale
 70
     0
300
1/16" = 1'-0"
140
0.0625
141
12.0
290
     0
  0
SCALE
  5
5D
102
{ACAD_REACTORS
330
47
102
}
330
47
100
AcDbScale
 70
     0
300
3/32" = 1'-0"
140
0.09375
141
12.0
290
     0
  0
SCALE
  5
5E
102
{ACAD_REACTORS
330
47
102
}
330
47
100
AcDbScale
 70
     0
300
1/8" = 1'-0"
140
0.125
141
12.0
290
     0
  0
SCALE
  5
5F
102
{ACAD_REACTORS
330
47
102
}
330
47
100
AcDbScale
 70
     0
300
3/16" = 1'-0"
140
0.1875
141
12.0
290
     0
  0
SCALE
  5
60
102
{ACAD_REACTORS
330
47
102
}
330
47
100
AcDbScale
 70
     0
300
1/4" = 1'-0"
140
0.25
141
12.0
290
     0
  0
SCALE
  5
61
102
{ACAD_REACTORS
330
47
102
}
330
47
100
AcDbScale
 70
     0
300
3/8" = 1'-0"
140
0.375
141
12.0
290
     0
  0
SCALE
  5
62
102
{ACAD_REACTORS
330
47
102
}
330
47
100
AcDbScale
 70
     0
300
1/2" = 1'-0"
140
0.5
141
12.0
290
     0
  0
SCALE
  5
63
102
{ACAD_REACTORS
330
47
102
}
330
47
100
AcDbScale
 70
     0
300
3/4" = 1'-0"
140
0.75
141
12.0
290
     0
  0
SCALE
  5
64
102
{ACAD_REACTORS
330
47
102
}
330
47
100
AcDbScale
 70
     0
300
1" = 1'-0"
140
1.0
141
12.0
290
     0
  0
SCALE
  5
65
102
{ACAD_REACTORS
330
47
102
}
330
47
100
AcDbScale
 70
     0
300
1-1/2" = 1'-0"
140
1.5
141
12.0
290
     0
  0
SCALE
  5
66
102
{ACAD_REACTORS
330
47
102
}
330
47
100
AcDbScale
 70
     0
300
3" = 1'-0"
140
3.0
141
12.0
290
     0
  0
SCALE
  5
67
102
{ACAD_REACTORS
330
47
102
}
330
47
100
AcDbScale
 70
     0
300
6" = 1'-0"
140
6.0
141
12.0
290
     0
  0
SCALE
  5
68
102
{ACAD_REACTORS
330
47
102
}
330
47
100
AcDbScale
 70
     0
300
1'-0" = 1'-0"
140
12.0
141
12.0
290
     0
  0
TABLESTYLE
  5
6A
102
{ACAD_REACTORS
330
69
102
}
102
{ACAD_XDICTIONARY
360
37A
102
}
330
69
100
AcDbTableStyle
  3
Standard
 70
     0
 71
     0
 40
0.06
 41
0.06
280
     0
281
     0
  7
Standard
140
4.5
170
     2
 62
     0
 63
   257
283
     0
 90
        4
 91
        0
  1

274
    -2
284
     1
 64
     0
275
    -2
285
     1
 65
     0
276
    -2
286
     1
 66
     0
277
    -2
287
     1
 67
     0
278
    -2
288
     1
 68
     0
279
    -2
289
     1
 69
     0
  7
Standard
140
6.0
170
     5
 62
     0
 63
   257
283
     0
 90
        4
 91
        0
  1

274
    -2
284
     1
 64
     0
275
    -2
285
     1
 65
     0
276
    -2
286
     1
 66
     0
277
    -2
287
     1
 67
     0
278
    -2
288
     1
 68
     0
279
    -2
289
     1
 69
     0
  7
Standard
140
4.5
170
     5
 62
     0
 63
   257
283
     0
 90
        4
 91
        0
  1

274
    -2
284
     1
 64
     0
275
    -2
285
     1
 65
     0
276
    -2
286
     1
 66
     0
277
    -2
287
     1
 67
     0
278
    -2
288
     1
 68
     0
279
    -2
289
     1
 69
     0
  0
VISUALSTYLE
  5
2F
102
{ACAD_REACTORS
330
2A
102
}
330
2A
100
AcDbVisualStyle
  2
2dWireframe
 70
     4
177
     2
291
     0
 71
     0
176
     1
 72
     2
176
     1
 73
     0
176
     1
 90
        0
176
     1
 40
0.6
176
     1
 41
30.0
176
     1
 62
     5
 63
     7
421
 16777215
176
     1
 74
     1
176
     1
 91
        4
176
     1
 64
     7
176
     1
 65
   257
176
     1
 75
     1
176
     1
175
     1
176
     1
 42
1.0
176
     1
 92
        0
176
     1
 66
   257
176
     1
 43
1.0
176
     1
 76
     1
176
     1
 77
     6
176
     1
 78
     2
176
     1
 67
     7
176
     1
 79
     5
176
     1
170
     0
176
     1
171
     0
176
     1
290
     0
176
     1
 93
        1
176
     1
 44
0.0
176
     1
173
     0
176
     1
  0
VISUALSTYLE
  5
32
102
{ACAD_REACTORS
330
2A
102
}
330
2A
100
AcDbVisualStyle
  2
Basic
 70
     7
177
     2
291
     1
 71
     1
176
     1
 72
     0
176
     1
 73
     1
176
     1
 90
        0
176
     1
 40
0.6
176
     1
 41
30.0
176
     1
 62
     5
 63
     7
421
 16777215
176
     1
 74
     0
176
     1
 91
        4
176
     1
 64
     7
176
     1
 65
   257
176
     1
 75
     1
176
     1
175
     1
176
     1
 42
1.0
176
     1
 92
        8
176
     1
 66
     7
176
     1
 43
1.0
176
     1
 76
     1
176
     1
 77
     6
176
     1
 78
     2
176
     1
 67
     7
176
     1
 79
     5
176
     1
170
     0
176
     1
171
     0
176
     1
290
     0
176
     1
 93
        1
176
     1
 44
0.0
176
     1
173
     0
176
     1
  0
VISUALSTYLE
  5
36
102
{ACAD_REACTORS
330
2A
102
}
330
2A
100
AcDbVisualStyle
  2
Brighten
 70
    12
177
     2
291
     1
 71
     2
176
     1
 72
     2
176
     1
 73
     0
176
     1
 90
        0
176
     1
 40
0.6
176
     1
 41
30.0
176
     1
 62
     5
 63
     7
421
 16777215
176
     1
 74
     1
176
     1
 91
        4
176
     1
 64
     7
176
     1
 65
   257
176
     1
 75
     1
176
     1
175
     1
176
     1
 42
1.0
176
     1
 92
        8
176
     1
 66
     7
176
     1
 43
1.0
176
     1
 76
     1
176
     1
 77
     6
176
     1
 78
     2
176
     1
 67
     7
176
     1
 79
     5
176
     1
170
     0
176
     1
171
     0
176
     1
290
     0
176
     1
 93
        1
176
     1
 44
50.0
176
     1
173
     0
176
     1
  0
VISUALSTYLE
  5
3A
102
{ACAD_REACTORS
330
2A
102
}
330
2A
100
AcDbVisualStyle
  2
ColorChange
 70
    16
177
     2
291
     1
 71
     2
176
     1
 72
     2
176
     1
 73
     3
176
     1
 90
        0
176
     1
 40
0.6
176
     1
 41
30.0
176
     1
 62
     5
 63
     8
421
  8421504
176
     1
 74
     1
176
     1
 91
        4
176
     1
 64
     7
176
     1
 65
   257
176
     1
 75
     1
176
     1
175
     1
176
     1
 42
1.0
176
     1
 92
        8
176
     1
 66
     8
424
  8421504
176
     1
 43
1.0
176
     1
 76
     1
176
     1
 77
     6
176
     1
 78
     2
176
     1
 67
     7
176
     1
 79
     5
176
     1
170
     0
176
     1
171
     0
176
     1
290
     0
176
     1
 93
        1
176
     1
 44
0.0
176
     1
173
     0
176
     1
  0
VISUALSTYLE
  5
34
102
{ACAD_REACTORS
330
2A
102
}
330
2A
100
AcDbVisualStyle
  2
Conceptual
 70
     9
177
     2
291
     0
 71
     3
176
     1
 72
     2
176
     1
 73
     0
176
     1
 90
        0
176
     1
 40
0.6
176
     1
 41
30.0
176
     1
 62
     5
 63
     7
421
 16777215
176
     1
 74
     2
176
     1
 91
        2
176
     1
 64
     7
176
     1
 65
   257
176
     1
 75
     1
176
     1
175
     1
176
     1
 42
179.0
176
     1
 92
        8
176
     1
 66
     7
176
     1
 43
1.0
176
     1
 76
     1
176
     1
 77
     6
176
     1
 78
     2
176
     1
 67
     7
176
     1
 79
     3
176
     1
170
     0
176
     1
171
     0
176
     1
290
     0
176
     1
 93
        1
176
     1
 44
0.0
176
     1
173
     0
176
     1
  0
VISUALSTYLE
  5
35
102
{ACAD_REACTORS
330
2A
102
}
330
2A
100
AcDbVisualStyle
  2
Dim
 70
    11
177
     2
291
     1
 71
     2
176
     1
 72
     2
176
     1
 73
     0
176
     1
 90
        0
176
     1
 40
0.6
176
     1
 41
30.0
176
     1
 62
     5
 63
     7
421
 16777215
176
     1
 74
     1
176
     1
 91
        4
176
     1
 64
     7
176
     1
 65
   257
176
     1
 75
     1
176
     1
175
     1
176
     1
 42
1.0
176
     1
 92
        8
176
     1
 66
     7
176
     1
 43
1.0
176
     1
 76
     1
176
     1
 77
     6
176
     1
 78
     2
176
     1
 67
     7
176
     1
 79
     5
176
     1
170
     0
176
     1
171
     0
176
     1
290
     0
176
     1
 93
        1
176
     1
 44
-50.0
176
     1
173
     0
176
     1
  0
VISUALSTYLE
  5
3D
102
{ACAD_REACTORS
330
2A
102
}
330
2A
100
AcDbVisualStyle
  2
EdgeColorOff
 70
    22
177
     2
291
     1
 71
     2
176
     0
 72
     2
176
     0
 73
     0
176
     0
 90
        0
176
     0
 40
0.6
176
     0
 41
30.0
176
     0
 62
     5
 63
     7
421
 16777215
176
     0
 74
     1
176
     0
 91
        4
176
     0
 64
     7
176
     0
 65
   257
176
     0
 75
     1
176
     0
175
     1
176
     0
 42
1.0
176
     0
 92
        8
176
     2
 66
     7
176
     0
 43
1.0
176
     0
 76
     1
176
     0
 77
     6
176
     0
 78
     2
176
     0
 67
     7
176
     0
 79
     5
176
     0
170
     0
176
     0
171
     0
176
     0
290
     0
176
     0
 93
        1
176
     0
 44
0.0
176
     0
173
     0
176
     0
  0
VISUALSTYLE
  5
39
102
{ACAD_REACTORS
330
2A
102
}
330
2A
100
AcDbVisualStyle
  2
Facepattern
 70
    15
177
     2
291
     1
 71
     2
176
     1
 72
     2
176
     1
 73
     0
176
     1
 90
        0
176
     1
 40
0.6
176
     1
 41
30.0
176
     1
 62
     5
 63
     7
421
 16777215
176
     1
 74
     1
176
     1
 91
        4
176
     1
 64
     7
176
     1
 65
   257
176
     1
 75
     1
176
     1
175
     1
176
     1
 42
1.0
176
     1
 92
        8
176
     1
 66
     7
176
     1
 43
1.0
176
     1
 76
     1
176
     1
 77
     6
176
     1
 78
     2
176
     1
 67
     7
176
     1
 79
     5
176
     1
170
     0
176
     1
171
     0
176
     1
290
     0
176
     1
 93
        1
176
     1
 44
0.0
176
     1
173
     0
176
     1
  0
VISUALSTYLE
  5
2B
102
{ACAD_REACTORS
330
2A
102
}
330
2A
100
AcDbVisualStyle
  2
Flat
 70
     0
177
     2
291
     1
 71
     2
176
     1
 72
     1
176
     1
 73
     1
176
     1
 90
        2
176
     1
 40
0.6
176
     1
 41
30.0
176
     1
 62
     5
 63
     7
421
 16777215
176
     1
 74
     0
176
     1
 91
        0
176
     1
 64
     7
176
     1
 65
   257
176
     1
 75
     1
176
     1
175
     1
176
     1
 42
1.0
176
     1
 92
        8
176
     1
 66
     7
176
     1
 43
1.0
176
     1
 76
     1
176
     1
 77
     6
176
     1
 78
     2
176
     1
 67
     7
176
     1
 79
     5
176
     1
170
     0
176
     1
171
     0
176
     1
290
     0
176
     1
 93
       13
176
     1
 44
0.0
176
     1
173
     0
176
     1
  0
VISUALSTYLE
  5
2C
102
{ACAD_REACTORS
330
2A
102
}
330
2A
100
AcDbVisualStyle
  2
FlatWithEdges
 70
     1
177
     2
291
     1
 71
     2
176
     1
 72
     1
176
     1
 73
     1
176
     1
 90
        2
176
     1
 40
0.6
176
     1
 41
30.0
176
     1
 62
     5
 63
     7
421
 16777215
176
     1
 74
     1
176
     1
 91
        0
176
     1
 64
     7
176
     1
 65
   257
176
     1
 75
     1
176
     1
175
     1
176
     1
 42
1.0
176
     1
 92
        0
176
     1
 66
   257
176
     1
 43
1.0
176
     1
 76
     1
176
     1
 77
     6
176
     1
 78
     2
176
     1
 67
     7
176
     1
 79
     5
176
     1
170
     0
176
     1
171
     0
176
     1
290
     0
176
     1
 93
       13
176
     1
 44
0.0
176
     1
173
     0
176
     1
  0
VISUALSTYLE
  5
2D
102
{ACAD_REACTORS
330
2A
102
}
330
2A
100
AcDbVisualStyle
  2
Gouraud
 70
     2
177
     2
291
     1
 71
     2
176
     1
 72
     2
176
     1
 73
     1
176
     1
 90
        2
176
     1
 40
0.6
176
     1
 41
30.0
176
     1
 62
     5
 63
     7
421
 16777215
176
     1
 74
     0
176
     1
 91
        0
176
     1
 64
     7
176
     1
 65
   257
176
     1
 75
     1
176
     1
175
     1
176
     1
 42
1.0
176
     1
 92
        0
176
     1
 66
     7
176
     1
 43
1.0
176
     1
 76
     1
176
     1
 77
     6
176
     1
 78
     2
176
     1
 67
     7
176
     1
 79
     5
176
     1
170
     0
176
     1
171
     0
176
     1
290
     0
176
     1
 93
       13
176
     1
 44
0.0
176
     1
173
     0
176
     1
  0
VISUALSTYLE
  5
2E
102
{ACAD_REACTORS
330
2A
102
}
330
2A
100
AcDbVisualStyle
  2
GouraudWithEdges
 70
     3
177
     2
291
     1
 71
     2
176
     1
 72
     2
176
     1
 73
     1
176
     1
 90
        2
176
     1
 40
0.6
176
     1
 41
30.0
176
     1
 62
     5
 63
     7
421
 16777215
176
     1
 74
     1
176
     1
 91
        0
176
     1
 64
     7
176
     1
 65
   257
176
     1
 75
     1
176
     1
175
     1
176
     1
 42
1.0
176
     1
 92
        0
176
     1
 66
   257
176
     1
 43
1.0
176
     1
 76
     1
176
     1
 77
     6
176
     1
 78
     2
176
     1
 67
     7
176
     1
 79
     5
176
     1
170
     0
176
     1
171
     0
176
     1
290
     0
176
     1
 93
       13
176
     1
 44
0.0
176
     1
173
     0
176
     1
  0
VISUALSTYLE
  5
31
102
{ACAD_REACTORS
330
2A
102
}
330
2A
100
AcDbVisualStyle
  2
Hidden
 70
     6
177
     2
291
     0
 71
     1
176
     1
 72
     2
176
     1
 73
     2
176
     1
 90
        0
176
     1
 40
0.6
176
     1
 41
30.0
176
     1
 62
     5
 63
     7
421
 16777215
176
     1
 74
     2
176
     1
 91
        2
176
     1
 64
     7
176
     1
 65
   257
176
     1
 75
     2
176
     1
175
     1
176
     1
 42
40.0
176
     1
 92
        0
176
     1
 66
   257
176
     1
 43
1.0
176
     1
 76
     1
176
     1
 77
     6
176
     1
 78
     2
176
     1
 67
     7
176
     1
 79
     3
176
     1
170
     0
176
     1
171
     0
176
     1
290
     0
176
     1
 93
        1
176
     1
 44
0.0
176
     1
173
     0
176
     1
  0
VISUALSTYLE
  5
3B
102
{ACAD_REACTORS
330
2A
102
}
330
2A
100
AcDbVisualStyle
  2
JitterOff
 70
    20
177
     2
291
     1
 71
     2
176
     0
 72
     2
176
     0
 73
     0
176
     0
 90
        0
176
     0
 40
0.6
176
     0
 41
30.0
176
     0
 62
     5
 63
     7
421
 16777215
176
     0
 74
     1
176
     0
 91
        4
176
     0
 64
     7
176
     0
 65
   257
176
     0
 75
     1
176
     0
175
     1
176
     0
 42
1.0
176
     0
 92
       10
176
     2
 66
     7
176
     0
 43
1.0
176
     0
 76
     1
176
     0
 77
     6
176
     0
 78
     2
176
     0
 67
     7
176
     0
 79
     5
176
     0
170
     0
176
     0
171
     0
176
     0
290
     0
176
     0
 93
        1
176
     0
 44
0.0
176
     0
173
     0
176
     0
  0
VISUALSTYLE
  5
38
102
{ACAD_REACTORS
330
2A
102
}
330
2A
100
AcDbVisualStyle
  2
Linepattern
 70
    14
177
     2
291
     1
 71
     2
176
     1
 72
     2
176
     1
 73
     0
176
     1
 90
        0
176
     1
 40
0.6
176
     1
 41
30.0
176
     1
 62
     5
 63
     7
421
 16777215
176
     1
 74
     1
176
     1
 91
        4
176
     1
 64
     7
176
     1
 65
   257
176
     1
 75
     7
176
     1
175
     7
176
     1
 42
1.0
176
     1
 92
        8
176
     1
 66
     7
176
     1
 43
1.0
176
     1
 76
     1
176
     1
 77
     6
176
     1
 78
     2
176
     1
 67
     7
176
     1
 79
     5
176
     1
170
     0
176
     1
171
     0
176
     1
290
     0
176
     1
 93
        1
176
     1
 44
0.0
176
     1
173
     0
176
     1
  0
VISUALSTYLE
  5
3C
102
{ACAD_REACTORS
330
2A
102
}
330
2A
100
AcDbVisualStyle
  2
OverhangOff
 70
    21
177
     2
291
     1
 71
     2
176
     0
 72
     2
176
     0
 73
     0
176
     0
 90
        0
176
     0
 40
0.6
176
     0
 41
30.0
176
     0
 62
     5
 63
     7
421
 16777215
176
     0
 74
     1
176
     0
 91
        4
176
     0
 64
     7
176
     0
 65
   257
176
     0
 75
     1
176
     0
175
     1
176
     0
 42
1.0
176
     0
 92
        9
176
     2
 66
     7
176
     0
 43
1.0
176
     0
 76
     1
176
     0
 77
     6
176
     0
 78
     2
176
     0
 67
     7
176
     0
 79
     5
176
     0
170
     0
176
     0
171
     0
176
     0
290
     0
176
     0
 93
        1
176
     0
 44
0.0
176
     0
173
     0
176
     0
  0
VISUALSTYLE
  5
33
102
{ACAD_REACTORS
330
2A
102
}
330
2A
100
AcDbVisualStyle
  2
Realistic
 70
     8
177
     2
291
     0
 71
     2
176
     1
 72
     3
176
     1
 73
     0
176
     1
 90
        2
176
     1
 40
0.6
176
     1
 41
30.0
176
     1
 62
     5
 63
     7
421
 16777215
176
     1
 74
     0
176
     1
 91
        0
176
     1
 64
     7
176
     1
 65
   257
176
     1
 75
     1
176
     1
175
     1
176
     1
 42
1.0
176
     1
 92
        8
176
     1
 66
   257
176
     1
 43
1.0
176
     1
 76
     1
176
     1
 77
     6
176
     1
 78
     2
176
     1
 67
     7
176
     1
 79
     3
176
     1
170
     0
176
     1
171
     0
176
     1
290
     0
176
     1
 93
       13
176
     1
 44
0.0
176
     1
173
     0
176
     1
  0
VISUALSTYLE
  5
42
102
{ACAD_REACTORS
330
2A
102
}
330
2A
100
AcDbVisualStyle
  2
Shaded
 70
    27
177
     2
291
     0
 71
     2
176
     1
 72
     2
176
     1
 73
     1
176
     1
 90
        2
176
     1
 40
0.6
176
     1
 41
30.0
176
     1
 62
     5
 63
     7
421
 16777215
176
     1
 74
     0
176
     1
 91
        4
176
     1
 64
     7
176
     1
 65
   257
176
     1
 75
     1
176
     1
175
     1
176
     1
 42
1.0
176
     1
 92
        8
176
     1
 66
   257
176
     1
 43
1.0
176
     1
 76
     1
176
     1
 77
     6
176
     1
 78
     2
176
     1
 67
     8
425
  7895160
176
     1
 79
     3
176
     1
170
     0
176
     1
171
     0
176
     1
290
     0
176
     1
 93
        5
176
     1
 44
0.0
176
     1
173
     0
176
     1
  0
VISUALSTYLE
  5
41
102
{ACAD_REACTORS
330
2A
102
}
330
2A
100
AcDbVisualStyle
  2
Shaded with edges
 70
    26
177
     2
291
     0
 71
     2
176
     1
 72
     2
176
     1
 73
     1
176
     1
 90
        2
176
     1
 40
0.6
176
     1
 41
30.0
176
     1
 62
     5
 63
     7
421
 16777215
176
     1
 74
     1
176
     1
 91
       10
176
     1
 64
     7
176
     1
 65
   257
176
     1
 75
     2
176
     1
175
     1
176
     1
 42
1.0
176
     1
 92
        8
176
     1
 66
   257
176
     1
 43
1.0
176
     1
 76
     1
176
     1
 77
     6
176
     1
 78
     2
176
     1
 67
     7
176
     1
 79
     3
176
     1
170
     0
176
     1
171
     0
176
     1
290
     0
176
     1
 93
        5
176
     1
 44
0.0
176
     1
173
     0
176
     1
  0
VISUALSTYLE
  5
3E
102
{ACAD_REACTORS
330
2A
102
}
330
2A
100
AcDbVisualStyle
  2
Shades of Gray
 70
    23
177
     2
291
     0
 71
     2
176
     1
 72
     2
176
     1
 73
     3
176
     1
 90
        0
176
     1
 40
0.6
176
     1
 41
30.0
176
     1
 62
     5
 63
     7
421
 16777215
176
     1
 74
     2
176
     1
 91
        2
176
     1
 64
     7
176
     1
 65
     7
176
     1
 75
     1
176
     1
175
     1
176
     1
 42
40.0
176
     1
 92
        8
176
     1
 66
     7
176
     1
 43
1.0
176
     1
 76
     1
176
     1
 77
     6
176
     1
 78
     2
176
     1
 67
     7
176
     1
 79
     3
176
     1
170
     0
176
     1
171
     0
176
     1
290
     0
176
     1
 93
        1
176
     1
 44
0.0
176
     1
173
     0
176
     1
  0
VISUALSTYLE
  5
3F
102
{ACAD_REACTORS
330
2A
102
}
330
2A
100
AcDbVisualStyle
  2
Sketchy
 70
    24
177
     2
291
     0
 71
     1
176
     1
 72
     2
176
     1
 73
     2
176
     1
 90
        0
176
     1
 40
0.6
176
     1
 41
30.0
176
     1
 62
     5
 63
     7
421
 16777215
176
     1
 74
     2
176
     1
 91
        2
176
     1
 64
     7
176
     1
 65
     7
176
     1
 75
     1
176
     1
175
     1
176
     1
 42
40.0
176
     1
 92
       11
176
     1
 66
     7
176
     1
 43
1.0
176
     1
 76
     1
176
     1
 77
     6
176
     1
 78
     2
176
     1
 67
     7
176
     1
 79
     6
176
     1
170
     0
176
     1
171
     0
176
     1
290
     0
176
     1
 93
        1
176
     1
 44
0.0
176
     1
173
     0
176
     1
  0
VISUALSTYLE
  5
37
102
{ACAD_REACTORS
330
2A
102
}
330
2A
100
AcDbVisualStyle
  2
Thicken
 70
    13
177
     2
291
     1
 71
     2
176
     1
 72
     2
176
     1
 73
     0
176
     1
 90
        0
176
     1
 40
0.6
176
     1
 41
30.0
176
     1
 62
     5
 63
     7
421
 16777215
176
     1
 74
     1
176
     1
 91
        4
176
     1
 64
     7
176
     1
 65
   257
176
     1
 75
     1
176
     1
175
     1
176
     1
 42
1.0
176
     1
 92
       12
176
     1
 66
     7
176
     1
 43
1.0
176
     1
 76
     1
176
     1
 77
     6
176
     1
 78
     2
176
     1
 67
     7
176
     1
 79
     5
176
     1
170
     0
176
     1
171
     0
176
     1
290
     0
176
     1
 93
        1
176
     1
 44
0.0
176
     1
173
     0
176
     1
  0
VISUALSTYLE
  5
30
102
{ACAD_REACTORS
330
2A
102
}
330
2A
100
AcDbVisualStyle
  2
Wireframe
 70
     5
177
     2
291
     0
 71
     0
176
     1
 72
     2
176
     1
 73
     0
176
     1
 90
        0
176
     1
 40
0.6
176
     1
 41
30.0
176
     1
 62
     5
 63
     7
421
 16777215
176
     1
 74
     1
176
     1
 91
        4
176
     1
 64
     7
176
     1
 65
   257
176
     1
 75
     1
176
     1
175
     1
176
     1
 42
1.0
176
     1
 92
        0
176
     1
 66
   257
176
     1
 43
1.0
176
     1
 76
     1
176
     1
 77
     6
176
     1
 78
     2
176
     1
 67
     7
176
     1
 79
     3
176
     1
170
     0
176
     1
171
     0
176
     1
290
     0
176
     1
 93
        1
176
     1
 44
0.0
176
     1
173
     0
176
     1
  0
VISUALSTYLE
  5
40
102
{ACAD_REACTORS
330
2A
102
}
330
2A
100
AcDbVisualStyle
  2
X-Ray
 70
    25
177
     2
291
     0
 71
     2
176
     1
 72
     2
176
     1
 73
     1
176
     1
 90
        1
176
     1
 40
0.5
176
     1
 41
30.0
176
     1
 62
     5
 63
     7
421
 16777215
176
     1
 74
     1
176
     1
 91
        0
176
     1
 64
     7
176
     1
 65
   257
176
     1
 75
     1
176
     1
175
     1
176
     1
 42
1.0
176
     1
 92
        8
176
     1
 66
     7
176
     1
 43
1.0
176
     1
 76
     1
176
     1
 77
     6
176
     1
 78
     2
176
     1
 67
     7
176
     1
 79
     3
176
     1
170
     0
176
     1
171
     0
176
     1
290
     0
176
     1
 93
       13
176
     1
 44
0.0
176
     1
173
     0
176
     1
  0
DICTIONARYVAR
  5
379
102
{ACAD_REACTORS
330
378
102
}
330
378
100
DictionaryVariables
280
     0
  1
1:1
  0
DICTIONARYVAR
  5
381
102
{ACAD_REACTORS
330
378
102
}
330
378
100
DictionaryVariables
280
     0
  1
3.500000
  0
DICTIONARYVAR
  5
382
102
{ACAD_REACTORS
330
378
102
}
330
378
100
DictionaryVariables
280
     0
  1
acadiso.lin
  0
DICTIONARYVAR
  5
37E
102
{ACAD_REACTORS
330
378
102
}
330
378
100
DictionaryVariables
280
     0
  1
Standard
  0
DICTIONARYVAR
  5
37D
102
{ACAD_REACTORS
330
378
102
}
330
378
100
DictionaryVariables
280
     0
  1
Standard
  0
DICTIONARY
  5
37A
330
6A
100
AcDbDictionary
280
     1
281
     1
  3
ACAD_ROUNDTRIP_2008_TABLESTYLE_CELLSTYLEMAP
360
37B
  0
CELLSTYLEMAP
  5
37B
102
{ACAD_REACTORS
330
37A
102
}
330
37A
100
AcDbCellStyleMap
 90
        3
300
CELLSTYLE
  1
TABLEFORMAT_BEGIN
 90
        5
170
     1
 91
        0
 92
    32768
 62
   257
 93
        1
300
CONTENTFORMAT
  1
CONTENTFORMAT_BEGIN
 90
        0
 91
        0
 92
        4
 93
        0
300

 40
0.0
140
1.0
 94
        5
 62
     0
340
11
144
6.0
309
CONTENTFORMAT_END
171
     1
301
MARGIN
  1
CELLMARGIN_BEGIN
 40
1.5
 40
1.5
 40
1.5
 40
1.5
 40
1.5
 40
1.5
309
CELLMARGIN_END
 94
        6
 95
        1
302
GRIDFORMAT
  1
GRIDFORMAT_BEGIN
 90
        0
 91
        1
 62
     0
 92
       -2
340
14
 93
        0
 40
0.045
309
GRIDFORMAT_END
 95
        2
302
GRIDFORMAT
  1
GRIDFORMAT_BEGIN
 90
        0
 91
        1
 62
     0
 92
       -2
340
14
 93
        0
 40
0.045
309
GRIDFORMAT_END
 95
        4
302
GRIDFORMAT
  1
GRIDFORMAT_BEGIN
 90
        0
 91
        1
 62
     0
 92
       -2
340
14
 93
        0
 40
0.045
309
GRIDFORMAT_END
 95
        8
302
GRIDFORMAT
  1
GRIDFORMAT_BEGIN
 90
        0
 91
        1
 62
     0
 92
       -2
340
14
 93
        0
 40
0.045
309
GRIDFORMAT_END
 95
       16
302
GRIDFORMAT
  1
GRIDFORMAT_BEGIN
 90
        0
 91
        1
 62
     0
 92
       -2
340
14
 93
        0
 40
0.045
309
GRIDFORMAT_END
 95
       32
302
GRIDFORMAT
  1
GRIDFORMAT_BEGIN
 90
        0
 91
        1
 62
     0
 92
       -2
340
14
 93
        0
 40
0.045
309
GRIDFORMAT_END
309
TABLEFORMAT_END
  1
CELLSTYLE_BEGIN
 90
        1
 91
        1
300
_TITLE
309
CELLSTYLE_END
300
CELLSTYLE
  1
TABLEFORMAT_BEGIN
 90
        5
170
     1
 91
        0
 92
        0
 62
   257
 93
        1
300
CONTENTFORMAT
  1
CONTENTFORMAT_BEGIN
 90
        0
 91
        0
 92
        4
 93
        0
300

 40
0.0
140
1.0
 94
        5
 62
     0
340
11
144
4.5
309
CONTENTFORMAT_END
171
     1
301
MARGIN
  1
CELLMARGIN_BEGIN
 40
1.5
 40
1.5
 40
1.5
 40
1.5
 40
1.5
 40
1.5
309
CELLMARGIN_END
 94
        6
 95
        1
302
GRIDFORMAT
  1
GRIDFORMAT_BEGIN
 90
        0
 91
        1
 62
     0
 92
       -2
340
14
 93
        0
 40
0.045
309
GRIDFORMAT_END
 95
        2
302
GRIDFORMAT
  1
GRIDFORMAT_BEGIN
 90
        0
 91
        1
 62
     0
 92
       -2
340
14
 93
        0
 40
0.045
309
GRIDFORMAT_END
 95
        4
302
GRIDFORMAT
  1
GRIDFORMAT_BEGIN
 90
        0
 91
        1
 62
     0
 92
       -2
340
14
 93
        0
 40
0.045
309
GRIDFORMAT_END
 95
        8
302
GRIDFORMAT
  1
GRIDFORMAT_BEGIN
 90
        0
 91
        1
 62
     0
 92
       -2
340
14
 93
        0
 40
0.045
309
GRIDFORMAT_END
 95
       16
302
GRIDFORMAT
  1
GRIDFORMAT_BEGIN
 90
        0
 91
        1
 62
     0
 92
       -2
340
14
 93
        0
 40
0.045
309
GRIDFORMAT_END
 95
       32
302
GRIDFORMAT
  1
GRIDFORMAT_BEGIN
 90
        0
 91
        1
 62
     0
 92
       -2
340
14
 93
        0
 40
0.045
309
GRIDFORMAT_END
309
TABLEFORMAT_END
  1
CELLSTYLE_BEGIN
 90
        2
 91
        1
300
_HEADER
309
CELLSTYLE_END
300
CELLSTYLE
  1
TABLEFORMAT_BEGIN
 90
        5
170
     1
 91
        0
 92
        0
 62
   257
 93
        1
300
CONTENTFORMAT
  1
CONTENTFORMAT_BEGIN
 90
        0
 91
        0
 92
        4
 93
        0
300

 40
0.0
140
1.0
 94
        2
 62
     0
340
11
144
4.5
309
CONTENTFORMAT_END
171
     1
301
MARGIN
  1
CELLMARGIN_BEGIN
 40
1.5
 40
1.5
 40
1.5
 40
1.5
 40
1.5
 40
1.5
309
CELLMARGIN_END
 94
        6
 95
        1
302
GRIDFORMAT
  1
GRIDFORMAT_BEGIN
 90
        0
 91
        1
 62
     0
 92
       -2
340
14
 93
        0
 40
0.045
309
GRIDFORMAT_END
 95
        2
302
GRIDFORMAT
  1
GRIDFORMAT_BEGIN
 90
        0
 91
        1
 62
     0
 92
       -2
340
14
 93
        0
 40
0.045
309
GRIDFORMAT_END
 95
        4
302
GRIDFORMAT
  1
GRIDFORMAT_BEGIN
 90
        0
 91
        1
 62
     0
 92
       -2
340
14
 93
        0
 40
0.045
309
GRIDFORMAT_END
 95
        8
302
GRIDFORMAT
  1
GRIDFORMAT_BEGIN
 90
        0
 91
        1
 62
     0
 92
       -2
340
14
 93
        0
 40
0.045
309
GRIDFORMAT_END
 95
       16
302
GRIDFORMAT
  1
GRIDFORMAT_BEGIN
 90
        0
 91
        1
 62
     0
 92
       -2
340
14
 93
        0
 40
0.045
309
GRIDFORMAT_END
 95
       32
302
GRIDFORMAT
  1
GRIDFORMAT_BEGIN
 90
        0
 91
        1
 62
     0
 92
       -2
340
14
 93
        0
 40
0.045
309
GRIDFORMAT_END
309
TABLEFORMAT_END
  1
CELLSTYLE_BEGIN
 90
        3
 91
        2
300
_DATA
309
CELLSTYLE_END
  0
ENDSEC
  0
EOF
