  0
SECTION
  2
HEADER
  9
$ACADVER
  1
AC1024
  9
$ACADMAINTVER
 70
     6
  9
$DWGCODEPAGE
  3
ANSI_1252
  9
$INSBASE
 10
0.0
 20
0.0
 30
0.0
  9
$EXTMIN
 10
0.0
 20
0.0
 30
0.0
  9
$EXTMAX
 10
420.0
 20
297.0
 30
0.0
  9
$LIMMIN
 10
0.0
 20
0.0
  9
$LIMMAX
 10
420.0
 20
297.0
  9
$ORTHOMODE
 70
     0
  9
$REGENMODE
 70
     1
  9
$FILLMODE
 70
     1
  9
$QTEXTMODE
 70
     0
  9
$MIRRTEXT
 70
     1
  9
$LTSCALE
 40
1.0
  9
$ATTMODE
 70
     1
  9
$TEXTSIZE
 40
2.0
  9
$TRACEWID
 40
1.0
  9
$TEXTSTYLE
  7
Standard
  9
$CLAYER
  8
0
  9
$CELTYPE
  6
ByLayer
  9
$CECOLOR
 62
   256
  9
$CELTSCALE
 40
1.0
  9
$DISPSILH
 70
     0
  9
$DIMSCALE
 40
1.0
  9
$DIMASZ
 40
2.8
  9
$DIMEXO
 40
1.0
  9
$DIMDLI
 40
3.75
  9
$DIMRND
 40
0.0
  9
$DIMDLE
 40
0.0
  9
$DIMEXE
 40
1.0
  9
$DIMTP
 40
0.0
  9
$DIMTM
 40
0.0
  9
$DIMTXT
 40
2.0
  9
$DIMCEN
 40
2.5
  9
$DIMTSZ
 40
0.0
  9
$DIMTOL
 70
     0
  9
$DIMLIM
 70
     0
  9
$DIMTIH
 70
     1
  9
$DIMTOH
 70
     1
  9
$DIMSE1
 70
     0
  9
$DIMSE2
 70
     0
  9
$DIMTAD
 70
     1
  9
$DIMZIN
 70
     0
  9
$DIMBLK
  1

  9
$DIMASO
 70
     1
  9
$DIMSHO
 70
     1
  9
$DIMPOST
  1

  9
$DIMAPOST
  1

  9
$DIMALT
 70
     0
  9
$DIMALTD
 70
     3
  9
$DIMALTF
 40
0.0393700787
  9
$DIMLFAC
 40
1.0
  9
$DIMTOFL
 70
     1
  9
$DIMTVP
 40
0.0
  9
$DIMTIX
 70
     0
  9
$DIMSOXD
 70
     0
  9
$DIMSAH
 70
     0
  9
$DIMBLK1
  1

  9
$DIMBLK2
  1

  9
$DIMSTYLE
  2
ISO-25
  9
$DIMCLRD
 70
     0
  9
$DIMCLRE
 70
     0
  9
$DIMCLRT
 70
     0
  9
$DIMTFAC
 40
1.0
  9
$DIMGAP
 40
1.524
  9
$DIMJUST
 70
     0
  9
$DIMSD1
 70
     0
  9
$DIMSD2
 70
     0
  9
$DIMTOLJ
 70
     0
  9
$DIMTZIN
 70
     0
  9
$DIMALTZ
 70
     0
  9
$DIMALTTZ
 70
     0
  9
$DIMUPT
 70
     0
  9
$DIMDEC
 70
     2
  9
$DIMTDEC
 70
     2
  9
$DIMALTU
 70
     2
  9
$DIMALTTD
 70
     3
  9
$DIMTXSTY
  7
Standard
  9
$DIMAUNIT
 70
     0
  9
$DIMADEC
 70
     2
  9
$DIMALTRND
 40
0.0
  9
$DIMAZIN
 70
     0
  9
$DIMDSEP
 70
    44
  9
$DIMATFIT
 70
     3
  9
$DIMFRAC
 70
     0
  9
$DIMLDRBLK
  1

  9
$DIMLUNIT
 70
     2
  9
$DIMLWD
 70
    -2
  9
$DIMLWE
 70
    -2
  9
$DIMTMOVE
 70
     0
  9
$DIMFXL
 40
1.0
  9
$DIMFXLON
 70
     0
  9
$DIMJOGANG
 40
0.7853981634
  9
$DIMTFILL
 70
     0
  9
$DIMTFILLCLR
 70
     0
  9
$DIMARCSYM
 70
     0
  9
$DIMLTYPE
  6

  9
$DIMLTEX1
  6

  9
$DIMLTEX2
  6

  9
$DIMTXTDIRECTION
 70
     0
  9
$LUNITS
 70
     2
  9
$LUPREC
 70
     2
  9
$SKETCHINC
 40
1.0
  9
$FILLETRAD
 40
10.0
  9
$AUNITS
 70
     0
  9
$AUPREC
 70
     2
  9
$MENU
  1
.
  9
$ELEVATION
 40
0.0
  9
$PELEVATION
 40
0.0
  9
$THICKNESS
 40
0.0
  9
$LIMCHECK
 70
     0
  9
$CHAMFERA
 40
0.0
  9
$CHAMFERB
 40
0.0
  9
$CHAMFERC
 40
0.0
  9
$CHAMFERD
 40
0.0
  9
$SKPOLY
 70
     0
  9
$TDCREATE
 40
2458915.417840058
  9
$TDUCREATE
 40
2458915.376173391
  9
$TDUPDATE
 40
2458915.417842049
  9
$TDUUPDATE
 40
2458915.376175382
  9
$TDINDWG
 40
0.0000000116
  9
$TDUSRTIMER
 40
0.0000000116
  9
$USRTIMER
 70
     1
  9
$ANGBASE
 50
0.0
  9
$ANGDIR
 70
     0
  9
$PDMODE
 70
     0
  9
$PDSIZE
 40
-1.0
  9
$PLINEWID
 40
0.0
  9
$SPLFRAME
 70
     0
  9
$SPLINETYPE
 70
     6
  9
$SPLINESEGS
 70
     8
  9
$HANDSEED
  5
454
  9
$SURFTAB1
 70
     6
  9
$SURFTAB2
 70
     6
  9
$SURFTYPE
 70
     6
  9
$SURFU
 70
     6
  9
$SURFV
 70
     6
  9
$UCSBASE
  2

  9
$UCSNAME
  2

  9
$UCSORG
 10
0.0
 20
0.0
 30
0.0
  9
$UCSXDIR
 10
1.0
 20
0.0
 30
0.0
  9
$UCSYDIR
 10
0.0
 20
1.0
 30
0.0
  9
$UCSORTHOREF
  2

  9
$UCSORTHOVIEW
 70
     0
  9
$UCSORGTOP
 10
0.0
 20
0.0
 30
0.0
  9
$UCSORGBOTTOM
 10
0.0
 20
0.0
 30
0.0
  9
$UCSORGLEFT
 10
0.0
 20
0.0
 30
0.0
  9
$UCSORGRIGHT
 10
0.0
 20
0.0
 30
0.0
  9
$UCSORGFRONT
 10
0.0
 20
0.0
 30
0.0
  9
$UCSORGBACK
 10
0.0
 20
0.0
 30
0.0
  9
$PUCSBASE
  2

  9
$PUCSNAME
  2

  9
$PUCSORG
 10
0.0
 20
0.0
 30
0.0
  9
$PUCSXDIR
 10
1.0
 20
0.0
 30
0.0
  9
$PUCSYDIR
 10
0.0
 20
1.0
 30
0.0
  9
$PUCSORTHOREF
  2

  9
$PUCSORTHOVIEW
 70
     0
  9
$PUCSORGTOP
 10
0.0
 20
0.0
 30
0.0
  9
$PUCSORGBOTTOM
 10
0.0
 20
0.0
 30
0.0
  9
$PUCSORGLEFT
 10
0.0
 20
0.0
 30
0.0
  9
$PUCSORGRIGHT
 10
0.0
 20
0.0
 30
0.0
  9
$PUCSORGFRONT
 10
0.0
 20
0.0
 30
0.0
  9
$PUCSORGBACK
 10
0.0
 20
0.0
 30
0.0
  9
$USERI1
 70
     0
  9
$USERI2
 70
     0
  9
$USERI3
 70
     0
  9
$USERI4
 70
     0
  9
$USERI5
 70
     0
  9
$USERR1
 40
0.0
  9
$USERR2
 40
0.0
  9
$USERR3
 40
0.0
  9
$USERR4
 40
0.0
  9
$USERR5
 40
0.0
  9
$WORLDVIEW
 70
     1
  9
$SHADEDGE
 70
     3
  9
$SHADEDIF
 70
    70
  9
$TILEMODE
 70
     1
  9
$MAXACTVP
 70
    64
  9
$PINSBASE
 10
0.0
 20
0.0
 30
0.0
  9
$PLIMCHECK
 70
     0
  9
$PEXTMIN
 10
1.0000000000E+20
 20
1.0000000000E+20
 30
1.0000000000E+20
  9
$PEXTMAX
 10
-1.0000000000E+20
 20
-1.0000000000E+20
 30
-1.0000000000E+20
  9
$PLIMMIN
 10
0.0
 20
0.0
  9
$PLIMMAX
 10
420.0
 20
297.0
  9
$UNITMODE
 70
     0
  9
$VISRETAIN
 70
     1
  9
$PLINEGEN
 70
     0
  9
$PSLTSCALE
 70
     1
  9
$TREEDEPTH
 70
  3020
  9
$CMLSTYLE
  2
Standard
  9
$CMLJUST
 70
     0
  9
$CMLSCALE
 40
20.0
  9
$PROXYGRAPHICS
 70
     1
  9
$MEASUREMENT
 70
     1
  9
$CELWEIGHT
370
    -1
  9
$ENDCAPS
280
     0
  9
$JOINSTYLE
280
     0
  9
$LWDISPLAY
290
     1
  9
$INSUNITS
 70
     4
  9
$HYPERLINKBASE
  1

  9
$STYLESHEET
  1

  9
$XEDIT
290
     1
  9
$CEPSNTYPE
380
     0
  9
$PSTYLEMODE
290
     1
  9
$FINGERPRINTGUID
  2
{05000e40-88c5-4a42-9b31-cd6f470e2dfa}
  9
$VERSIONGUID
  2
{FAEB1C32-E019-11D5-929B-00C0DF256EC4}
  9
$EXTNAMES
290
     1
  9
$PSVPSCALE
 40
0.0
  9
$OLESTARTUP
290
     0
  9
$SORTENTS
280
   127
  9
$INDEXCTL
280
     0
  9
$HIDETEXT
280
     1
  9
$XCLIPFRAME
280
     2
  9
$HALOGAP
280
     0
  9
$OBSCOLOR
 70
   257
  9
$OBSLTYPE
280
     0
  9
$INTERSECTIONDISPLAY
280
     0
  9
$INTERSECTIONCOLOR
 70
   257
  9
$DIMASSOC
280
     2
  9
$PROJECTNAME
  1

  9
$CAMERADISPLAY
290
     0
  9
$LENSLENGTH
 40
50.0
  9
$CAMERAHEIGHT
 40
0.0
  9
$STEPSPERSEC
 40
2.0
  9
$STEPSIZE
 40
6.0
  9
$3DDWFPREC
 40
2.0
  9
$PSOLWIDTH
 40
5.0
  9
$PSOLHEIGHT
 40
80.0
  9
$LOFTANG1
 40
1.5707963268
  9
$LOFTANG2
 40
1.5707963268
  9
$LOFTMAG1
 40
0.0
  9
$LOFTMAG2
 40
0.0
  9
$LOFTPARAM
 70
     7
  9
$LOFTNORMALS
280
     1
  9
$LATITUDE
 40
37.795
  9
$LONGITUDE
 40
-122.394
  9
$NORTHDIRECTION
 40
0.0
  9
$TIMEZONE
 70
 -8000
  9
$LIGHTGLYPHDISPLAY
280
     1
  9
$TILEMODELIGHTSYNCH
280
     1
  9
$CMATERIAL
347
44
  9
$SOLIDHIST
280
     0
  9
$SHOWHIST
280
     1
  9
$DWFFRAME
280
     2
  9
$DGNFRAME
280
     2
  9
$REALWORLDSCALE
290
     1
  9
$INTERFERECOLOR
 62
   256
  9
$CSHADOW
280
     0
  9
$SHADOWPLANELOCATION
 40
0.0
  0
ENDSEC
  0
SECTION
  2
CLASSES
  0
CLASS
  1
ACDBDICTIONARYWDFLT
  2
AcDbDictionaryWithDefault
  3
ObjectDBX Classes
 90
        0
 91
        3
280
     0
281
     0
  0
CLASS
  1
VISUALSTYLE
  2
AcDbVisualStyle
  3
ObjectDBX Classes
 90
     4095
 91
        3
280
     0
281
     0
  0
CLASS
  1
MATERIAL
  2
AcDbMaterial
  3
ObjectDBX Classes
 90
     1153
 91
        3
280
     0
281
     0
  0
CLASS
  1
SCALE
  2
AcDbScale
  3
ObjectDBX Classes
 90
     1153
 91
        3
280
     0
281
     0
  0
CLASS
  1
TABLESTYLE
  2
AcDbTableStyle
  3
ObjectDBX Classes
 90
     4095
 91
        3
280
     0
281
     0
  0
CLASS
  1
MLEADERSTYLE
  2
AcDbMLeaderStyle
  3
ACDB_MLEADERSTYLE_CLASS
 90
     4095
 91
        3
280
     0
281
     0
  0
CLASS
  1
SUN
  2
AcDbSun
  3
SCENEOE
 90
     1153
 91
        3
280
     0
281
     0
  0
CLASS
  1
DICTIONARYVAR
  2
AcDbDictionaryVar
  3
ObjectDBX Classes
 90
        0
 91
        3
280
     0
281
     0
  0
CLASS
  1
CELLSTYLEMAP
  2
AcDbCellStyleMap
  3
ObjectDBX Classes
 90
     1152
 91
        3
280
     0
281
     0
  0
ENDSEC
  0
SECTION
  2
TABLES
  0
TABLE
  2
VPORT
  5
8
330
0
100
AcDbSymbolTable
 70
     1
  0
VPORT
  5
29
330
8
100
AcDbSymbolTableRecord
100
AcDbViewportTableRecord
  2
*Active
 70
     0
 10
0.0
 20
0.0
 11
1.0
 21
1.0
 12
210.0
 22
148.5
 13
0.0
 23
0.0
 14
10.0
 24
10.0
 15
10.0
 25
10.0
 16
0.0
 26
0.0
 36
1.0
 17
0.0
 27
0.0
 37
0.0
 40
297.0
 41
1.4141414141
 42
50.0
 43
0.0
 44
0.0
 50
0.0
 51
0.0
 71
     0
 72
  2000
 73
     1
 74
     3
 75
     0
 76
     0
 77
     0
 78
     0
281
     0
 65
     1
110
0.0
120
0.0
130
0.0
111
1.0
121
0.0
131
0.0
112
0.0
122
1.0
132
0.0
 79
     0
146
0.0
348
2F
 60
     3
 61
     5
292
     1
282
     1
141
0.0
142
0.0
 63
   250
361
6D
  0
ENDTAB
  0
TABLE
  2
LTYPE
  5
5
330
0
100
AcDbSymbolTable
 70
     6
  0
LTYPE
  5
14
330
5
100
AcDbSymbolTableRecord
100
AcDbLinetypeTableRecord
  2
ByBlock
 70
     0
  3

 72
    65
 73
     0
 40
0.0
  0
LTYPE
  5
15
330
5
100
AcDbSymbolTableRecord
100
AcDbLinetypeTableRecord
  2
ByLayer
 70
     0
  3

 72
    65
 73
     0
 40
0.0
  0
LTYPE
  5
16
330
5
100
AcDbSymbolTableRecord
100
AcDbLinetypeTableRecord
  2
Continuous
 70
     0
  3
Solid line
 72
    65
 73
     0
 40
0.0
  0
LTYPE
  5
6E
330
5
100
AcDbSymbolTableRecord
100
AcDbLinetypeTableRecord
  2
HIDDEN
 70
     0
  3
Hidden __ __ __ __ __ __ __ __ __ __ __ __ __ __
 72
    65
 73
     2
 40
1.905
 49
1.27
 74
     0
 49
-0.635
 74
     0
  0
LTYPE
  5
6F
330
5
100
AcDbSymbolTableRecord
100
AcDbLinetypeTableRecord
  2
PHANTOM
 70
     0
  3
Phantom ______  __  __  ______  __  __  ______
 72
    65
 73
     6
 40
12.7
 49
6.35
 74
     0
 49
-1.27
 74
     0
 49
1.27
 74
     0
 49
-1.27
 74
     0
 49
1.27
 74
     0
 49
-1.27
 74
     0
  0
LTYPE
  5
70
330
5
100
AcDbSymbolTableRecord
100
AcDbLinetypeTableRecord
  2
CENTER
 70
     0
  3
Center ____ _ ____ _ ____ _ ____ _ ____ _ ____
 72
    65
 73
     4
 40
10.16
 49
6.35
 74
     0
 49
-1.27
 74
     0
 49
1.27
 74
     0
 49
-1.27
 74
     0
  0
LTYPE
  5
71
330
5
100
AcDbSymbolTableRecord
100
AcDbLinetypeTableRecord
  2
CENTERX2
 70
     0
  3
Center (2x) ________  __  ________  __  _____
 72
    65
 73
     4
 40
20.32
 49
12.7
 74
     0
 49
-2.54
 74
     0
 49
2.54
 74
     0
 49
-2.54
 74
     0
  0
LTYPE
  5
72
330
5
100
AcDbSymbolTableRecord
100
AcDbLinetypeTableRecord
  2
DOT2
 70
     0
  3
Dot (.5x) ........................................
 72
    65
 73
     2
 40
0.635
 49
0.0
 74
     0
 49
-0.635
 74
     0
  0
ENDTAB
  0
TABLE
  2
LAYER
  5
2
330
0
100
AcDbSymbolTable
 70
     4
  0
LAYER
  5
10
330
2
100
AcDbSymbolTableRecord
100
AcDbLayerTableRecord
  2
0
 70
     0
 62
     7
  6
Continuous
370
    -3
390
F
347
46
  0
LAYER
  5
73
330
2
100
AcDbSymbolTableRecord
100
AcDbLayerTableRecord
  2
TRAIT_DE_DÉTAIL
 70
     0
 62
     9
  6
HIDDEN
370
    -3
390
F
347
46
  0
LAYER
  5
74
330
2
100
AcDbSymbolTableRecord
100
AcDbLayerTableRecord
  2
COTATION
 70
     0
 62
     8
  6
Continuous
370
    -3
390
F
347
46
  0
LAYER
  5
75
330
2
100
AcDbSymbolTableRecord
100
AcDbLayerTableRecord
  2
DÉFAUT
 70
     0
 62
     7
  6
Continuous
370
    -3
390
F
347
46
  0
ENDTAB
  0
TABLE
  2
STYLE
  5
3
330
0
100
AcDbSymbolTable
 70
     2
  0
STYLE
  5
11
330
3
100
AcDbSymbolTableRecord
100
AcDbTextStyleTableRecord
  2
Standard
 70
     0
 40
0.0
 41
1.0
 50
0.0
 71
     0
 42
2.0
  3
txt
  4

  0
STYLE
  5
26D
330
3
100
AcDbSymbolTableRecord
100
AcDbTextStyleTableRecord
  2
SLDTEXTSTYLE0
 70
     0
 40
0.0
 41
0.605
 50
0.0
 71
     0
 42
2.0
  3
TXT
  4

  0
ENDTAB
  0
TABLE
  2
VIEW
  5
6
330
0
100
AcDbSymbolTable
 70
     0
  0
ENDTAB
  0
TABLE
  2
UCS
  5
7
330
0
100
AcDbSymbolTable
 70
     0
  0
ENDTAB
  0
TABLE
  2
APPID
  5
9
330
0
100
AcDbSymbolTable
 70
     1
  0
APPID
  5
12
330
9
100
AcDbSymbolTableRecord
100
AcDbRegAppTableRecord
  2
ACAD
 70
     0
  0
ENDTAB
  0
TABLE
  2
DIMSTYLE
  5
A
330
0
100
AcDbSymbolTable
 70
     2
100
AcDbDimStyleTable
  0
DIMSTYLE
105
27
330
A
100
AcDbSymbolTableRecord
100
AcDbDimStyleTableRecord
  2
ISO-25
 70
     0
 41
2.5
 42
0.625
 43
3.75
 44
1.25
 73
     0
 74
     0
 77
     1
 78
     8
140
2.5
141
2.5
143
0.0393700787
147
0.625
171
     3
172
     1
178
     0
271
     2
272
     2
274
     3
278
    44
283
     0
284
     8
340
11
  0
DIMSTYLE
105
26E
102
{ACAD_REACTORS
330
26C
102
}
330
A
100
AcDbSymbolTableRecord
100
AcDbDimStyleTableRecord
  2
SLDDIMSTYLE0
 70
     0
 41
2.8
 44
0.0
 45
0.000000001
 73
     0
 74
     0
 75
     1
 76
     1
 77
     1
 78
    12
 79
     3
140
2.0
147
0.5
173
     1
178
     0
271
     0
272
     0
276
     2
284
    12
340
26D
  0
ENDTAB
  0
TABLE
  2
BLOCK_RECORD
  5
1
330
0
100
AcDbSymbolTable
 70
     2
  0
BLOCK_RECORD
  5
1F
330
1
100
AcDbSymbolTableRecord
100
AcDbBlockTableRecord
  2
*Model_Space
340
22
 70
     0
280
     1
281
     0
  0
BLOCK_RECORD
  5
1B
330
1
100
AcDbSymbolTableRecord
100
AcDbBlockTableRecord
  2
*Paper_Space
340
1E
 70
     0
280
     1
281
     0
  0
BLOCK_RECORD
  5
23
330
1
100
AcDbSymbolTableRecord
100
AcDbBlockTableRecord
  2
*Paper_Space0
340
26
 70
     0
280
     1
281
     0
  0
BLOCK_RECORD
  5
26F
330
1
100
AcDbSymbolTableRecord
100
AcDbBlockTableRecord
  2
_D
340
0
 70
     0
280
     1
281
     0
  0
ENDTAB
  0
ENDSEC
  0
SECTION
  2
BLOCKS
  0
BLOCK
  5
20
330
1F
100
AcDbEntity
  8
0
100
AcDbBlockBegin
  2
*Model_Space
 70
     0
 10
0.0
 20
0.0
 30
0.0
  3
*Model_Space
  1

  0
ENDBLK
  5
21
330
1F
100
AcDbEntity
  8
0
100
AcDbBlockEnd
  0
BLOCK
  5
1C
330
1B
100
AcDbEntity
 67
     1
  8
0
100
AcDbBlockBegin
  2
*Paper_Space
 70
     0
 10
0.0
 20
0.0
 30
0.0
  3
*Paper_Space
  1

  0
ENDBLK
  5
1D
330
1B
100
AcDbEntity
 67
     1
  8
0
100
AcDbBlockEnd
  0
BLOCK
  5
24
330
23
100
AcDbEntity
  8
0
100
AcDbBlockBegin
  2
*Paper_Space0
 70
     0
 10
0.0
 20
0.0
 30
0.0
  3
*Paper_Space0
  1

  0
ENDBLK
  5
25
330
23
100
AcDbEntity
  8
0
100
AcDbBlockEnd
  0
BLOCK
  5
270
330
26F
100
AcDbEntity
  8
0
100
AcDbBlockBegin
  2
_D
 70
     0
 10
0.0
 20
0.0
 30
0.0
  3
_D
  1

  0
SOLID
  5
272
330
26F
100
AcDbEntity
  8
0
  6
Continuous
 62
     7
370
    18
100
AcDbTrace
 10
6.4055895346
 20
-28.1861339642
 30
0.0
 11
6.8055895346
 21
-25.3861339642
 31
0.0
 12
6.0055895346
 22
-25.3861339642
 32
0.0
 13
6.0055895346
 23
-25.3861339642
 33
0.0
  0
SOLID
  5
273
330
26F
100
AcDbEntity
  8
0
  6
Continuous
 62
     7
370
    18
100
AcDbTrace
 10
6.4055895346
 20
331.7532058639
 30
0.0
 11
6.0055895346
 21
328.9532058639
 31
0.0
 12
6.8055895346
 22
328.9532058639
 32
0.0
 13
6.8055895346
 23
328.9532058639
 33
0.0
  0
LINE
  5
274
330
26F
100
AcDbEntity
  8
0
  6
Continuous
 62
     7
370
     0
100
AcDbLine
 10
6.4055895346
 20
-28.1861339642
 30
0.0
 11
6.4055895346
 21
331.7532058639
 31
0.0
  0
MTEXT
  5
275
330
26F
100
AcDbEntity
  8
0
  6
Continuous
 62
     7
370
    18
100
AcDbMText
 10
3.8274539968
 20
130.2267948827
 30
0.0
 40
2.0
 41
0.0
 46
0.0
 71
     1
 72
     1
  1
360
  7
SLDTEXTSTYLE0
 11
-1.326144395554451E-14
 21
1.0
 31
0.0
 73
     1
 44
1.0
  0
ENDBLK
  5
271
330
26F
100
AcDbEntity
  8
0
100
AcDbBlockEnd
  0
ENDSEC
  0
SECTION
  2
ENTITIES
  0
SPLINE
  5
76
330
1F
100
AcDbEntity
  8
0
  6
Continuous
 62
     7
100
AcDbSpline
210
0.0
220
0.0
230
1.0
 70
     8
 71
     3
 72
    11
 73
     7
 74
     0
 42
0.000000001
 43
0.00000001
 40
0.0
 40
0.0
 40
0.0
 40
0.0
 40
0.3634794427358328
 40
0.6861842883116511
 40
0.9541460191772444
 40
1.0
 40
1.0
 40
1.0
 40
1.0
 10
25.67408145040079
 20
205.897157113192
 30
0.0
 10
25.63104494973362
 20
205.9732077456911
 30
0.0
 10
25.549799720679
 20
206.1167777609422
 30
0.0
 10
25.35895081194722
 20
206.246186426186
 30
0.0
 10
25.21852760314586
 20
206.3083490977792
 30
0.0
 10
25.14463662021193
 20
206.3169998952557
 30
0.0
 10
25.13383985131784
 20
206.3182639285301
 30
0.0
  0
SPLINE
  5
77
330
1F
100
AcDbEntity
  8
0
  6
Continuous
 62
     7
100
AcDbSpline
210
0.0
220
0.0
230
1.0
 70
     8
 71
     3
 72
    10
 73
     6
 74
     0
 42
0.000000001
 43
0.00000001
 40
0.0
 40
0.0
 40
0.0
 40
0.0
 40
0.2509797780352804
 40
0.6222851619252526
 40
1.0
 40
1.0
 40
1.0
 40
1.0
 10
18.72512609332605
 20
203.313236157534
 30
0.0
 10
18.69973744608711
 20
203.2609224205176
 30
0.0
 10
18.63678823726317
 20
203.1312145111194
 30
0.0
 10
18.61842145422282
 20
202.8914426513314
 30
0.0
 10
18.67584892023816
 20
202.7270657611949
 30
0.0
 10
18.70480836003824
 20
202.6441740199302
 30
0.0
  0
LINE
  5
78
330
1F
100
AcDbEntity
  8
0
  6
Continuous
 62
     7
100
AcDbLine
 10
18.7053969559
 20
202.6366340324
 30
0.0
 11
19.2156499681
 21
201.5423672601
 31
0.0
  0
LINE
  5
79
330
1F
100
AcDbEntity
  8
0
  6
Continuous
 62
     7
100
AcDbLine
 10
26.1942511854
 20
204.7964679404
 30
0.0
 11
25.6839981732
 21
205.8907198116
 31
0.0
  0
ARC
  5
7A
330
1F
100
AcDbEntity
  8
0
  6
Continuous
 62
     7
100
AcDbCircle
 10
23.743066761
 20
200.9431101667
 30
0.0
 40
5.556451612903271
100
AcDbArc
 50
124.5393426518
 51
155.051241234
  0
ARC
  5
7B
330
1F
100
AcDbEntity
  8
0
  6
Continuous
 62
     7
100
AcDbCircle
 10
23.743066761
 20
200.9431101667
 30
0.0
 40
5.556451612903269
100
AcDbArc
 50
74.9477475787
 51
105.7924548306
  0
LINE
  5
7C
330
1F
100
AcDbEntity
  8
0
  6
Continuous
 62
     7
100
AcDbLine
 10
20.8963146862
 20
202.3156332179
 30
0.0
 11
21.249285942
 21
201.5586691304
 31
0.0
  0
LINE
  5
7D
330
1F
100
AcDbEntity
  8
0
  6
Continuous
 62
     7
100
AcDbLine
 10
24.8249909338
 20
203.3553468391
 30
0.0
 11
24.5215585884
 21
204.0060805484
 31
0.0
  0
SPLINE
  5
7E
330
1F
100
AcDbEntity
  8
0
  6
Continuous
 62
     7
100
AcDbSpline
210
0.0
220
0.0
230
1.0
 70
     8
 71
     3
 72
    11
 73
     7
 74
     0
 42
0.000000001
 43
0.00000001
 40
0.0
 40
0.0
 40
0.0
 40
0.0
 40
0.0806525009813442
 40
0.4445763832708606
 40
0.8187517369122347
 40
1.0
 40
1.0
 40
1.0
 40
1.0
 10
220.7272714433055
 20
206.479762713549
 30
0.0
 10
220.7078428350628
 20
206.4778183168206
 30
0.0
 10
220.6007475772668
 20
206.4671003247601
 30
0.0
 10
220.4231076541323
 20
206.3668615880654
 30
0.0
 10
220.2504263815634
 20
206.2161669754529
 30
0.0
 10
220.2010772940002
 20
206.0901516274246
 30
0.0
 10
220.1849734839778
 20
206.0490297480796
 30
0.0
  0
SPLINE
  5
7F
330
1F
100
AcDbEntity
  8
0
  6
Continuous
 62
     7
100
AcDbSpline
210
0.0
220
0.0
230
1.0
 70
     8
 71
     3
 72
    11
 73
     7
 74
     0
 42
0.000000001
 43
0.00000001
 40
0.0
 40
0.0
 40
0.0
 40
0.0
 40
0.1859530547745757
 40
0.5402533802221893
 40
0.8266751217167185
 40
1.0
 40
1.0
 40
1.0
 40
1.0
 10
227.1407163199763
 20
202.8058218165611
 30
0.0
 10
227.1622449708187
 20
202.8456297961296
 30
0.0
 10
227.2247926197582
 20
202.9612847690894
 30
0.0
 10
227.2318159280528
 20
203.1680093461282
 30
0.0
 10
227.1972927114819
 20
203.3637676249017
 30
0.0
 10
227.1439561397556
 20
203.4617223057896
 30
0.0
 10
227.1238482055049
 20
203.498651306269
 30
0.0
  0
LINE
  5
80
330
1F
100
AcDbEntity
  8
0
  6
Continuous
 62
     7
100
AcDbLine
 10
220.1737752613
 20
206.0549306079
 30
0.0
 11
219.6635222492
 21
204.9606638356
 31
0.0
  0
LINE
  5
81
330
1F
100
AcDbEntity
  8
0
  6
Continuous
 62
     7
100
AcDbLine
 10
226.6421234664
 20
201.7065631553
 30
0.0
 11
227.1523764786
 21
202.8008299276
 31
0.0
  0
ARC
  5
82
330
1F
100
AcDbEntity
  8
0
  6
Continuous
 62
     7
100
AcDbCircle
 10
222.1147053908
 20
201.1073176755
 30
0.0
 40
5.556451612903218
100
AcDbArc
 50
88.821069361
 51
105.0522524213
  0
ARC
  5
83
330
1F
100
AcDbEntity
  8
0
  6
Continuous
 62
     7
100
AcDbCircle
 10
222.1147053908
 20
201.1073176755
 30
0.0
 40
5.556451612903246
100
AcDbArc
 50
24.948758766
 51
41.1799418263
  0
LINE
  5
84
330
1F
100
AcDbEntity
  8
0
  6
Continuous
 62
     7
100
AcDbLine
 10
221.3362148461
 20
204.1702913448
 30
0.0
 11
221.0326856431
 21
203.5193490192
 31
0.0
  0
LINE
  5
85
330
1F
100
AcDbEntity
  8
0
  6
Continuous
 62
     7
100
AcDbLine
 10
224.6083831844
 20
201.7226713105
 30
0.0
 11
224.9614587483
 21
202.4798440143
 31
0.0
  0
LINE
  5
86
330
1F
100
AcDbEntity
  8
0
  6
Continuous
 62
     7
100
AcDbLine
 10
228.4075385389
 20
199.5625542804
 30
0.0
 11
207.8518039045
 21
209.8912345573
 31
0.0
  0
LINE
  5
87
330
1F
100
AcDbEntity
  8
0
  6
Continuous
 62
     7
100
AcDbLine
 10
126.7538378444
 20
-29.1435224608
 30
0.0
 11
126.7538378444
 21
-28.18613403
 31
0.0
  0
LINE
  5
88
330
1F
100
AcDbEntity
  8
0
  6
Continuous
 62
     7
100
AcDbLine
 10
119.0538378862
 20
-28.18613403
 30
0.0
 11
119.0538378862
 21
-29.1435224608
 31
0.0
  0
ARC
  5
89
330
1F
100
AcDbEntity
  8
0
  6
Continuous
 62
     7
100
AcDbCircle
 10
125.9838378653
 20
-29.1435217367
 30
0.0
 40
0.7700000000000219
100
AcDbArc
 50
310.0520272787
 51
0.0
  0
ARC
  5
8A
330
1F
100
AcDbEntity
  8
0
  6
Continuous
 62
     7
100
AcDbCircle
 10
119.8238378653
 20
-29.1435217367
 30
0.0
 40
0.770000000000031
100
AcDbArc
 50
180.0
 51
229.9479727213
  0
ARC
  5
8B
330
1F
100
AcDbEntity
  8
0
  6
Continuous
 62
     7
100
AcDbCircle
 10
122.9038378653
 20
-25.4796823512
 30
0.0
 40
5.556451612903246
100
AcDbArc
 50
285.7774918161
 51
310.0520272787
  0
ARC
  5
8C
330
1F
100
AcDbEntity
  8
0
  6
Continuous
 62
     7
100
AcDbCircle
 10
122.9038378653
 20
-25.4796823512
 30
0.0
 40
5.556451612903255
100
AcDbArc
 50
229.9479727213
 51
254.2225081839
  0
LINE
  5
8D
330
1F
100
AcDbEntity
  8
0
  6
Continuous
 62
     7
100
AcDbLine
 10
51.5699005184
 20
255.3673135444
 30
0.0
 11
56.5538397488
 21
250.5532102987
 31
0.0
  0
LINE
  5
8E
330
1F
100
AcDbEntity
  8
0
  6
Continuous
 62
     7
100
AcDbLine
 10
189.2538359818
 20
250.5532102987
 30
0.0
 11
194.2377752122
 21
255.3673135444
 31
0.0
  0
LINE
  5
8F
330
1F
100
AcDbEntity
  8
0
  6
Continuous
 62
     7
100
AcDbLine
 10
56.5538397488
 20
250.5532102987
 30
0.0
 11
189.2538359818
 21
250.5532102987
 31
0.0
  0
LINE
  5
90
330
1F
100
AcDbEntity
  8
0
  6
Continuous
 62
     7
100
AcDbLine
 10
189.2538359818
 20
250.4459070369
 30
0.0
 11
189.2538359818
 21
250.5532102987
 31
0.0
  0
ELLIPSE
  5
91
330
1F
100
AcDbEntity
  8
0
  6
Continuous
 62
     7
100
AcDbEllipse
 10
194.237771767
 20
254.9532058641
 30
0.0
 11
1.586311778198137
 21
1.58631177819808
 31
0.0
210
0.0
220
0.0
230
1.0
 40
0.1316524976
 41
1.176831646939499
 42
1.439896632895318
  0
LINE
  5
92
330
1F
100
AcDbEntity
  8
0
  6
Continuous
 62
     7
100
AcDbLine
 10
194.6538379845
 20
255.7549523517
 30
0.0
 11
194.6538379845
 21
255.4669874116
 31
0.0
  0
ELLIPSE
  5
93
330
1F
100
AcDbEntity
  8
0
  6
Continuous
 62
     7
100
AcDbEllipse
 10
194.237771767
 20
254.9532058641
 30
0.0
 11
0.5948669168242872
 21
0.5948669168242589
 31
0.0
210
0.0
220
0.0
230
1.0
 40
0.1316524976
 41
0.6736392604518657
 42
1.078449130708226
  0
LINE
  5
94
330
1F
100
AcDbEntity
  8
0
  6
Continuous
 62
     7
100
AcDbLine
 10
56.5538397488
 20
250.5532102987
 30
0.0
 11
56.5538397488
 21
250.4459070369
 31
0.0
  0
ELLIPSE
  5
95
330
1F
100
AcDbEntity
  8
0
  6
Continuous
 62
     7
100
AcDbEllipse
 10
51.5699039636
 20
254.9532058641
 30
0.0
 11
-0.5948669168242657
 21
0.5948669168242586
 31
0.0
210
0.0
220
0.0
230
1.0
 40
0.1316524976
 41
4.843288674284214
 42
5.609546046727672
  0
LINE
  5
96
330
1F
100
AcDbEntity
  8
0
  6
Continuous
 62
     7
100
AcDbLine
 10
51.1538377461
 20
255.4764049455
 30
0.0
 11
51.1538377461
 21
255.7549523517
 31
0.0
  0
ELLIPSE
  5
97
330
1F
100
AcDbEntity
  8
0
  6
Continuous
 62
     7
100
AcDbEllipse
 10
51.5699039636
 20
254.9532058641
 30
0.0
 11
-1.58631177819808
 21
1.58631177819808
 31
0.0
210
0.0
220
0.0
230
1.0
 40
0.1316524976
 41
4.843288674284224
 42
5.106353660240035
  0
LINE
  5
98
330
1F
100
AcDbEntity
  8
0
  6
Continuous
 62
     7
100
AcDbLine
 10
51.1538377461
 20
256.5531926557
 30
0.0
 11
51.1538377461
 21
255.7549523517
 31
0.0
  0
LINE
  5
99
330
1F
100
AcDbEntity
  8
0
  6
Continuous
 62
     7
100
AcDbLine
 10
51.1538377461
 20
256.5531926557
 30
0.0
 11
194.6538379845
 21
256.5531926557
 31
0.0
  0
LINE
  5
9A
330
1F
100
AcDbEntity
  8
0
  6
Continuous
 62
     7
100
AcDbLine
 10
194.6538379845
 20
255.7549523517
 30
0.0
 11
194.6538379845
 21
256.5531926557
 31
0.0
  0
LINE
  5
9B
330
1F
100
AcDbEntity
  8
0
  6
Continuous
 62
     7
100
AcDbLine
 10
51.1538377461
 20
256.5531926557
 30
0.0
 11
50.444937354
 21
256.5531926557
 31
0.0
  0
LINE
  5
9C
330
1F
100
AcDbEntity
  8
0
  6
Continuous
 62
     7
100
AcDbLine
 10
51.0370945987
 20
255.5532055303
 30
0.0
 11
51.1538377461
 21
255.5532055303
 31
0.0
  0
LINE
  5
9D
330
1F
100
AcDbEntity
  8
0
  6
Continuous
 62
     7
100
AcDbLine
 10
50.444937354
 20
255.6576179668
 30
0.0
 11
51.0370945987
 21
255.5532055303
 31
0.0
  0
LINE
  5
9E
330
1F
100
AcDbEntity
  8
0
  6
Continuous
 62
     7
100
AcDbLine
 10
195.3627383766
 20
256.5531926557
 30
0.0
 11
194.6538379845
 21
256.5531926557
 31
0.0
  0
LINE
  5
9F
330
1F
100
AcDbEntity
  8
0
  6
Continuous
 62
     7
100
AcDbLine
 10
194.7705811319
 20
255.5532055303
 30
0.0
 11
195.3627383766
 21
255.6576179668
 31
0.0
  0
LINE
  5
A0
330
1F
100
AcDbEntity
  8
0
  6
Continuous
 62
     7
100
AcDbLine
 10
194.6538379845
 20
255.5532055303
 30
0.0
 11
194.7705811319
 21
255.5532055303
 31
0.0
  0
ARC
  5
A1
330
1F
100
AcDbEntity
  8
0
  6
Continuous
 62
     7
100
AcDbCircle
 10
50.4449341155
 20
255.2532058641
 30
0.0
 40
0.3000000000000398
100
AcDbArc
 50
90.0
 51
170.0
  0
LINE
  5
A2
330
1F
100
AcDbEntity
  8
0
  6
Continuous
 62
     7
100
AcDbLine
 10
50.149492031
 20
255.3052949115
 30
0.0
 11
49.9830237088
 21
254.3612318441
 31
0.0
  0
LINE
  5
A3
330
1F
100
AcDbEntity
  8
0
  6
Continuous
 62
     7
100
AcDbLine
 10
48.948383933
 20
250.4382031366
 30
0.0
 11
48.2961452064
 21
250.5532102987
 31
0.0
  0
LINE
  5
A4
330
1F
100
AcDbEntity
  8
0
  6
Continuous
 62
     7
100
AcDbLine
 10
48.2961452064
 20
250.5532102987
 30
0.0
 11
49.1646817383
 21
255.4789530441
 31
0.0
  0
ARC
  5
A5
330
1F
100
AcDbEntity
  8
0
  6
Continuous
 62
     7
100
AcDbCircle
 10
50.4449341155
 20
255.2532058641
 30
0.0
 40
1.300000000000013
100
AcDbArc
 50
152.1599108978
 51
170.0
  0
LINE
  5
A6
330
1F
100
AcDbEntity
  8
0
  6
Continuous
 62
     7
100
AcDbLine
 10
49.2954021749
 20
255.8603184625
 30
0.0
 11
50.444937354
 21
255.6576179668
 31
0.0
  0
LINE
  5
A7
330
1F
100
AcDbEntity
  8
0
  6
Continuous
 62
     7
100
AcDbLine
 10
51.0370945987
 20
255.5532055303
 30
0.0
 11
50.444937354
 21
255.5532055303
 31
0.0
  0
ARC
  5
A8
330
1F
100
AcDbEntity
  8
0
  6
Continuous
 62
     7
100
AcDbCircle
 10
50.4449341155
 20
255.2532058641
 30
0.0
 40
1.300000000000013
100
AcDbArc
 50
90.0
 51
152.1599108978
  0
ARC
  5
A9
330
1F
100
AcDbEntity
  8
0
  6
Continuous
 62
     7
100
AcDbCircle
 10
195.3627416151
 20
255.2532058641
 30
0.0
 40
0.3000000000000398
100
AcDbArc
 50
10.0
 51
90.0000000001
  0
LINE
  5
AA
330
1F
100
AcDbEntity
  8
0
  6
Continuous
 62
     7
100
AcDbLine
 10
195.3627383766
 20
255.6576179668
 30
0.0
 11
196.5122735557
 21
255.8603184625
 31
0.0
  0
ARC
  5
AB
330
1F
100
AcDbEntity
  8
0
  6
Continuous
 62
     7
100
AcDbCircle
 10
195.3627416151
 20
255.2532058641
 30
0.0
 40
1.300000000000021
100
AcDbArc
 50
10.0
 51
27.8400891022
  0
LINE
  5
AC
330
1F
100
AcDbEntity
  8
0
  6
Continuous
 62
     7
100
AcDbLine
 10
196.6429939923
 20
255.4789530441
 30
0.0
 11
197.5115305242
 21
250.5532102987
 31
0.0
  0
LINE
  5
AD
330
1F
100
AcDbEntity
  8
0
  6
Continuous
 62
     7
100
AcDbLine
 10
197.5115305242
 20
250.5532102987
 30
0.0
 11
197.3552098927
 21
250.5256431504
 31
0.0
  0
LINE
  5
AE
330
1F
100
AcDbEntity
  8
0
  6
Continuous
 62
     7
100
AcDbLine
 10
195.3627383766
 20
255.5532055303
 30
0.0
 11
194.7705811319
 21
255.5532055303
 31
0.0
  0
ARC
  5
AF
330
1F
100
AcDbEntity
  8
0
  6
Continuous
 62
     7
100
AcDbCircle
 10
195.3627416151
 20
255.2532058641
 30
0.0
 40
1.300000000000021
100
AcDbArc
 50
27.8400891022
 51
90.0
  0
SPLINE
  5
B0
330
1F
100
AcDbEntity
  8
0
  6
Continuous
 62
     7
100
AcDbSpline
210
0.0
220
0.0
230
1.0
 70
     8
 71
     3
 72
    12
 73
     8
 74
     0
 42
0.000000001
 43
0.00000001
 40
0.0
 40
0.0
 40
0.0
 40
0.0
 40
0.0561813042170473
 40
0.2788751262378789
 40
0.634835667255353
 40
0.9907970183464077
 40
0.9999999999999999
 40
0.9999999999999999
 40
0.9999999999999999
 40
0.9999999999999999
 10
187.4848893341403
 20
259.8379450246071
 30
0.0
 10
187.5683134132962
 20
259.7260443760243
 30
0.0
 10
187.9824173742152
 20
259.1705872193329
 30
0.0
 10
189.1077266313839
 20
258.0470336203932
 30
0.0
 10
191.1634890105023
 20
256.8787545256254
 30
0.0
 10
192.9668898578575
 20
256.5558477858516
 30
0.0
 10
193.8739323813706
 20
256.5532579261065
 30
0.0
 10
193.8967919406275
 20
256.55319265568
 30
0.0
  0
SPLINE
  5
B1
330
1F
100
AcDbEntity
  8
0
  6
Continuous
 62
     7
100
AcDbSpline
210
0.0
220
0.0
230
1.0
 70
     8
 71
     3
 72
    11
 73
     7
 74
     0
 42
0.000000001
 43
0.00000001
 40
0.0
 40
0.0
 40
0.0
 40
0.0
 40
0.0360415337826721
 40
0.3920729434961729
 40
0.7481114601437522
 40
1.0
 40
1.0
 40
1.0
 40
1.0
 10
51.91088378995462
 20
256.55319265568
 30
0.0
 10
52.00039340967295
 20
256.5541722920989
 30
0.0
 10
52.97411168386759
 20
256.5648291341917
 30
0.0
 10
54.8264483484845
 20
256.9578821111805
 30
0.0
 10
56.95021034486458
 20
258.1892666660621
 30
0.0
 10
57.92068136492455
 20
259.3549540365573
 30
0.0
 10
58.32278639644189
 20
259.8379450246071
 30
0.0
  0
SPLINE
  5
B2
330
1F
100
AcDbEntity
  8
0
  6
Continuous
 62
     7
100
AcDbSpline
210
0.0
220
0.0
230
1.0
 70
     8
 71
     3
 72
    12
 73
     8
 74
     0
 42
0.000000001
 43
0.00000001
 40
0.0
 40
0.0
 40
0.0
 40
0.0
 40
0.1893365619655756
 40
0.3812759250258722
 40
0.6526404550600184
 40
0.931872918277084
 40
1.0
 40
1.0
 40
1.0
 40
1.0
 10
58.32278639644189
 20
259.8379450246071
 30
0.0
 10
59.31533117027261
 20
261.1233684821736
 30
0.0
 10
61.31406518573819
 20
263.7118860550382
 30
0.0
 10
65.35684754793684
 20
267.602389720492
 30
0.0
 10
70.51136386642484
 20
271.3712767404223
 30
0.0
 10
75.27983577782567
 20
273.7628959891522
 30
0.0
 10
78.07803727993488
 20
274.7765938617887
 30
0.0
 10
78.62684414356752
 20
274.9754088326667
 30
0.0
  0
SPLINE
  5
B3
330
1F
100
AcDbEntity
  8
0
  6
Continuous
 62
     7
100
AcDbSpline
210
0.0
220
0.0
230
1.0
 70
     8
 71
     3
 72
    12
 73
     8
 74
     0
 42
0.000000001
 43
0.00000001
 40
0.0
 40
0.0
 40
0.0
 40
0.0
 40
0.090540682164449
 40
0.3620361174468852
 40
0.641410802423006
 40
0.8196224796639991
 40
1.0
 40
1.0
 40
1.0
 40
1.0
 10
167.1808315870146
 20
274.9754088326667
 30
0.0
 10
167.9092126953222
 20
274.708191923209
 30
0.0
 10
170.821718567482
 20
273.6396979589101
 30
0.0
 10
175.7329109147559
 20
271.1007965103213
 30
0.0
 10
180.7545137396202
 20
267.342671498885
 30
0.0
 10
184.6656248848724
 20
263.5013799788961
 30
0.0
 10
186.5413581036785
 20
261.0639971925881
 30
0.0
 10
187.4848893341403
 20
259.8379450246071
 30
0.0
  0
LINE
  5
B4
330
1F
100
AcDbEntity
  8
0
  6
Continuous
 62
     7
100
AcDbLine
 10
161.0030336735
 20
277.1218913003
 30
0.0
 11
167.180831587
 21
274.9754088327
 31
0.0
  0
LINE
  5
B5
330
1F
100
AcDbEntity
  8
0
  6
Continuous
 62
     7
100
AcDbLine
 10
78.6268441436
 20
274.9754088327
 30
0.0
 11
84.8046420571
 21
277.1218913003
 31
0.0
  0
SPLINE
  5
B6
330
1F
100
AcDbEntity
  8
0
  6
Continuous
 62
     7
100
AcDbSpline
210
0.0
220
0.0
230
1.0
 70
     8
 71
     3
 72
    10
 73
     6
 74
     0
 42
0.000000001
 43
0.00000001
 40
0.0
 40
0.0
 40
0.0
 40
0.0
 40
0.0758101888183127
 40
0.5862362897822664
 40
1.0
 40
1.0
 40
1.0
 40
1.0
 10
158.0672664996962
 20
279.4215279027198
 30
0.0
 10
158.1206423254659
 20
279.3422766198197
 30
0.0
 10
158.533394840016
 20
278.729430526543
 30
0.0
 10
159.4506847467929
 20
277.804711820659
 30
0.0
 10
160.5229679303874
 20
277.3330543544827
 30
0.0
 10
161.0030336734633
 20
277.1218913003181
 30
0.0
  0
SPLINE
  5
B7
330
1F
100
AcDbEntity
  8
0
  6
Continuous
 62
     7
100
AcDbSpline
210
0.0
220
0.0
230
1.0
 70
     8
 71
     3
 72
    10
 73
     6
 74
     0
 42
0.000000001
 43
0.00000001
 40
0.0
 40
0.0
 40
0.0
 40
0.0
 40
0.2448005256359382
 40
0.7549537926381074
 40
0.9999999999999999
 40
0.9999999999999999
 40
0.9999999999999999
 40
0.9999999999999999
 10
84.80464205711885
 20
277.1218913003181
 30
0.0
 10
85.09125066148249
 20
277.2377682610665
 30
0.0
 10
85.97513868543561
 20
277.5951275876818
 30
0.0
 10
87.0002629476084
 20
278.3979114239768
 30
0.0
 10
87.55908373963541
 20
279.1707561768412
 30
0.0
 10
87.74040923088594
 20
279.4215279027198
 30
0.0
  0
LINE
  5
B8
330
1F
100
AcDbEntity
  8
0
  6
Continuous
 62
     7
100
AcDbLine
 10
156.8871243355
 20
281.2380390569
 30
0.0
 11
158.0672664997
 21
279.4215279027
 31
0.0
  0
LINE
  5
B9
330
1F
100
AcDbEntity
  8
0
  6
Continuous
 62
     7
100
AcDbLine
 10
87.7404092309
 20
279.4215279027
 30
0.0
 11
88.9205513951
 21
281.2380390569
 31
0.0
  0
SPLINE
  5
BA
330
1F
100
AcDbEntity
  8
0
  6
Continuous
 62
     7
100
AcDbSpline
210
0.0
220
0.0
230
1.0
 70
     8
 71
     3
 72
    10
 73
     6
 74
     0
 42
0.000000001
 43
0.00000001
 40
0.0
 40
0.0
 40
0.0
 40
0.0
 40
0.1122961641962893
 40
0.6823393770072438
 40
1.0
 40
1.0
 40
1.0
 40
1.0
 10
153.5406606700997
 20
284.0507822438453
 30
0.0
 10
153.6913619029033
 20
283.9825895965688
 30
0.0
 10
154.6070600128199
 20
283.5682341393525
 30
0.0
 10
155.8350362147586
 20
282.6731264273753
 30
0.0
 10
156.6098580153681
 20
281.6162406413442
 30
0.0
 10
156.8871243354659
 20
281.2380390568946
 30
0.0
  0
SPLINE
  5
BB
330
1F
100
AcDbEntity
  8
0
  6
Continuous
 62
     7
100
AcDbSpline
210
0.0
220
0.0
230
1.0
 70
     8
 71
     3
 72
    10
 73
     6
 74
     0
 42
0.000000001
 43
0.00000001
 40
0.0
 40
0.0
 40
0.0
 40
0.0
 40
0.1094043867843928
 40
0.6791252913765464
 40
1.0
 40
1.0
 40
1.0
 40
1.0
 10
88.92055139511629
 20
281.2380390568946
 30
0.0
 10
89.01117777074644
 20
281.371292229871
 30
0.0
 10
89.57373897661026
 20
282.1984583297341
 30
0.0
 10
90.664620818712
 20
283.2563068467721
 30
0.0
 10
91.842598732522
 20
283.8403544215959
 30
0.0
 10
92.26701506048246
 20
284.0507822438454
 30
0.0
  0
SPLINE
  5
BC
330
1F
100
AcDbEntity
  8
0
  6
Continuous
 62
     7
100
AcDbSpline
210
0.0
220
0.0
230
1.0
 70
     8
 71
     3
 72
    10
 73
     6
 74
     0
 42
0.000000001
 43
0.00000001
 40
0.0
 40
0.0
 40
0.0
 40
0.0
 40
0.4335797947341402
 40
0.7140985116233634
 40
1.0
 40
1.0
 40
1.0
 40
1.0
 10
144.6915446278433
 20
290.7288270398353
 30
0.0
 10
145.7873965839069
 20
289.5340140630595
 30
0.0
 10
147.5922460263593
 20
287.5661775108348
 30
0.0
 10
150.6709968037343
 20
285.4203046048009
 30
0.0
 10
152.5780650015226
 20
284.5101727348805
 30
0.0
 10
153.5406606700997
 20
284.0507822438453
 30
0.0
  0
SPLINE
  5
BD
330
1F
100
AcDbEntity
  8
0
  6
Continuous
 62
     7
100
AcDbSpline
210
0.0
220
0.0
230
1.0
 70
     8
 71
     3
 72
    10
 73
     6
 74
     0
 42
0.000000001
 43
0.00000001
 40
0.0
 40
0.0
 40
0.0
 40
0.0
 40
0.0839682091084631
 40
0.5661321237737533
 40
1.0
 40
1.0
 40
1.0
 40
1.0
 10
92.26701506048246
 20
284.0507822438453
 30
0.0
 10
92.55287586799118
 20
284.1774082309806
 30
0.0
 10
94.48021227038534
 20
285.031148471281
 30
0.0
 10
97.70467519614446
 20
287.0139634170241
 30
0.0
 10
100.0196635910505
 20
289.5348420128292
 30
0.0
 10
101.1161311027388
 20
290.7288270398354
 30
0.0
  0
LINE
  5
BE
330
1F
100
AcDbEntity
  8
0
  6
Continuous
 62
     7
100
AcDbLine
 10
142.4666708764
 20
293.4731142923
 30
0.0
 11
144.6915446278
 21
290.7288270398
 31
0.0
  0
LINE
  5
BF
330
1F
100
AcDbEntity
  8
0
  6
Continuous
 62
     7
100
AcDbLine
 10
101.1161311027
 20
290.7288270398
 30
0.0
 11
103.3410048541
 21
293.4731142923
 31
0.0
  0
SPLINE
  5
C0
330
1F
100
AcDbEntity
  8
0
  6
Continuous
 62
     7
100
AcDbSpline
210
0.0
220
0.0
230
1.0
 70
     8
 71
     3
 72
    10
 73
     6
 74
     0
 42
0.000000001
 43
0.00000001
 40
0.0
 40
0.0
 40
0.0
 40
0.0
 40
0.3067637958960139
 40
0.6865697087674775
 40
0.9999999999999999
 40
0.9999999999999999
 40
0.9999999999999999
 40
0.9999999999999999
 10
136.6272326987962
 20
296.2531941338753
 30
0.0
 10
137.3084753127703
 20
296.1973429951759
 30
0.0
 10
138.8331680872552
 20
296.0723422599387
 30
0.0
 10
140.9124059430989
 20
295.0914605383651
 30
0.0
 10
141.9827432668837
 20
293.9769939163288
 30
0.0
 10
142.4666708764414
 20
293.4731142922615
 30
0.0
  0
SPLINE
  5
C1
330
1F
100
AcDbEntity
  8
0
  6
Continuous
 62
     7
100
AcDbSpline
210
0.0
220
0.0
230
1.0
 70
     8
 71
     3
 72
    11
 73
     7
 74
     0
 42
0.000000001
 43
0.00000001
 40
0.0
 40
0.0
 40
0.0
 40
0.0
 40
0.2166151683240137
 40
0.5955545692899668
 40
0.9744701245081294
 40
1.0
 40
1.0
 40
1.0
 40
1.0
 10
103.3410048541407
 20
293.4731142922615
 30
0.0
 10
103.6657545848892
 20
293.8295474000203
 30
0.0
 10
104.5586107385897
 20
294.8095127810894
 30
0.0
 10
106.4872974480184
 20
295.9014449848993
 30
0.0
 10
108.226028005695
 20
296.2463246460122
 30
0.0
 10
109.1237744360963
 20
296.2527862565686
 30
0.0
 10
109.1804430317859
 20
296.2531941338752
 30
0.0
  0
LWPOLYLINE
  5
C2
330
1F
100
AcDbEntity
  8
0
  6
Continuous
 62
     7
100
AcDbPolyline
 90
        3
 70
   128
 43
0.0
 10
157.6394467112
 20
315.7532113
 10
157.2923427877
 20
318.5789781018
 10
157.1965692994
 20
319.3586366578
  0
LINE
  5
C3
330
1F
100
AcDbEntity
  8
0
  6
Continuous
 62
     7
100
AcDbLine
 10
157.6394467112
 20
315.7532113
 30
0.0
 11
88.1682290193
 21
315.7532113
 31
0.0
  0
LWPOLYLINE
  5
C4
330
1F
100
AcDbEntity
  8
0
  6
Continuous
 62
     7
100
AcDbPolyline
 90
        3
 70
   128
 43
0.0
 10
88.6111064312
 20
319.3586366578
 10
88.5153329429
 20
318.5789781018
 10
88.1682290193
 20
315.7532113
  0
LINE
  5
C5
330
1F
100
AcDbEntity
  8
0
  6
Continuous
 62
     7
100
AcDbLine
 10
156.6464780328
 20
315.6313496038
 30
0.0
 11
157.6394467112
 21
315.7532113
 31
0.0
  0
LINE
  5
C6
330
1F
100
AcDbEntity
  8
0
  6
Continuous
 62
     7
100
AcDbLine
 10
156.6464780328
 20
315.6313496038
 30
0.0
 11
89.1611976978
 21
315.6313496038
 31
0.0
  0
LINE
  5
C7
330
1F
100
AcDbEntity
  8
0
  6
Continuous
 62
     7
100
AcDbLine
 10
88.1682290193
 20
315.7532113
 30
0.0
 11
89.1611976978
 21
315.6313496038
 31
0.0
  0
SPLINE
  5
C8
330
1F
100
AcDbEntity
  8
0
  6
Continuous
 62
     7
100
AcDbSpline
210
0.0
220
0.0
230
1.0
 70
     8
 71
     3
 72
    11
 73
     7
 74
     0
 42
0.000000001
 43
0.00000001
 40
0.0
 40
0.0
 40
0.0
 40
0.0
 40
0.2711205884059517
 40
0.6001535686046402
 40
0.9292794074839339
 40
0.9999999999999999
 40
0.9999999999999999
 40
0.9999999999999999
 40
0.9999999999999999
 10
157.1965692993979
 20
319.3586366578315
 30
0.0
 10
157.1496886662082
 20
319.5858380486954
 30
0.0
 10
157.0459135177673
 20
320.088771914104
 30
0.0
 10
156.5984904791874
 20
320.764442559527
 30
0.0
 10
156.105273706614
 20
321.1590795503453
 30
0.0
 10
155.7986341388394
 20
321.3060099459817
 30
0.0
 10
155.7443989869933
 20
321.3319974347328
 30
0.0
  0
SPLINE
  5
C9
330
1F
100
AcDbEntity
  8
0
  6
Continuous
 62
     7
100
AcDbSpline
210
0.0
220
0.0
230
1.0
 70
     8
 71
     3
 72
    12
 73
     8
 74
     0
 42
0.000000001
 43
0.00000001
 40
0.0
 40
0.0
 40
0.0
 40
0.0
 40
0.1003043087095779
 40
0.4295441540926425
 40
0.6356918038557446
 40
0.964587158597134
 40
1.0
 40
1.0
 40
1.0
 40
1.0
 10
90.06327674358889
 20
321.3319974347328
 30
0.0
 10
89.9866651388725
 20
321.2944262917727
 30
0.0
 10
89.65858285242886
 20
321.1335312611529
 30
0.0
 10
89.23591550271993
 20
320.7741207948457
 30
0.0
 10
88.81811493732462
 20
320.1660659689758
 30
0.0
 10
88.65644858078852
 20
319.6954837591582
 30
0.0
 10
88.61512346857275
 20
319.388479252681
 30
0.0
 10
88.61110643118425
 20
319.3586366578315
 30
0.0
  0
LINE
  5
CA
330
1F
100
AcDbEntity
  8
0
  6
Continuous
 62
     7
100
AcDbLine
 10
94.7850970981
 20
323.4654562875
 30
0.0
 11
90.0632767436
 21
321.3319974347
 31
0.0
  0
LINE
  5
CB
330
1F
100
AcDbEntity
  8
0
  6
Continuous
 62
     7
100
AcDbLine
 10
155.744398987
 20
321.3319974347
 30
0.0
 11
151.0225786325
 21
323.4654562875
 31
0.0
  0
SPLINE
  5
CC
330
1F
100
AcDbEntity
  8
0
  6
Continuous
 62
     7
100
AcDbSpline
210
0.0
220
0.0
230
1.0
 70
     8
 71
     3
 72
     9
 73
     5
 74
     0
 42
0.000000001
 43
0.00000001
 40
0.0
 40
0.0
 40
0.0
 40
0.0
 40
0.8928049298314977
 40
1.0
 40
1.0
 40
1.0
 40
1.0
 10
151.0225786325316
 20
323.4654562875008
 30
0.0
 10
150.6681692241755
 20
323.6520575357009
 30
0.0
 10
150.2712074730537
 20
323.8610631560388
 30
0.0
 10
149.9256531603482
 20
324.1434660801056
 30
0.0
 10
149.8886114415507
 20
324.1737382813667
 30
0.0
  0
SPLINE
  5
CD
330
1F
100
AcDbEntity
  8
0
  6
Continuous
 62
     7
100
AcDbSpline
210
0.0
220
0.0
230
1.0
 70
     8
 71
     3
 72
     9
 73
     5
 74
     0
 42
0.000000001
 43
0.00000001
 40
0.0
 40
0.0
 40
0.0
 40
0.0
 40
0.7908844580913881
 40
0.9999999999999999
 40
0.9999999999999999
 40
0.9999999999999999
 40
0.9999999999999999
 10
95.91906428903147
 20
324.1737382813667
 30
0.0
 10
95.63430025927757
 20
323.962205957221
 30
0.0
 10
95.27424257090028
 20
323.6947429643886
 30
0.0
 10
94.8696944066466
 20
323.5051112303312
 30
0.0
 10
94.78509709805056
 20
323.4654562875008
 30
0.0
  0
SPLINE
  5
CE
330
1F
100
AcDbEntity
  8
0
  6
Continuous
 62
     7
100
AcDbSpline
210
0.0
220
0.0
230
1.0
 70
     8
 71
     3
 72
    12
 73
     8
 74
     0
 42
0.000000001
 43
0.00000001
 40
0.0
 40
0.0
 40
0.0
 40
0.0
 40
0.1503424362697018
 40
0.3023534596557139
 40
0.5416629714515911
 40
0.7878960002830829
 40
1.0
 40
1.0
 40
1.0
 40
1.0
 10
149.8886114415507
 20
324.1737382813668
 30
0.0
 10
148.9855787110851
 20
324.8774561192947
 30
0.0
 10
147.1694908717953
 20
326.2927020618124
 30
0.0
 10
143.6039709438857
 20
328.3822816258548
 30
0.0
 10
139.1193793629516
 20
330.2728611053593
 30
0.0
 10
133.9247888880417
 20
331.537872340298
 30
0.0
 10
130.4349197870927
 20
331.6850874073987
 30
0.0
 10
128.8199178372304
 20
331.7532139226173
 30
0.0
  0
SPLINE
  5
CF
330
1F
100
AcDbEntity
  8
0
  6
Continuous
 62
     7
100
AcDbSpline
210
0.0
220
0.0
230
1.0
 70
     8
 71
     3
 72
    12
 73
     8
 74
     0
 42
0.000000001
 43
0.00000001
 40
0.0
 40
0.0
 40
0.0
 40
0.0
 40
0.2234234500264098
 40
0.4523638907130993
 40
0.6939717355996526
 40
0.9427192975875803
 40
1.0
 40
1.0
 40
1.0
 40
1.0
 10
116.9877578933518
 20
331.7532139226173
 30
0.0
 10
115.286520450209
 20
331.6782743856921
 30
0.0
 10
111.8420369426993
 20
331.5265448313963
 30
0.0
 10
106.6824411855731
 20
330.2595140939348
 30
0.0
 10
101.6143876889606
 20
328.1493546768491
 30
0.0
 10
98.06845867567155
 20
325.9109871247932
 30
0.0
 10
96.25794615398556
 20
324.4476396796438
 30
0.0
 10
95.91906428903147
 20
324.1737382813667
 30
0.0
  0
LINE
  5
D0
330
1F
100
AcDbEntity
  8
0
  6
Continuous
 62
     7
100
AcDbLine
 10
128.8199178372
 20
331.7532139226
 30
0.0
 11
116.9877578934
 21
331.7532139226
 31
0.0
  0
SPLINE
  5
D1
330
1F
100
AcDbEntity
  8
0
  6
Continuous
 62
     7
100
AcDbSpline
210
0.0
220
0.0
230
1.0
 70
     8
 71
     3
 72
    11
 73
     7
 74
     0
 42
0.000000001
 43
0.00000001
 40
0.0
 40
0.0
 40
0.0
 40
0.0
 40
0.0478487851981527
 40
0.4037617977036545
 40
0.7595506345126104
 40
0.9999999999999999
 40
0.9999999999999999
 40
0.9999999999999999
 40
0.9999999999999999
 10
154.0821074005942
 20
313.8346569939827
 30
0.0
 10
154.1259288972144
 20
313.8457336391729
 30
0.0
 10
154.4957072767521
 20
313.9392015538954
 30
0.0
 10
155.1480504334745
 20
314.2626895292923
 30
0.0
 10
155.8279129105745
 20
314.8950458877824
 30
0.0
 10
156.0438252843404
 20
315.4197488006359
 30
0.0
 10
156.1308978554587
 20
315.6313496037696
 30
0.0
  0
LINE
  5
D2
330
1F
100
AcDbEntity
  8
0
  6
Continuous
 62
     7
100
AcDbLine
 10
154.0821074006
 20
313.834656994
 30
0.0
 11
91.72556833
 21
313.834656994
 31
0.0
  0
SPLINE
  5
D3
330
1F
100
AcDbEntity
  8
0
  6
Continuous
 62
     7
100
AcDbSpline
210
0.0
220
0.0
230
1.0
 70
     8
 71
     3
 72
    12
 73
     8
 74
     0
 42
0.000000001
 43
0.00000001
 40
0.0
 40
0.0
 40
0.0
 40
0.0
 40
0.0674303205938963
 40
0.2889175841032496
 40
0.6434620625860267
 40
0.9980073478254315
 40
1.0
 40
1.0
 40
1.0
 40
1.0
 10
89.66475636333033
 20
315.6313496037696
 30
0.0
 10
89.68078824699508
 20
315.5692859351371
 30
0.0
 10
89.74947979489586
 20
315.3033627563066
 30
0.0
 10
90.11577320190187
 20
314.7970598156125
 30
0.0
 10
90.75615957320599
 20
314.1817963901075
 30
0.0
 10
91.39510590332634
 20
313.9131969410842
 30
0.0
 10
91.7237316758998
 20
313.8350935056805
 30
0.0
 10
91.72556832998796
 20
313.8346569939827
 30
0.0
  0
LINE
  5
D4
330
1F
100
AcDbEntity
  8
0
  6
Continuous
 62
     7
100
AcDbLine
 10
152.9504759666
 20
311.1956017419
 30
0.0
 11
154.0821074006
 21
313.834656994
 31
0.0
  0
LINE
  5
D5
330
1F
100
AcDbEntity
  8
0
  6
Continuous
 62
     7
100
AcDbLine
 10
91.72556833
 20
313.834656994
 30
0.0
 11
92.857199764
 21
311.1956017419
 31
0.0
  0
SPLINE
  5
D6
330
1F
100
AcDbEntity
  8
0
  6
Continuous
 62
     7
100
AcDbSpline
210
0.0
220
0.0
230
1.0
 70
     8
 71
     3
 72
    10
 73
     6
 74
     0
 42
0.000000001
 43
0.00000001
 40
0.0
 40
0.0
 40
0.0
 40
0.0
 40
0.3620160056832397
 40
0.8473551639115288
 40
1.0
 40
1.0
 40
1.0
 40
1.0
 10
152.0201014783959
 20
310.2016644879554
 30
0.0
 10
152.1634151191262
 20
310.2887332105556
 30
0.0
 10
152.4988631424881
 20
310.4925311933856
 30
0.0
 10
152.7955068355649
 20
310.8654925237552
 30
0.0
 10
152.9205564434603
 20
311.1318683368528
 30
0.0
 10
152.9504759666304
 20
311.1956017419075
 30
0.0
  0
SPLINE
  5
D7
330
1F
100
AcDbEntity
  8
0
  6
Continuous
 62
     7
100
AcDbSpline
210
0.0
220
0.0
230
1.0
 70
     8
 71
     3
 72
    10
 73
     6
 74
     0
 42
0.000000001
 43
0.00000001
 40
0.0
 40
0.0
 40
0.0
 40
0.0
 40
0.156831676570063
 40
0.6419461649314466
 40
1.0
 40
1.0
 40
1.0
 40
1.0
 10
92.85719976395174
 20
311.1956017419075
 30
0.0
 10
92.8879974800199
 20
311.1301424817201
 30
0.0
 10
93.01405923075154
 20
310.8622034916162
 30
0.0
 10
93.31188151952274
 20
310.4902000708432
 30
0.0
 10
93.64578232299198
 20
310.2876696213738
 30
0.0
 10
93.78757425218626
 20
310.2016644879555
 30
0.0
  0
SPLINE
  5
D8
330
1F
100
AcDbEntity
  8
0
  6
Continuous
 62
     7
100
AcDbSpline
210
0.0
220
0.0
230
1.0
 70
     8
 71
     3
 72
    13
 73
     9
 74
     0
 42
0.000000001
 43
0.00000001
 40
0.0
 40
0.0
 40
0.0
 40
0.0
 40
0.1634822545966215
 40
0.3455142773856427
 40
0.5275458781391279
 40
0.7215292368078973
 40
0.9155121521677821
 40
1.0
 40
1.0
 40
1.0
 40
1.0
 10
140.5455330815892
 20
297.5276010438179
 30
0.0
 10
140.9222099633217
 20
298.4029987914338
 30
0.0
 10
141.7183039548121
 20
300.2531226531266
 30
0.0
 10
143.3695792415325
 20
302.8585754302011
 30
0.0
 10
145.4346143507831
 20
305.3775085903453
 30
0.0
 10
147.8893704854285
 20
307.6265388570751
 30
0.0
 10
150.1549113151284
 20
309.2070054517832
 30
0.0
 10
151.5859310305656
 20
309.9701323001507
 30
0.0
 10
152.0201014783959
 20
310.2016644879554
 30
0.0
  0
SPLINE
  5
D9
330
1F
100
AcDbEntity
  8
0
  6
Continuous
 62
     7
100
AcDbSpline
210
0.0
220
0.0
230
1.0
 70
     8
 71
     3
 72
    13
 73
     9
 74
     0
 42
0.000000001
 43
0.00000001
 40
0.0
 40
0.0
 40
0.0
 40
0.0
 40
0.107356389425708
 40
0.2899221622635857
 40
0.4724869026393903
 40
0.6664682142055192
 40
0.8604497192296964
 40
1.0
 40
1.0
 40
1.0
 40
1.0
 10
93.78757425218626
 20
310.2016644879554
 30
0.0
 10
94.33802601473414
 20
309.9048519705918
 30
0.0
 10
95.82455295619874
 20
309.1032925358781
 30
0.0
 10
98.06887796644436
 20
307.4938267412456
 30
0.0
 10
100.4664813752658
 20
305.2787974488025
 30
0.0
 10
102.5672303792748
 20
302.6928253501115
 30
0.0
 10
104.1842458365631
 20
300.0649764463586
 30
0.0
 10
104.9441834333578
 20
298.2760788975979
 30
0.0
 10
105.262142648993
 20
297.5276010438179
 30
0.0
  0
SPLINE
  5
DA
330
1F
100
AcDbEntity
  8
0
  6
Continuous
 62
     7
100
AcDbSpline
210
0.0
220
0.0
230
1.0
 70
     8
 71
     3
 72
    12
 73
     8
 74
     0
 42
0.000000001
 43
0.00000001
 40
0.0
 40
0.0
 40
0.0
 40
0.0
 40
0.0752786081775411
 40
0.3571574760588812
 40
0.6388176361366336
 40
0.9200402693587048
 40
1.0
 40
1.0
 40
1.0
 40
1.0
 10
138.6784548369031
 20
296.2531941338752
 30
0.0
 10
138.7384658782798
 20
296.2548708542286
 30
0.0
 10
139.0231867650318
 20
296.2628260120612
 30
0.0
 10
139.5267025785204
 20
296.3997030642709
 30
0.0
 10
140.0927164275557
 20
296.7838013356509
 30
0.0
 10
140.4080300080343
 20
297.2037445163128
 30
0.0
 10
140.520609799815
 20
297.4689000469547
 30
0.0
 10
140.5455330815892
 20
297.5276010438179
 30
0.0
  0
LINE
  5
DB
330
1F
100
AcDbEntity
  8
0
  6
Continuous
 62
     7
100
AcDbLine
 10
138.6784548369
 20
296.2531941339
 30
0.0
 11
107.1292208937
 21
296.2531941339
 31
0.0
  0
SPLINE
  5
DC
330
1F
100
AcDbEntity
  8
0
  6
Continuous
 62
     7
100
AcDbSpline
210
0.0
220
0.0
230
1.0
 70
     8
 71
     3
 72
    12
 73
     8
 74
     0
 42
0.000000001
 43
0.00000001
 40
0.0
 40
0.0
 40
0.0
 40
0.0
 40
0.0480617460570292
 40
0.2227334357194733
 40
0.5036909027640019
 40
0.784640039957238
 40
1.0
 40
1.0
 40
1.0
 40
1.0
 10
105.262142648993
 20
297.5276010438179
 30
0.0
 10
105.2767166123141
 20
297.4921339631197
 30
0.0
 10
105.3442569991889
 20
297.327768217242
 30
0.0
 10
105.551995015257
 20
296.9795670474613
 30
0.0
 10
105.9840172815318
 20
296.5675853786598
 30
0.0
 10
106.5601824591815
 20
296.2964097560446
 30
0.0
 10
106.9570227444652
 20
296.2662717217912
 30
0.0
 10
107.1292208936791
 20
296.2531941338752
 30
0.0
  0
ARC
  5
DD
330
1F
100
AcDbEntity
  8
0
  6
Continuous
 62
     7
100
AcDbCircle
 10
-179.52357645
 20
636.8598234924
 30
0.0
 40
478.5379481481676
100
AcDbArc
 50
294.5385283932
 51
295.460466633
  0
ARC
  5
DE
330
1F
100
AcDbEntity
  8
0
  6
Continuous
 62
     7
100
AcDbCircle
 10
22.1579176485
 20
203.3275416685
 30
0.0
 40
2.693354059338161
100
AcDbArc
 50
124.7405506943
 51
148.3908421893
  0
ARC
  5
DF
330
1F
100
AcDbEntity
  8
0
  6
Continuous
 62
     7
100
AcDbCircle
 10
-99.5727632398
 20
463.6920906712
 30
0.0
 40
285.1697388795231
100
AcDbArc
 50
294.7605793494
 51
294.925924866
  0
ARC
  5
E0
330
1F
100
AcDbEntity
  8
0
  6
Continuous
 62
     7
100
AcDbCircle
 10
23.3163790723
 20
203.2216722216
 30
0.0
 40
3.284994996293069
100
AcDbArc
 50
124.7468952333
 51
145.4444127778
  0
ARC
  5
E1
330
1F
100
AcDbEntity
  8
0
  6
Continuous
 62
     7
100
AcDbCircle
 10
22.3954514882
 20
202.5426297797
 30
0.0
 40
3.509652954882737
100
AcDbArc
 50
85.624985966
 51
105.7279656295
  0
ARC
  5
E2
330
1F
100
AcDbEntity
  8
0
  6
Continuous
 62
     7
100
AcDbCircle
 10
-79.8789831303
 20
425.1610290692
 30
0.0
 40
241.9256499712282
100
AcDbArc
 50
295.0784113255
 51
295.2646684402
  0
ARC
  5
E3
330
1F
100
AcDbEntity
  8
0
  6
Continuous
 62
     7
100
AcDbCircle
 10
23.0194309906
 20
203.4773969778
 30
0.0
 40
2.920877476016531
100
AcDbArc
 50
83.0087930515
 51
105.7500131458
  0
ARC
  5
E4
330
1F
100
AcDbEntity
  8
0
  6
Continuous
 62
     7
100
AcDbCircle
 10
23.2757264084
 20
203.110770007
 30
0.0
 40
3.365236811047744
100
AcDbArc
 50
123.7607353503
 51
138.2971117634
  0
LINE
  5
E5
330
1F
100
AcDbEntity
  8
0
  6
Continuous
 62
     7
100
AcDbLine
 10
20.623079544
 20
205.5407809421
 30
0.0
 11
20.7873871979
 21
205.3165929719
 31
0.0
  0
LINE
  5
E6
330
1F
100
AcDbEntity
  8
0
  6
Continuous
 62
     7
100
AcDbLine
 10
22.2265860495
 20
206.2886106178
 30
0.0
 11
22.2850805578
 21
206.049759905
 31
0.0
  0
LINE
  5
E7
330
1F
100
AcDbEntity
  8
0
  6
Continuous
 62
     7
100
AcDbLine
 10
21.4055767712
 20
205.908511798
 30
0.0
 11
21.4106506166
 21
205.8977680608
 31
0.0
  0
ARC
  5
E8
330
1F
100
AcDbEntity
  8
0
  6
Continuous
 62
     7
100
AcDbCircle
 10
401.6796073708
 20
584.9744303781
 30
0.0
 40
421.3459134928374
100
AcDbArc
 50
244.8036131934
 51
245.4539376524
  0
ARC
  5
E9
330
1F
100
AcDbEntity
  8
0
  6
Continuous
 62
     7
100
AcDbCircle
 10
310.0201059552
 20
393.4683603138
 30
0.0
 40
209.0441672243722
100
AcDbArc
 50
244.3904023881
 51
245.1900934921
  0
ARC
  5
EA
330
1F
100
AcDbEntity
  8
0
  6
Continuous
 62
     7
100
AcDbCircle
 10
223.1156146108
 20
205.5891066819
 30
0.0
 40
1.13487951341337
100
AcDbArc
 50
7.1935363739
 51
37.0823709298
  0
LWPOLYLINE
  5
EB
330
1F
100
AcDbEntity
  8
0
  6
Continuous
 62
     7
100
AcDbPolyline
 90
        3
 70
   128
 43
0.0
 10
223.7344151792
 20
206.3602554008
 10
223.8345956859
 20
206.3318686887
 10
224.0209868607
 20
206.2733965322
  0
LINE
  5
EC
330
1F
100
AcDbEntity
  8
0
  6
Continuous
 62
     7
100
AcDbLine
 10
222.2290775236
 20
206.6624360486
 30
0.0
 11
222.2296661195
 21
206.6624211475
 31
0.0
  0
ARC
  5
ED
330
1F
100
AcDbEntity
  8
0
  6
Continuous
 62
     7
100
AcDbCircle
 10
222.1097041029
 20
201.4959054216
 30
0.0
 40
5.167909512898571
100
AcDbArc
 50
71.5544697411
 51
88.6764084104
  0
ARC
  5
EE
330
1F
100
AcDbEntity
  8
0
  6
Continuous
 62
     7
100
AcDbCircle
 10
223.8524550413
 20
205.6138619984
 30
0.0
 40
0.7917973407087094
100
AcDbArc
 50
97.8109426041
 51
135.9297832348
  0
LWPOLYLINE
  5
EF
330
1F
100
AcDbEntity
  8
0
  6
Continuous
 62
     7
100
AcDbPolyline
 90
        9
 70
   128
 43
0.0
 10
224.2841711697
 20
205.6971388265
 10
224.1538456139
 20
205.757920663
 10
224.0239596423
 20
205.8185236856
 10
223.895064598
 20
205.8786945745
 10
223.767674571
 20
205.9381949111
 10
223.6423185524
 20
205.9967713758
 10
223.519518083
 20
206.0541855499
 10
223.3997649011
 20
206.1101990148
 10
223.2835581955
 20
206.1645882531
  0
ARC
  5
F0
330
1F
100
AcDbEntity
  8
0
  6
Continuous
 62
     7
100
AcDbCircle
 10
224.9237754566
 20
204.7150861926
 30
0.0
 40
1.171973130853863
100
AcDbArc
 50
93.8592779848
 51
123.075928042
  0
ARC
  5
F1
330
1F
100
AcDbEntity
  8
0
  6
Continuous
 62
     7
100
AcDbCircle
 10
221.9878096658
 20
201.2511651481
 30
0.0
 40
5.443327510548353
100
AcDbArc
 50
41.8031379476
 51
58.3399459665
  0
ARC
  5
F2
330
1F
100
AcDbEntity
  8
0
  6
Continuous
 62
     7
100
AcDbCircle
 10
229.6345935116
 20
212.4784877107
 30
0.0
 40
8.40391016377892
100
AcDbArc
 50
244.7178299503
 51
246.5975045088
  0
ARC
  5
F3
330
1F
100
AcDbEntity
  8
0
  6
Continuous
 62
     7
100
AcDbCircle
 10
222.4085081049
 20
201.3576535949
 30
0.0
 40
5.170486043112251
100
AcDbArc
 50
41.2369386251
 51
58.3575065743
  0
LINE
  5
F4
330
1F
100
AcDbEntity
  8
0
  6
Continuous
 62
     7
100
AcDbLine
 10
223.744845992
 20
206.3983129665
 30
0.0
 11
223.6356502828
 21
205.9998857185
 31
0.0
  0
LINE
  5
F5
330
1F
100
AcDbEntity
  8
0
  6
Continuous
 62
     7
100
AcDbLine
 10
225.1210352835
 20
205.7594852849
 30
0.0
 11
225.0944590625
 21
205.7210551902
 31
0.0
  0
LINE
  5
F6
330
1F
100
AcDbEntity
  8
0
  6
Continuous
 62
     7
100
AcDbLine
 10
224.0209868607
 20
206.2733965322
 30
0.0
 11
223.8854086456
 21
205.8831947252
 31
0.0
  0
LINE
  5
F7
330
1F
100
AcDbEntity
  8
0
  6
Continuous
 62
     7
100
AcDbLine
 10
101.5954120514
 20
-26.9281183974
 30
0.0
 11
101.4280366209
 21
-26.9227428035
 31
0.0
  0
LINE
  5
F8
330
1F
100
AcDbEntity
  8
0
  6
Continuous
 62
     7
100
AcDbLine
 10
101.3532290664
 20
-26.5140300289
 30
0.0
 11
100.9151703176
 21
-24.8860893444
 31
0.0
  0
LINE
  5
F9
330
1F
100
AcDbEntity
  8
0
  6
Continuous
 62
     7
100
AcDbLine
 10
144.4544466642
 20
-26.5140263037
 30
0.0
 11
144.8925072756
 21
-24.8860856191
 31
0.0
  0
LINE
  5
FA
330
1F
100
AcDbEntity
  8
0
  6
Continuous
 62
     7
100
AcDbLine
 10
101.2612590995
 20
-25.9755914704
 30
0.0
 11
100.9363970217
 21
-24.3744877771
 31
0.0
  0
SPLINE
  5
FB
330
1F
100
AcDbEntity
  8
0
  6
Continuous
 62
     7
100
AcDbSpline
210
0.0
220
0.0
230
1.0
 70
     8
 71
     3
 72
    18
 73
    14
 74
     0
 42
0.000000001
 43
0.00000001
 40
0.0
 40
0.0
 40
0.0
 40
0.0
 40
0.0654252395209491
 40
0.1308589900579519
 40
0.1963018058492315
 40
0.2617571627301074
 40
0.3926501748678701
 40
0.5236062300222908
 40
0.6284560590477636
 40
0.7332812868840193
 40
0.8382498257652617
 40
0.9432254945208316
 40
1.0
 40
1.0
 40
1.0
 40
1.0
 10
100.2764506694655
 20
-26.14924215233579
 30
0.0
 10
100.1152358623604
 20
-25.30833671083656
 30
0.0
 10
99.79278527609378
 20
-23.62641643642029
 30
0.0
 10
99.1511372034711
 20
-21.15937834439795
 30
0.0
 10
98.39990011527641
 20
-18.74370170081384
 30
0.0
 10
97.24482756456844
 20
-15.60704717056259
 30
0.0
 10
95.53457615785936
 20
-11.85675386569936
 30
0.0
 10
93.27605530532543
 20
-7.963487322649468
 30
0.0
 10
90.94416996609328
 20
-4.634394503311142
 30
0.0
 10
88.63437469592962
 20
-1.803930432275225
 30
0.0
 10
86.20299746708095
 20
0.7592729162368694
 30
0.0
 10
84.07735043224193
 20
2.751086796863742
 30
0.0
 10
82.76260499517647
 20
3.788923783789477
 30
0.0
 10
82.3011277672629
 20
4.153205813032843
 30
0.0
  0
LINE
  5
FC
330
1F
100
AcDbEntity
  8
0
  6
Continuous
 62
     7
100
AcDbLine
 10
144.546416631
 20
-25.9755914704
 30
0.0
 11
144.8712787089
 21
-24.3744877771
 31
0.0
  0
SPLINE
  5
FD
330
1F
100
AcDbEntity
  8
0
  6
Continuous
 62
     7
100
AcDbSpline
210
0.0
220
0.0
230
1.0
 70
     8
 71
     3
 72
    18
 73
    14
 74
     0
 42
0.000000001
 43
0.00000001
 40
0.0
 40
0.0
 40
0.0
 40
0.0
 40
0.0654252395209491
 40
0.1308589900579519
 40
0.1963018058492315
 40
0.2617571627301074
 40
0.3926501748678701
 40
0.5236062300222908
 40
0.6284560590477636
 40
0.7332812868840193
 40
0.8382498257652617
 40
0.9432254945208316
 40
1.0
 40
1.0
 40
1.0
 40
1.0
 10
145.5312250611167
 20
-26.14924215233579
 30
0.0
 10
145.6924398682218
 20
-25.30833671083656
 30
0.0
 10
146.0148904544884
 20
-23.62641643642029
 30
0.0
 10
146.6565385271111
 20
-21.15937834439795
 30
0.0
 10
147.4077756153058
 20
-18.74370170081384
 30
0.0
 10
148.5628481660137
 20
-15.60704717056259
 30
0.0
 10
150.2730995727228
 20
-11.85675386569936
 30
0.0
 10
152.5316204252567
 20
-7.963487322649468
 30
0.0
 10
154.8635057644889
 20
-4.634394503311142
 30
0.0
 10
157.1733010346526
 20
-1.803930432275225
 30
0.0
 10
159.6046782635012
 20
0.7592729162368694
 30
0.0
 10
161.7303252983402
 20
2.751086796863742
 30
0.0
 10
163.0450707354057
 20
3.788923783789477
 30
0.0
 10
163.5065479633193
 20
4.153205813032843
 30
0.0
  0
SPLINE
  5
FE
330
1F
100
AcDbEntity
  8
0
  6
Continuous
 62
     7
100
AcDbSpline
210
0.0
220
0.0
230
1.0
 70
     8
 71
     3
 72
    19
 73
    15
 74
     0
 42
0.000000001
 43
0.00000001
 40
0.0
 40
0.0
 40
0.0
 40
0.0
 40
0.0776462610650639
 40
0.161684310514613
 40
0.2456618811606712
 40
0.3296294812000273
 40
0.41349014663606
 40
0.4973898992447338
 40
0.6231095025615989
 40
0.748762097356735
 40
0.8115897440852897
 40
0.8744053583939514
 40
0.9372082360000196
 40
1.0
 40
1.0
 40
1.0
 40
1.0
 10
162.7326040026526
 20
4.153205813032843
 30
0.0
 10
162.0588649199695
 20
3.650633915385906
 30
0.0
 10
160.6559250030159
 20
2.604118736928368
 30
0.0
 10
158.6536098388374
 20
0.8146789438381319
 30
0.0
 10
156.6998187541896
 20
-1.169939075950172
 30
0.0
 10
154.861739584633
 20
-3.318665980882665
 30
0.0
 10
153.139111228814
 20
-5.624917731643683
 30
0.0
 10
151.2694937981867
 20
-8.493289904557624
 30
0.0
 10
149.3342181007396
 20
-12.01529068175068
 30
0.0
 10
147.7561315860773
 20
-15.56320679885274
 30
0.0
 10
146.6385542862968
 20
-18.52330022951119
 30
0.0
 10
145.8750058431577
 20
-20.79945853147151
 30
0.0
 10
145.1800996183738
 20
-23.12107607269913
 30
0.0
 10
144.7800736430904
 20
-24.70142347076133
 30
0.0
 10
144.5800783541779
 20
-25.49152724898114
 30
0.0
  0
SPLINE
  5
FF
330
1F
100
AcDbEntity
  8
0
  6
Continuous
 62
     7
100
AcDbSpline
210
0.0
220
0.0
230
1.0
 70
     8
 71
     3
 72
    19
 73
    15
 74
     0
 42
0.000000001
 43
0.00000001
 40
0.0
 40
0.0
 40
0.0
 40
0.0
 40
0.0776462610650639
 40
0.161684310514613
 40
0.2456618811606712
 40
0.3296294812000273
 40
0.41349014663606
 40
0.4973898992447338
 40
0.6231095025615989
 40
0.748762097356735
 40
0.8115897440852897
 40
0.8744053583939514
 40
0.9372082360000196
 40
1.0
 40
1.0
 40
1.0
 40
1.0
 10
83.07507172792955
 20
4.153205813032843
 30
0.0
 10
83.74881081061271
 20
3.650633915385906
 30
0.0
 10
85.15175072756625
 20
2.604118736928368
 30
0.0
 10
87.15406589174479
 20
0.8146789438381319
 30
0.0
 10
89.10785697639257
 20
-1.169939075950172
 30
0.0
 10
90.94593614594912
 20
-3.318665980882665
 30
0.0
 10
92.66856450176815
 20
-5.624917731643683
 30
0.0
 10
94.53818193239539
 20
-8.493289904557624
 30
0.0
 10
96.47345762984251
 20
-12.01529068175068
 30
0.0
 10
98.0515441445049
 20
-15.56320679885274
 30
0.0
 10
99.16912144428532
 20
-18.52330022951119
 30
0.0
 10
99.93266988742442
 20
-20.79945853147151
 30
0.0
 10
100.6275761122083
 20
-23.12107607269913
 30
0.0
 10
101.0276020874918
 20
-24.70142347076133
 30
0.0
 10
101.2275973764042
 20
-25.49152724898114
 30
0.0
  0
ARC
  5
100
330
1F
100
AcDbEntity
  8
0
  6
Continuous
 62
     7
100
AcDbCircle
 10
221.438339731
 20
-43.9683700023
 30
0.0
 40
79.04799845663659
100
AcDbArc
 50
166.4825163172
 51
167.6949808987
  0
ARC
  5
101
330
1F
100
AcDbEntity
  8
0
  6
Continuous
 62
     7
100
AcDbCircle
 10
24.3693359996
 20
-43.9683700023
 30
0.0
 40
79.0479984566366
100
AcDbArc
 50
12.3050191013
 51
13.5174836828
  0
SPLINE
  5
102
330
1F
100
AcDbEntity
  8
0
  6
Continuous
 62
     7
100
AcDbSpline
210
0.0
220
0.0
230
1.0
 70
     8
 71
     3
 72
    13
 73
     9
 74
     0
 42
0.000000001
 43
0.00000001
 40
0.0
 40
0.0
 40
0.0
 40
0.0
 40
0.0923695604657238
 40
0.2727092891594535
 40
0.5299604526266368
 40
0.7584179914254491
 40
0.8453805207540162
 40
1.0
 40
1.0
 40
1.0
 40
1.0
 10
144.2063181158881
 20
-27.12197877919927
 30
0.0
 10
144.1998666558865
 20
-27.17508726945801
 30
0.0
 10
144.1808195470534
 20
-27.33188328054402
 30
0.0
 10
144.1455656582583
 20
-27.62115236734512
 30
0.0
 10
144.0991297376036
 20
-27.92548468770283
 30
0.0
 10
144.0526673656824
 20
-28.09155885544602
 30
0.0
 10
144.018784890008
 20
-28.17152542462804
 30
0.0
 10
144.0025610078935
 20
-28.18043295358381
 30
0.0
 10
143.9921772536616
 20
-28.186134029987
 30
0.0
  0
LINE
  5
103
330
1F
100
AcDbEntity
  8
0
  6
Continuous
 62
     7
100
AcDbLine
 10
101.8154984769
 20
-28.18613403
 30
0.0
 11
143.9921772537
 21
-28.18613403
 31
0.0
  0
SPLINE
  5
104
330
1F
100
AcDbEntity
  8
0
  6
Continuous
 62
     7
100
AcDbSpline
210
0.0
220
0.0
230
1.0
 70
     8
 71
     3
 72
    13
 73
     9
 74
     0
 42
0.000000001
 43
0.00000001
 40
0.0
 40
0.0
 40
0.0
 40
0.0
 40
0.0923695604657238
 40
0.2727092891594535
 40
0.5299604526266368
 40
0.7584179914254491
 40
0.8453805207540162
 40
1.0
 40
1.0
 40
1.0
 40
1.0
 10
101.6013576146941
 20
-27.12197877919927
 30
0.0
 10
101.6078090746956
 20
-27.17508726945801
 30
0.0
 10
101.6268561835288
 20
-27.33188328054402
 30
0.0
 10
101.6621100723238
 20
-27.62115236734512
 30
0.0
 10
101.7085459929786
 20
-27.92548468770283
 30
0.0
 10
101.7550083648997
 20
-28.09155885544602
 30
0.0
 10
101.7888908405742
 20
-28.17152542462804
 30
0.0
 10
101.8051147226886
 20
-28.18043295358381
 30
0.0
 10
101.8154984769206
 20
-28.186134029987
 30
0.0
  0
LWPOLYLINE
  5
105
330
1F
100
AcDbEntity
  8
0
  6
Continuous
 62
     7
100
AcDbPolyline
 90
        9
 70
   128
 43
0.0
 10
145.346914461
 20
-27.1945101813
 10
145.3699758705
 20
-27.0637338654
 10
145.3930298296
 20
-26.9329873518
 10
145.416076338
 20
-26.8022743658
 10
145.4391191211
 20
-26.6715986327
 10
145.4621544537
 20
-26.5409564272
 10
145.4851841983
 20
-26.4103477494
 10
145.508208355
 20
-26.2797763244
 10
145.5312250611
 20
-26.1492421523
  0
LINE
  5
106
330
1F
100
AcDbEntity
  8
0
  6
Continuous
 62
     7
100
AcDbLine
 10
144.3621078935
 20
-27.0208632246
 30
0.0
 11
145.346914461
 21
-27.1945101813
 31
0.0
  0
LWPOLYLINE
  5
107
330
1F
100
AcDbEntity
  8
0
  6
Continuous
 62
     7
100
AcDbPolyline
 90
        9
 70
   128
 43
0.0
 10
144.3621078935
 20
-27.0208632246
 10
144.3851674405
 20
-26.8900831834
 10
144.4082213995
 20
-26.7593366698
 10
144.4312697706
 20
-26.6286274091
 10
144.4543106911
 20
-26.4979479507
 10
144.4773460236
 20
-26.3673057452
 10
144.5003757682
 20
-26.2367007927
 10
144.5233999249
 20
-26.1061293677
 10
144.546416631
 20
-25.9755914704
  0
LINE
  5
108
330
1F
100
AcDbEntity
  8
0
  6
Continuous
 62
     7
100
AcDbLine
 10
101.4455678371
 20
-27.0208632246
 30
0.0
 11
100.4607612696
 21
-27.1945101813
 31
0.0
  0
LWPOLYLINE
  5
109
330
1F
100
AcDbEntity
  8
0
  6
Continuous
 62
     7
100
AcDbPolyline
 90
        9
 70
   128
 43
0.0
 10
100.4607612696
 20
-27.1945101813
 10
100.43769986
 20
-27.0637338654
 10
100.414645901
 20
-26.9329873518
 10
100.3915993926
 20
-26.8022743658
 10
100.3685566094
 20
-26.6715986327
 10
100.3455212769
 20
-26.5409564272
 10
100.3224915323
 20
-26.4103477494
 10
100.2994673756
 20
-26.2797763244
 10
100.2764506695
 20
-26.1492421523
  0
LWPOLYLINE
  5
10A
330
1F
100
AcDbEntity
  8
0
  6
Continuous
 62
     7
100
AcDbPolyline
 90
        9
 70
   128
 43
0.0
 10
101.4455678371
 20
-27.0208632246
 10
101.4225082901
 20
-26.8900831834
 10
101.3994543311
 20
-26.7593366698
 10
101.37640596
 20
-26.6286274091
 10
101.3533650395
 20
-26.4979479507
 10
101.330329707
 20
-26.3673057452
 10
101.3072999623
 20
-26.2367007927
 10
101.2842758057
 20
-26.1061293677
 10
101.2612590995
 20
-25.9755914704
  0
SPLINE
  5
10B
330
1F
100
AcDbEntity
  8
0
  6
Continuous
 62
     7
100
AcDbSpline
210
0.0
220
0.0
230
1.0
 70
     8
 71
     3
 72
    13
 73
     9
 74
     0
 42
0.000000001
 43
0.00000001
 40
0.0
 40
0.0
 40
0.0
 40
0.0
 40
0.0924506107435785
 40
0.2720115841488377
 40
0.531858197328088
 40
0.6175437551812267
 40
0.7627352673646323
 40
1.0
 40
1.0
 40
1.0
 40
1.0
 10
144.1651462075095
 20
-28.186134029987
 30
0.0
 10
144.216656053905
 20
-28.18412365378149
 30
0.0
 10
144.3682102167668
 20
-28.17820865103572
 30
0.0
 10
144.6578122026557
 20
-28.10049586120554
 30
0.0
 10
144.9120729411711
 20
-27.94172407462105
 30
0.0
 10
145.1012184246015
 20
-27.74476636718985
 30
0.0
 10
145.2548091949506
 20
-27.53030594996629
 30
0.0
 10
145.3116512826734
 20
-27.3230720602345
 30
0.0
 10
145.3469144609551
 20
-27.19451018131032
 30
0.0
  0
LINE
  5
10C
330
1F
100
AcDbEntity
  8
0
  6
Continuous
 62
     7
100
AcDbLine
 10
144.1651462075
 20
-27.4552767769
 30
0.0
 11
144.1651462075
 21
-28.18613403
 31
0.0
  0
SPLINE
  5
10D
330
1F
100
AcDbEntity
  8
0
  6
Continuous
 62
     7
100
AcDbSpline
210
0.0
220
0.0
230
1.0
 70
     8
 71
     3
 72
    13
 73
     9
 74
     0
 42
0.000000001
 43
0.00000001
 40
0.0
 40
0.0
 40
0.0
 40
0.0
 40
0.091310349748155
 40
0.2678419900779286
 40
0.525777764299777
 40
0.6125786654914145
 40
0.7605033045726969
 40
1.0
 40
1.0
 40
1.0
 40
1.0
 10
144.1651462075095
 20
-27.18613572871938
 30
0.0
 10
144.1737224650682
 20
-27.18580237278677
 30
0.0
 10
144.198879327333
 20
-27.18482453493333
 30
0.0
 10
144.2475695453931
 20
-27.17179641491292
 30
0.0
 10
144.2900420570287
 20
-27.14501119115916
 30
0.0
 10
144.32121098529
 20
-27.11249536305617
 30
0.0
 10
144.3466035567219
 20
-27.07711089672586
 30
0.0
 10
144.3561848904337
 20
-27.04235109217958
 30
0.0
 10
144.3621078935246
 20
-27.02086322462812
 30
0.0
  0
SPLINE
  5
10E
330
1F
100
AcDbEntity
  8
0
  6
Continuous
 62
     7
100
AcDbSpline
210
0.0
220
0.0
230
1.0
 70
     8
 71
     3
 72
    13
 73
     9
 74
     0
 42
0.000000001
 43
0.00000001
 40
0.0
 40
0.0
 40
0.0
 40
0.0
 40
0.091310349748155
 40
0.2678419900779286
 40
0.525777764299777
 40
0.6125786654914145
 40
0.7605033045726969
 40
1.0
 40
1.0
 40
1.0
 40
1.0
 10
101.6425295230727
 20
-27.18613572871938
 30
0.0
 10
101.6339532655139
 20
-27.18580237278677
 30
0.0
 10
101.6087964032492
 20
-27.18482453493333
 30
0.0
 10
101.560106185189
 20
-27.17179641491292
 30
0.0
 10
101.5176336735534
 20
-27.14501119115916
 30
0.0
 10
101.4864647452922
 20
-27.11249536305617
 30
0.0
 10
101.4610721738603
 20
-27.07711089672586
 30
0.0
 10
101.4514908401484
 20
-27.04235109217958
 30
0.0
 10
101.4455678370576
 20
-27.02086322462812
 30
0.0
  0
LINE
  5
10F
330
1F
100
AcDbEntity
  8
0
  6
Continuous
 62
     7
100
AcDbLine
 10
101.6425295231
 20
-27.4552767769
 30
0.0
 11
101.6425295231
 21
-28.18613403
 31
0.0
  0
SPLINE
  5
110
330
1F
100
AcDbEntity
  8
0
  6
Continuous
 62
     7
100
AcDbSpline
210
0.0
220
0.0
230
1.0
 70
     8
 71
     3
 72
    13
 73
     9
 74
     0
 42
0.000000001
 43
0.00000001
 40
0.0
 40
0.0
 40
0.0
 40
0.0
 40
0.0924506107435785
 40
0.2720115841488377
 40
0.531858197328088
 40
0.6175437551812267
 40
0.7627352673646323
 40
1.0
 40
1.0
 40
1.0
 40
1.0
 10
101.6425295230727
 20
-28.186134029987
 30
0.0
 10
101.5910196766771
 20
-28.18412365378149
 30
0.0
 10
101.4394655138153
 20
-28.17820865103572
 30
0.0
 10
101.1498635279264
 20
-28.10049586120554
 30
0.0
 10
100.8956027894111
 20
-27.94172407462105
 30
0.0
 10
100.7064573059806
 20
-27.74476636718985
 30
0.0
 10
100.5528665356316
 20
-27.53030594996629
 30
0.0
 10
100.4960244479087
 20
-27.3230720602345
 30
0.0
 10
100.4607612696271
 20
-27.19451018131032
 30
0.0
  0
LINE
  5
111
330
1F
100
AcDbEntity
  8
0
  6
Continuous
 62
     7
100
AcDbLine
 10
101.853837302
 20
-28.18613403
 30
0.0
 11
101.6425295231
 21
-28.18613403
 31
0.0
  0
LINE
  5
112
330
1F
100
AcDbEntity
  8
0
  6
Continuous
 62
     7
100
AcDbLine
 10
143.9538384286
 20
-28.18613403
 30
0.0
 11
144.1651462075
 21
-28.18613403
 31
0.0
  0
ARC
  5
113
330
1F
100
AcDbEntity
  8
0
  6
Continuous
 62
     7
100
AcDbCircle
 10
228.321041687
 20
198.0665341219
 30
0.0
 40
1.600000000000015
100
AcDbArc
 50
0.0
 51
39.7667128033
  0
ARC
  5
114
330
1F
100
AcDbEntity
  8
0
  6
Continuous
 62
     7
100
AcDbCircle
 10
228.321041687
 20
198.0665341219
 30
0.0
 40
0.8000000000000114
100
AcDbArc
 50
0.0
 51
39.7667128033
  0
LINE
  5
115
330
1F
100
AcDbEntity
  8
0
  6
Continuous
 62
     7
100
AcDbLine
 10
228.9359635171
 20
198.5782580777
 30
0.0
 11
229.5508897361
 21
199.0899937555
 31
0.0
  0
LINE
  5
116
330
1F
100
AcDbEntity
  8
0
  6
Continuous
 62
     7
100
AcDbLine
 10
229.0394073781
 20
199.4961994096
 30
0.0
 11
228.6802223381
 21
198.7813609048
 31
0.0
  0
LINE
  5
117
330
1F
100
AcDbEntity
  8
0
  6
Continuous
 62
     7
100
AcDbLine
 10
228.9359635171
 20
198.5782580777
 30
0.0
 11
228.6802223381
 21
198.7813609048
 31
0.0
  0
LINE
  5
118
330
1F
100
AcDbEntity
  8
0
  6
Continuous
 62
     7
100
AcDbLine
 10
229.5508897361
 20
199.0899937555
 30
0.0
 11
229.0394073781
 21
199.4961994096
 31
0.0
  0
LINE
  5
119
330
1F
100
AcDbEntity
  8
0
  6
Continuous
 62
     7
100
AcDbLine
 10
229.1210433897
 20
194.5532011195
 30
0.0
 11
229.1210433897
 21
198.0665373012
 31
0.0
  0
LINE
  5
11A
330
1F
100
AcDbEntity
  8
0
  6
Continuous
 62
     7
100
AcDbLine
 10
229.9210420307
 20
194.5532011195
 30
0.0
 11
229.9210420307
 21
198.0665373012
 31
0.0
  0
LINE
  5
11B
330
1F
100
AcDbEntity
  8
0
  6
Continuous
 62
     7
100
AcDbLine
 10
229.1210433897
 20
194.5532011195
 30
0.0
 11
229.9210420307
 21
194.5532011195
 31
0.0
  0
LINE
  5
11C
330
1F
100
AcDbEntity
  8
0
  6
Continuous
 62
     7
100
AcDbLine
 10
208.3516261038
 20
209.8912345573
 30
0.0
 11
229.0394073781
 21
199.4961994096
 31
0.0
  0
LINE
  5
11D
330
1F
100
AcDbEntity
  8
0
  6
Continuous
 62
     7
100
AcDbLine
 10
228.3967277464
 20
198.9238160058
 30
0.0
 11
228.6802223381
 21
198.7813609048
 31
0.0
  0
LINE
  5
11E
330
1F
100
AcDbEntity
  8
0
  6
Continuous
 62
     7
100
AcDbLine
 10
208.3516261038
 20
209.8912345573
 30
0.0
 11
208.2508719024
 21
209.6907096311
 31
0.0
  0
LINE
  5
11F
330
1F
100
AcDbEntity
  8
0
  6
Continuous
 62
     7
100
AcDbLine
 10
207.2145110425
 20
210.0394266053
 30
0.0
 11
207.3016828355
 21
209.8965244695
 31
0.0
  0
LINE
  5
120
330
1F
100
AcDbEntity
  8
0
  6
Continuous
 62
     7
100
AcDbLine
 10
207.9626610932
 20
210.3227423831
 30
0.0
 11
207.2145110425
 21
210.0394266053
 31
0.0
  0
SPLINE
  5
121
330
1F
100
AcDbEntity
  8
0
  6
Continuous
 62
     7
100
AcDbSpline
210
0.0
220
0.0
230
1.0
 70
     8
 71
     3
 72
     9
 73
     5
 74
     0
 42
0.000000001
 43
0.00000001
 40
0.0
 40
0.0
 40
0.0
 40
0.0
 40
0.4999957798125605
 40
1.0
 40
1.0
 40
1.0
 40
1.0
 10
207.9626610931735
 20
210.3227423831199
 30
0.0
 10
208.007212227527
 20
210.2325479372764
 30
0.0
 10
208.096315248297
 20
210.0521575230268
 30
0.0
 10
208.2665220064404
 20
209.9448758476871
 30
0.0
 10
208.3516261038165
 20
209.8912345572685
 30
0.0
  0
LINE
  5
122
330
1F
100
AcDbEntity
  8
0
  6
Continuous
 62
     7
100
AcDbLine
 10
207.163712984
 20
210.1980345651
 30
0.0
 11
207.9372620639
 21
210.402046363
 31
0.0
  0
LINE
  5
123
330
1F
100
AcDbEntity
  8
0
  6
Continuous
 62
     7
100
AcDbLine
 10
207.9372620639
 20
210.402046363
 30
0.0
 11
207.9626610932
 21
210.3227423831
 31
0.0
  0
LINE
  5
124
330
1F
100
AcDbEntity
  8
0
  6
Continuous
 62
     7
100
AcDbLine
 10
207.163712984
 20
210.1980345651
 30
0.0
 11
207.2145110425
 21
210.0394266053
 31
0.0
  0
LINE
  5
125
330
1F
100
AcDbEntity
  8
0
  6
Continuous
 62
     7
100
AcDbLine
 10
207.163712984
 20
210.1980345651
 30
0.0
 11
207.1609935221
 21
210.2083461686
 31
0.0
  0
LINE
  5
126
330
1F
100
AcDbEntity
  8
0
  6
Continuous
 62
     7
100
AcDbLine
 10
196.124090856
 20
254.3033259317
 30
0.0
 11
196.3436296639
 21
254.3612318441
 31
0.0
  0
LINE
  5
127
330
1F
100
AcDbEntity
  8
0
  6
Continuous
 62
     7
100
AcDbLine
 10
207.9372620639
 20
210.402046363
 30
0.0
 11
196.3436296639
 21
254.3612318441
 31
0.0
  0
SPLINE
  5
128
330
1F
100
AcDbEntity
  8
0
  6
Continuous
 62
     7
100
AcDbSpline
210
0.0
220
0.0
230
1.0
 70
     8
 71
     3
 72
    11
 73
     7
 74
     0
 42
0.000000001
 43
0.00000001
 40
0.0
 40
0.0
 40
0.0
 40
0.0
 40
0.2500027730358526
 40
0.4999969277678588
 40
0.7500019835312457
 40
1.0
 40
1.0
 40
1.0
 40
1.0
 10
195.442884272037
 20
255.4168450041984
 30
0.0
 10
195.5492348843734
 20
255.3614291934103
 30
0.0
 10
195.7619324428395
 20
255.250599482174
 30
0.0
 10
196.0225818869777
 20
254.9993900791237
 30
0.0
 10
196.2296642636828
 20
254.7024648703348
 30
0.0
 10
196.3056415536982
 20
254.4749751185832
 30
0.0
 10
196.3436296638827
 20
254.3612318440651
 30
0.0
  0
SPLINE
  5
129
330
1F
100
AcDbEntity
  8
0
  6
Continuous
 62
     7
100
AcDbSpline
210
0.0
220
0.0
230
1.0
 70
     8
 71
     3
 72
    10
 73
     6
 74
     0
 42
0.000000001
 43
0.00000001
 40
0.0
 40
0.0
 40
0.0
 40
0.0
 40
0.4815655116451887
 40
0.9631481608231689
 40
1.0
 40
1.0
 40
1.0
 40
1.0
 10
195.1197078880648
 20
254.6850191756462
 30
0.0
 10
195.1721803561297
 20
254.6568430397788
 30
0.0
 10
195.2771271596039
 20
254.6004897653364
 30
0.0
 10
195.3746338631441
 20
254.5184386656632
 30
0.0
 10
195.4102312111141
 20
254.4649325965375
 30
0.0
 10
195.4127615746836
 20
254.4611292287086
 30
0.0
  0
LINE
  5
12A
330
1F
100
AcDbEntity
  8
0
  6
Continuous
 62
     7
100
AcDbLine
 10
195.1197078881
 20
254.6850191756
 30
0.0
 11
195.442884272
 21
255.4168450042
 31
0.0
  0
SPLINE
  5
12B
330
1F
100
AcDbEntity
  8
0
  6
Continuous
 62
     7
100
AcDbSpline
210
0.0
220
0.0
230
1.0
 70
     8
 71
     3
 72
    12
 73
     8
 74
     0
 42
0.000000001
 43
0.00000001
 40
0.0
 40
0.0
 40
0.0
 40
0.0
 40
0.0829411983281831
 40
0.1906147282420988
 40
0.3929251126690822
 40
0.7928583399424678
 40
0.9999999999999999
 40
0.9999999999999999
 40
0.9999999999999999
 40
0.9999999999999999
 10
206.5065345224719
 20
220.5324666901802
 30
0.0
 10
206.5155449819451
 20
220.4982933366248
 30
0.0
 10
206.5362527401936
 20
220.4197564378051
 30
0.0
 10
206.5768224570971
 20
220.2659763593581
 30
0.0
 10
206.6377607439342
 20
220.0348795334237
 30
0.0
 10
206.6900178146079
 20
219.8367628255413
 30
0.0
 10
206.717756073578
 20
219.7315923769805
 30
0.0
 10
206.7272207197528
 20
219.6957068845009
 30
0.0
  0
LINE
  5
12C
330
1F
100
AcDbEntity
  8
0
  6
Continuous
 62
     7
100
AcDbLine
 10
194.7965315041
 20
254.7532068893
 30
0.0
 11
194.7965315041
 21
255.5532055303
 31
0.0
  0
LINE
  5
12D
330
1F
100
AcDbEntity
  8
0
  6
Continuous
 62
     7
100
AcDbLine
 10
194.7965315041
 20
254.7532068893
 30
0.0
 11
195.1197078881
 21
254.6850191756
 31
0.0
  0
LINE
  5
12E
330
1F
100
AcDbEntity
  8
0
  6
Continuous
 62
     7
100
AcDbLine
 10
200.432232624
 20
243.5641782685
 30
0.0
 11
206.5065345225
 21
220.5324666902
 31
0.0
  0
ARC
  5
12F
330
1F
100
AcDbEntity
  8
0
  6
Continuous
 62
     7
100
AcDbCircle
 10
206.5051746214
 20
217.7926978016
 30
0.0
 40
0.4999999999999971
100
AcDbArc
 50
124.2457709093
 51
194.774550275
  0
ARC
  5
130
330
1F
100
AcDbEntity
  8
0
  6
Continuous
 62
     7
100
AcDbCircle
 10
205.4922355757
 20
219.2806341207
 30
0.0
 40
1.300000000000009
100
AcDbArc
 50
304.2457709096
 51
14.774550275
  0
ARC
  5
131
330
1F
100
AcDbEntity
  8
0
  6
Continuous
 62
     7
100
AcDbCircle
 10
199.2604271257
 20
245.2623653893
 30
0.0
 40
0.5000000000000374
100
AcDbArc
 50
194.7745502751
 51
265.3033296406
  0
ARC
  5
132
330
1F
100
AcDbEntity
  8
0
  6
Continuous
 62
     7
100
AcDbCircle
 10
199.1130420625
 20
243.468409525
 30
0.0
 40
1.299999999999982
100
AcDbArc
 50
14.774550275
 51
85.3033296406
  0
SPLINE
  5
133
330
1F
100
AcDbEntity
  8
0
  6
Continuous
 62
     7
100
AcDbSpline
210
0.0
220
0.0
230
1.0
 70
     8
 71
     3
 72
    13
 73
     9
 74
     0
 42
0.000000001
 43
0.00000001
 40
0.0
 40
0.0
 40
0.0
 40
0.0
 40
0.2545457006192603
 40
0.3981761507197714
 40
0.4821833169958073
 40
0.5521423079580634
 40
0.7624755913998789
 40
0.9999999999999999
 40
0.9999999999999999
 40
0.9999999999999999
 40
0.9999999999999999
 10
200.3700575289111
 20
243.7999295397972
 30
0.0
 10
200.3703445989107
 20
243.7988464507999
 30
0.0
 10
200.3707936515844
 20
243.797152215907
 30
0.0
 10
200.3749230277941
 20
243.7815033247121
 30
0.0
 10
200.3788278148339
 20
243.7666787361339
 30
0.0
 10
200.3890043245409
 20
243.728088326023
 30
0.0
 10
200.4072937608011
 20
243.6587765580167
 30
0.0
 10
200.4235898702276
 20
243.5969620292271
 30
0.0
 10
200.4322326239924
 20
243.5641782685493
 30
0.0
  0
LINE
  5
134
330
1F
100
AcDbEntity
  8
0
  6
Continuous
 62
     7
100
AcDbLine
 10
17.2872459945
 20
199.4961994096
 30
0.0
 11
16.7757636365
 21
199.0899937555
 31
0.0
  0
ARC
  5
135
330
1F
100
AcDbEntity
  8
0
  6
Continuous
 62
     7
100
AcDbCircle
 10
18.0056145346
 20
198.0665341219
 30
0.0
 40
1.600000000000016
100
AcDbArc
 50
144.4501940189
 51
180.0
  0
LINE
  5
136
330
1F
100
AcDbEntity
  8
0
  6
Continuous
 62
     7
100
AcDbLine
 10
16.7038357314
 20
194.5532011195
 30
0.0
 11
16.4056113419
 21
194.5532011195
 31
0.0
  0
LINE
  5
137
330
1F
100
AcDbEntity
  8
0
  6
Continuous
 62
     7
100
AcDbLine
 10
16.4056113419
 20
198.0665373012
 30
0.0
 11
16.4056113419
 21
194.5532011195
 31
0.0
  0
LINE
  5
138
330
1F
100
AcDbEntity
  8
0
  6
Continuous
 62
     7
100
AcDbLine
 10
38.64349336
 20
210.3350358411
 30
0.0
 11
38.3893987593
 21
210.402046363
 31
0.0
  0
LWPOLYLINE
  5
139
330
1F
100
AcDbEntity
  8
0
  6
Continuous
 62
     7
100
AcDbPolyline
 90
        5
 70
   128
 43
0.0
 10
38.6928832588
 20
210.5222838327
 10
38.6222145018
 20
210.5160849496
 10
38.504554933
 20
210.4920940801
 10
38.4260556158
 20
210.453634183
 10
38.3893987593
 20
210.402046363
  0
LWPOLYLINE
  5
13A
330
1F
100
AcDbEntity
  8
0
  6
Continuous
 62
     7
100
AcDbPolyline
 90
        5
 70
   128
 43
0.0
 10
49.9830237088
 20
254.3612318441
 10
50.0196805653
 20
254.4128196641
 10
50.098187333
 20
254.45126466
 10
50.2158394513
 20
254.4752704307
 10
50.257555252
 20
254.479457657
  0
LINE
  5
13B
330
1F
100
AcDbEntity
  8
0
  6
Continuous
 62
     7
100
AcDbLine
 10
49.9830237088
 20
254.3612318441
 30
0.0
 11
38.3893987593
 21
210.402046363
 31
0.0
  0
SPLINE
  5
13C
330
1F
100
AcDbEntity
  8
0
  6
Continuous
 62
     7
100
AcDbSpline
210
0.0
220
0.0
230
1.0
 70
     8
 71
     3
 72
     9
 73
     5
 74
     0
 42
0.000000001
 43
0.00000001
 40
0.0
 40
0.0
 40
0.0
 40
0.0
 40
0.4999999679703708
 40
1.0
 40
1.0
 40
1.0
 40
1.0
 10
37.97502726882501
 20
209.8912345572685
 30
0.0
 10
38.06013463131237
 20
209.9448762571234
 30
0.0
 10
38.2303493671909
 20
210.052159663706
 30
0.0
 10
38.31944960719347
 20
210.2325481394635
 30
0.0
 10
38.36399973004861
 20
210.3227423831199
 30
0.0
  0
LINE
  5
13D
330
1F
100
AcDbEntity
  8
0
  6
Continuous
 62
     7
100
AcDbLine
 10
38.36399973
 20
210.3227423831
 30
0.0
 11
38.7221118864
 21
210.1871269151
 31
0.0
  0
LINE
  5
13E
330
1F
100
AcDbEntity
  8
0
  6
Continuous
 62
     7
100
AcDbLine
 10
38.36399973
 20
210.3227423831
 30
0.0
 11
38.3893987593
 21
210.402046363
 31
0.0
  0
SPLINE
  5
13F
330
1F
100
AcDbEntity
  8
0
  6
Continuous
 62
     7
100
AcDbSpline
210
0.0
220
0.0
230
1.0
 70
     8
 71
     3
 72
    10
 73
     6
 74
     0
 42
0.000000001
 43
0.00000001
 40
0.0
 40
0.0
 40
0.0
 40
0.0
 40
0.4149349129224389
 40
0.8298738352004958
 40
1.0
 40
1.0
 40
1.0
 40
1.0
 10
49.98302370875879
 20
254.3612318440651
 30
0.0
 10
50.02167269606349
 20
254.474223785039
 30
0.0
 10
50.09897104412311
 20
254.7002087587843
 30
0.0
 10
50.25739920683006
 20
254.9477933151413
 30
0.0
 10
50.38352605821822
 20
255.0595827778106
 30
0.0
 10
50.42020142644449
 20
255.0920890971397
 30
0.0
  0
SPLINE
  5
140
330
1F
100
AcDbEntity
  8
0
  6
Continuous
 62
     7
100
AcDbSpline
210
0.0
220
0.0
230
1.0
 70
     8
 71
     3
 72
    13
 73
     9
 74
     0
 42
0.000000001
 43
0.00000001
 40
0.0
 40
0.0
 40
0.0
 40
0.0
 40
0.6438710985562514
 40
0.869845708583212
 40
0.9375738580347692
 40
0.9878807066744457
 40
0.9935494549897357
 40
1.0
 40
1.0
 40
1.0
 40
1.0
 10
40.01595736115974
 20
221.2750064536308
 30
0.0
 10
40.04293092959929
 20
221.3773034071542
 30
0.0
 10
40.07937120903551
 20
221.515502755165
 30
0.0
 10
40.14721506658973
 20
221.7726564708342
 30
0.0
 10
40.17639749110709
 20
221.8833596231044
 30
0.0
 10
40.1878811353375
 20
221.9268619755365
 30
0.0
 10
40.1934870368104
 20
221.9481415451729
 30
0.0
 10
40.19456831149985
 20
221.9522422701122
 30
0.0
 10
40.19514382451576
 20
221.9544248982643
 30
0.0
  0
LINE
  5
141
330
1F
100
AcDbEntity
  8
0
  6
Continuous
 62
     7
100
AcDbLine
 10
40.1951438245
 20
221.9544248983
 30
0.0
 11
45.8869999704
 21
243.5360448762
 31
0.0
  0
ARC
  5
142
330
1F
100
AcDbEntity
  8
0
  6
Continuous
 62
     7
100
AcDbCircle
 10
39.8536940114
 20
219.0912319753
 30
0.0
 40
0.8000000000000054
100
AcDbArc
 50
345.225449725
 51
45.2254497249
  0
ARC
  5
143
330
1F
100
AcDbEntity
  8
0
  6
Continuous
 62
     7
100
AcDbCircle
 10
41.5440595208
 20
220.7949527401
 30
0.0
 40
1.600000000000015
100
AcDbArc
 50
165.2254497248
 51
225.2254497249
  0
ARC
  5
144
330
1F
100
AcDbEntity
  8
0
  6
Continuous
 62
     7
100
AcDbCircle
 10
46.8362986152
 20
245.5669410983
 30
0.0
 40
0.7999999999999982
100
AcDbArc
 50
285.225449725
 51
345.225449725
  0
LINE
  5
145
330
1F
100
AcDbEntity
  8
0
  6
Continuous
 62
     7
100
AcDbLine
 10
45.8869999704
 20
243.5360448762
 30
0.0
 11
45.9162211475
 21
243.6468350097
 31
0.0
  0
SPLINE
  5
146
330
1F
100
AcDbEntity
  8
0
  6
Continuous
 62
     7
100
AcDbSpline
210
0.0
220
0.0
230
1.0
 70
     8
 71
     3
 72
    11
 73
     7
 74
     0
 42
0.000000001
 43
0.00000001
 40
0.0
 40
0.0
 40
0.0
 40
0.0
 40
0.2500020929148076
 40
0.500001939389975
 40
0.7500037651481222
 40
0.9999999999999999
 40
0.9999999999999999
 40
0.9999999999999999
 40
0.9999999999999999
 10
45.91948450177713
 20
243.6592029734825
 30
0.0
 10
45.9653226655909
 20
243.7916101950656
 30
0.0
 10
46.05699858133126
 20
244.0564234484625
 30
0.0
 10
46.31932900677797
 20
244.3894416183197
 30
0.0
 10
46.65027162648291
 20
244.6543801936118
 30
0.0
 10
46.9143530382294
 20
244.7481365361013
 30
0.0
 10
47.04639226764244
 20
244.7950141831611
 30
0.0
  0
LINE
  5
147
330
1F
100
AcDbEntity
  8
0
  6
Continuous
 62
     7
100
AcDbLine
 10
16.7038357314
 20
199.0899937555
 30
0.0
 11
17.144656783
 21
199.4961994096
 31
0.0
  0
LINE
  5
148
330
1F
100
AcDbEntity
  8
0
  6
Continuous
 62
     7
100
AcDbLine
 10
227.9559141454
 20
199.4961994096
 30
0.0
 11
228.3967277464
 21
199.0899937555
 31
0.0
  0
LINE
  5
149
330
1F
100
AcDbEntity
  8
0
  6
Continuous
 62
     7
100
AcDbLine
 10
228.3967277464
 20
199.0899937555
 30
0.0
 11
228.3967277464
 21
198.0665373012
 31
0.0
  0
LINE
  5
14A
330
1F
100
AcDbEntity
  8
0
  6
Continuous
 62
     7
100
AcDbLine
 10
16.7038357314
 20
198.0665373012
 30
0.0
 11
16.7038357314
 21
199.0899937555
 31
0.0
  0
LINE
  5
14B
330
1F
100
AcDbEntity
  8
0
  6
Continuous
 62
     7
100
AcDbLine
 10
16.7038357314
 20
194.5532011195
 30
0.0
 11
16.7038357314
 21
198.0665373012
 31
0.0
  0
LINE
  5
14C
330
1F
100
AcDbEntity
  8
0
  6
Continuous
 62
     7
100
AcDbLine
 10
228.3967277464
 20
198.0665373012
 30
0.0
 11
228.3967277464
 21
194.5532011195
 31
0.0
  0
LINE
  5
14D
330
1F
100
AcDbEntity
  8
0
  6
Continuous
 62
     7
100
AcDbLine
 10
16.7038357314
 20
194.5532011195
 30
0.0
 11
228.3967277464
 21
194.5532011195
 31
0.0
  0
LINE
  5
14E
330
1F
100
AcDbEntity
  8
0
  6
Continuous
 62
     7
100
AcDbLine
 10
37.8324380574
 20
209.8912345573
 30
0.0
 11
17.144656783
 21
199.4961994096
 31
0.0
  0
ARC
  5
14F
330
1F
100
AcDbEntity
  8
0
  6
Continuous
 62
     7
100
AcDbCircle
 10
207.5599683878
 20
209.2555984099
 30
0.0
 40
0.6994292535390972
100
AcDbArc
 50
65.3390308964
 51
114.6609691036
  0
ELLIPSE
  5
150
330
1F
100
AcDbEntity
  8
0
  6
Continuous
 62
     7
100
AcDbEllipse
 10
227.7458920576
 20
198.4401271927
 30
0.0
 11
0.7090363786677472
 21
1.095294056125198
 31
0.0
210
0.0
220
0.0
230
1.0
 40
0.61897468
 41
6.262294934029717
 42
6.402744786519385
  0
ARC
  5
151
330
1F
100
AcDbEntity
  8
0
  6
Continuous
 62
     7
100
AcDbCircle
 10
228.2521824915
 20
198.8270797614
 30
0.0
 40
0.7317759468860632
100
AcDbArc
 50
72.7701433062
 51
113.8824858649
  0
LINE
  5
152
330
1F
100
AcDbEntity
  8
0
  6
Continuous
 62
     7
100
AcDbLine
 10
228.2862356362
 20
199.1918133899
 30
0.0
 11
228.4689387736
 21
199.5260166332
 31
0.0
  0
LINE
  5
153
330
1F
100
AcDbEntity
  8
0
  6
Continuous
 62
     7
100
AcDbLine
 10
38.6611661372
 20
210.402046363
 30
0.0
 11
38.6293000039
 21
210.3227423831
 31
0.0
  0
LINE
  5
154
330
1F
100
AcDbEntity
  8
0
  6
Continuous
 62
     7
100
AcDbLine
 10
206.4712709245
 20
210.3227423831
 30
0.0
 11
206.4393973407
 21
210.402046363
 31
0.0
  0
SPLINE
  5
155
330
1F
100
AcDbEntity
  8
0
  6
Continuous
 62
     7
100
AcDbSpline
210
0.0
220
0.0
230
1.0
 70
     8
 71
     3
 72
     9
 73
     5
 74
     0
 42
0.000000001
 43
0.00000001
 40
0.0
 40
0.0
 40
0.0
 40
0.0
 40
0.5000042201874393
 40
1.0
 40
1.0
 40
1.0
 40
1.0
 10
207.2681328710894
 20
209.8912345572685
 30
0.0
 10
207.1353212444972
 20
209.9448758476871
 30
0.0
 10
206.8697002332538
 20
210.0521575230268
 30
0.0
 10
206.6040799467774
 20
210.2325479372764
 30
0.0
 10
206.4712709245066
 20
210.3227423831199
 30
0.0
  0
SPLINE
  5
156
330
1F
100
AcDbEntity
  8
0
  6
Continuous
 62
     7
100
AcDbSpline
210
0.0
220
0.0
230
1.0
 70
     8
 71
     3
 72
     9
 73
     5
 74
     0
 42
0.000000001
 43
0.00000001
 40
0.0
 40
0.0
 40
0.0
 40
0.0
 40
0.5000018109557182
 40
1.0
 40
1.0
 40
1.0
 40
1.0
 10
38.62930000394388
 20
210.3227423831199
 30
0.0
 10
38.49648805737914
 20
210.2325482240515
 30
0.0
 10
38.23086512631234
 20
210.0521605592627
 30
0.0
 10
37.96524675966277
 20
209.9448764284086
 30
0.0
 10
37.83243805736108
 20
209.8912345572685
 30
0.0
  0
LINE
  5
157
330
1F
100
AcDbEntity
  8
0
  6
Continuous
 62
     7
100
AcDbLine
 10
38.6611661372
 20
210.402046363
 30
0.0
 11
50.2547985372
 21
254.3612318441
 31
0.0
  0
ARC
  5
158
330
1F
100
AcDbEntity
  8
0
  6
Continuous
 62
     7
100
AcDbCircle
 10
207.0744295124
 20
209.0076652696
 30
0.0
 40
1.532176390870009
100
AcDbArc
 50
66.1362631955
 51
114.4855754242
  0
ARC
  5
159
330
1F
100
AcDbEntity
  8
0
  6
Continuous
 62
     7
100
AcDbCircle
 10
195.4808013927
 20
252.966756774
 30
0.0
 40
1.532260602370521
100
AcDbArc
 50
66.1378312262
 51
114.4840110854
  0
LINE
  5
15A
330
1F
100
AcDbEntity
  8
0
  6
Continuous
 62
     7
100
AcDbLine
 10
207.7140799221
 20
210.3542136356
 30
0.0
 11
207.6942911801
 21
210.4088561937
 31
0.0
  0
LINE
  5
15B
330
1F
100
AcDbEntity
  8
0
  6
Continuous
 62
     7
100
AcDbLine
 10
196.10065878
 20
254.3680416747
 30
0.0
 11
196.1204475221
 21
254.3133991166
 31
0.0
  0
LINE
  5
15C
330
1F
100
AcDbEntity
  8
0
  6
Continuous
 62
     7
100
AcDbLine
 10
51.0283476171
 20
255.5532055303
 30
0.0
 11
50.5293226299
 21
255.4168450042
 31
0.0
  0
SPLINE
  5
15D
330
1F
100
AcDbEntity
  8
0
  6
Continuous
 62
     7
100
AcDbSpline
210
0.0
220
0.0
230
1.0
 70
     8
 71
     3
 72
    11
 73
     7
 74
     0
 42
0.000000001
 43
0.00000001
 40
0.0
 40
0.0
 40
0.0
 40
0.0
 40
0.2499987187783498
 40
0.5000016676104364
 40
0.7499965246411895
 40
1.0
 40
1.0
 40
1.0
 40
1.0
 10
194.8457723912577
 20
254.3612318440651
 30
0.0
 10
194.8228930841521
 20
254.4749747579496
 30
0.0
 10
194.7771340828162
 20
254.7024625102833
 30
0.0
 10
194.7085151651107
 20
254.9993922653774
 30
0.0
 10
194.6398713337429
 20
255.2505991708385
 30
0.0
 10
194.5941229064875
 20
255.3614290896306
 30
0.0
 10
194.5712482985835
 20
255.4168450041984
 30
0.0
  0
SPLINE
  5
15E
330
1F
100
AcDbEntity
  8
0
  6
Continuous
 62
     7
100
AcDbSpline
210
0.0
220
0.0
230
1.0
 70
     8
 71
     3
 72
    11
 73
     7
 74
     0
 42
0.000000001
 43
0.00000001
 40
0.0
 40
0.0
 40
0.0
 40
0.0
 40
0.2500034753588106
 40
0.4999983323895636
 40
0.7500012812216502
 40
1.0
 40
1.0
 40
1.0
 40
1.0
 10
50.52932262986703
 20
255.4168450041984
 30
0.0
 10
50.50644802196304
 20
255.3614290896305
 30
0.0
 10
50.46069959470753
 20
255.2505991708386
 30
0.0
 10
50.39205576333981
 20
254.9993922653774
 30
0.0
 10
50.32343684563428
 20
254.7024625102833
 30
0.0
 10
50.27767784429835
 20
254.4749747579497
 30
0.0
 10
50.25479853719278
 20
254.3612318440651
 30
0.0
  0
ARC
  5
15F
330
1F
100
AcDbEntity
  8
0
  6
Continuous
 62
     7
100
AcDbCircle
 10
123.5820267817
 20
-29.6928309905
 30
0.0
 40
1.321292667800847
100
AcDbArc
 50
239.1176544704
 51
254.3627286522
  0
ARC
  5
160
330
1F
100
AcDbEntity
  8
0
  6
Continuous
 62
     7
100
AcDbCircle
 10
122.6355969385
 20
-26.1246122333
 30
0.0
 40
4.876464580274279
100
AcDbArc
 50
276.9525184387
 51
282.7569698749
  0
ARC
  5
161
330
1F
100
AcDbEntity
  8
0
  6
Continuous
 62
     7
100
AcDbCircle
 10
123.1660795832
 20
-26.405750431
 30
0.0
 40
4.593970052263765
100
AcDbArc
 50
277.0264058232
 51
285.7704832632
  0
ARC
  5
162
330
1F
100
AcDbEntity
  8
0
  6
Continuous
 62
     7
100
AcDbCircle
 10
123.3621793532
 20
-29.8463122953
 30
0.0
 40
1.177204497388727
100
AcDbArc
 50
288.1069654906
 51
322.5099196004
  0
LINE
  5
163
330
1F
100
AcDbEntity
  8
0
  6
Continuous
 62
     7
100
AcDbLine
 10
123.2536062736
 20
-30.562787284
 30
0.0
 11
124.2962425305
 21
-30.562787284
 31
0.0
  0
ARC
  5
164
330
1F
100
AcDbEntity
  8
0
  6
Continuous
 62
     7
100
AcDbCircle
 10
122.0908140699
 20
-29.3836207668
 30
0.0
 40
1.656055368749719
100
AcDbArc
 50
287.2462024312
 51
314.5994106322
  0
ARC
  5
165
330
1F
100
AcDbEntity
  8
0
  6
Continuous
 62
     7
100
AcDbCircle
 10
123.1957582875
 20
-26.0014229902
 30
0.0
 40
5.001621698032112
100
AcDbArc
 50
245.7800136869
 51
262.9490367155
  0
LINE
  5
166
330
1F
100
AcDbEntity
  8
0
  6
Continuous
 62
     7
100
AcDbLine
 10
120.6871106253
 20
-30.562787284
 30
0.0
 11
121.1438870952
 21
-30.562787284
 31
0.0
  0
ARC
  5
167
330
1F
100
AcDbEntity
  8
0
  6
Continuous
 62
     7
100
AcDbCircle
 10
122.638776355
 20
-26.4199702543
 30
0.0
 40
4.579512207903966
100
AcDbArc
 50
244.775049288
 51
262.9868455557
  0
LINE
  5
168
330
1F
100
AcDbEntity
  8
0
  6
Continuous
 62
     7
100
AcDbLine
 10
123.7280450725
 20
-30.9652192191
 30
0.0
 11
123.6535442142
 21
-30.562787284
 31
0.0
  0
LINE
  5
169
330
1F
100
AcDbEntity
  8
0
  6
Continuous
 62
     7
100
AcDbLine
 10
122.0796306581
 20
-30.9652192191
 30
0.0
 11
122.0952769938
 21
-30.8807035581
 31
0.0
  0
LINE
  5
16A
330
1F
100
AcDbEntity
  8
0
  6
Continuous
 62
     7
100
AcDbLine
 10
123.2258772208
 20
-30.9652192191
 30
0.0
 11
123.2002322351
 21
-30.6106833414
 31
0.0
  0
LWPOLYLINE
  5
16B
330
1F
100
AcDbEntity
  8
0
  6
Continuous
 62
     7
100
AcDbPolyline
 90
        3
 70
   128
 43
0.0
 10
18.2295283732
 20
194.5532011195
 10
18.2792311963
 20
194.466252844
 10
18.3648383674
 20
194.3364786311
  0
LINE
  5
16C
330
1F
100
AcDbEntity
  8
0
  6
Continuous
 62
     7
100
AcDbLine
 10
18.6671084222
 20
194.5532011195
 30
0.0
 11
18.3648383674
 21
194.3364786311
 31
0.0
  0
LINE
  5
16D
330
1F
100
AcDbEntity
  8
0
  6
Continuous
 62
     7
100
AcDbLine
 10
18.3648383674
 20
194.3364786311
 30
0.0
 11
18.8663071451
 21
193.845500271
 31
0.0
  0
ARC
  5
16E
330
1F
100
AcDbEntity
  8
0
  6
Continuous
 62
     7
100
AcDbCircle
 10
19.2435004981
 20
195.5017992599
 30
0.0
 40
1.999929036661853
100
AcDbArc
 50
208.3148176687
 51
235.9121168701
  0
LINE
  5
16F
330
1F
100
AcDbEntity
  8
0
  6
Continuous
 62
     7
100
AcDbLine
 10
18.8663071451
 20
193.845500271
 30
0.0
 11
19.0716823992
 21
194.1489773198
 31
0.0
  0
LINE
  5
170
330
1F
100
AcDbEntity
  8
0
  6
Continuous
 62
     7
100
AcDbLine
 10
22.5912919697
 20
191.3073705837
 30
0.0
 11
18.8663071451
 21
193.845500271
 31
0.0
  0
LINE
  5
171
330
1F
100
AcDbEntity
  8
0
  6
Continuous
 62
     7
100
AcDbLine
 10
22.5912919697
 20
191.3073705837
 30
0.0
 11
22.749162322
 21
191.5406631633
 31
0.0
  0
LINE
  5
172
330
1F
100
AcDbEntity
  8
0
  6
Continuous
 62
     7
100
AcDbLine
 10
21.8730560002
 20
191.3073705837
 30
0.0
 11
18.1226125416
 21
193.845500271
 31
0.0
  0
SPLINE
  5
173
330
1F
100
AcDbEntity
  8
0
  6
Continuous
 62
     7
100
AcDbSpline
210
0.0
220
0.0
230
1.0
 70
     8
 71
     3
 72
    15
 73
    11
 74
     0
 42
0.000000001
 43
0.00000001
 40
0.0
 40
0.0
 40
0.0
 40
0.0
 40
0.0827583099437654
 40
0.1672977711795539
 40
0.2508708131135519
 40
0.4946353572441277
 40
0.6225433206456682
 40
0.7466877213883355
 40
0.8742967944170482
 40
0.9999999999999999
 40
0.9999999999999999
 40
0.9999999999999999
 40
0.9999999999999999
 10
28.94682348340555
 20
181.2710212870811
 30
0.0
 10
28.87777759767024
 20
181.64824151368
 30
0.0
 10
28.73819979816611
 20
182.4108006234145
 30
0.0
 10
28.43185455247863
 20
183.4876834614787
 30
0.0
 10
27.81581389339988
 20
185.1988065026046
 30
0.0
 10
26.90081371277336
 20
186.9003831310495
 30
0.0
 10
25.72223310169122
 20
188.4815592051695
 30
0.0
 10
24.74087765433411
 20
189.5562166963794
 30
0.0
 10
23.70019493157999
 20
190.5086919856448
 30
0.0
 10
22.95906759577671
 20
191.0424830943886
 30
0.0
 10
22.5912919697146
 20
191.3073705836509
 30
0.0
  0
ARC
  5
174
330
1F
100
AcDbEntity
  8
0
  6
Continuous
 62
     7
100
AcDbCircle
 10
13.4659305933
 20
178.884753021
 30
0.0
 40
15.00003949043273
100
AcDbArc
 50
9.1537399916
 51
55.9114466834
  0
LINE
  5
175
330
1F
100
AcDbEntity
  8
0
  6
Continuous
 62
     7
100
AcDbLine
 10
30.5981478152
 20
170.9532039567
 30
0.0
 11
28.9468234834
 21
181.2710212871
 31
0.0
  0
LINE
  5
176
330
1F
100
AcDbEntity
  8
0
  6
Continuous
 62
     7
100
AcDbLine
 10
30.5981478152
 20
170.9532039567
 30
0.0
 11
31.5603977498
 21
171.1082654401
 31
0.0
  0
LINE
  5
177
330
1F
100
AcDbEntity
  8
0
  6
Continuous
 62
     7
100
AcDbLine
 10
30.5981478152
 20
170.9532039567
 30
0.0
 11
30.5369636473
 21
170.9532039567
 31
0.0
  0
ARC
  5
178
330
1F
100
AcDbEntity
  8
0
  6
Continuous
 62
     7
100
AcDbCircle
 10
141.1540800937
 20
191.0611504174
 30
0.0
 40
112.4298713055037
100
AcDbArc
 50
188.7721381671
 51
190.302712273
  0
LINE
  5
179
330
1F
100
AcDbEntity
  8
0
  6
Continuous
 62
     7
100
AcDbLine
 10
29.5698857364
 20
176.8283443853
 30
0.0
 11
30.0393393692
 21
173.9150034591
 31
0.0
  0
LINE
  5
17A
330
1F
100
AcDbEntity
  8
0
  6
Continuous
 62
     7
100
AcDbLine
 10
29.5698857364
 20
176.8283443853
 30
0.0
 11
28.990834063
 21
176.8283443853
 31
0.0
  0
LINE
  5
17B
330
1F
100
AcDbEntity
  8
0
  6
Continuous
 62
     7
100
AcDbLine
 10
28.990834063
 20
176.8283443853
 30
0.0
 11
28.2749450263
 21
181.2710212871
 31
0.0
  0
LWPOLYLINE
  5
17C
330
1F
100
AcDbEntity
  8
0
  6
Continuous
 62
     7
100
AcDbPolyline
 90
        3
 70
   128
 43
0.0
 10
227.4428373632
 20
194.3364786311
 10
227.5284445342
 20
194.466252844
 10
227.5781473574
 20
194.5532011195
  0
LINE
  5
17D
330
1F
100
AcDbEntity
  8
0
  6
Continuous
 62
     7
100
AcDbLine
 10
227.1405673084
 20
194.5532011195
 30
0.0
 11
227.4428373632
 21
194.3364786311
 31
0.0
  0
ARC
  5
17E
330
1F
100
AcDbEntity
  8
0
  6
Continuous
 62
     7
100
AcDbCircle
 10
226.564365776
 20
196.6663152681
 30
0.0
 40
1.999746714869468
100
AcDbArc
 50
359.9984245828
 51
23.6094011688
  0
LINE
  5
17F
330
1F
100
AcDbEntity
  8
0
  6
Continuous
 62
     7
100
AcDbLine
 10
226.9413685855
 20
193.845500271
 30
0.0
 11
227.4428373632
 21
194.3364786311
 31
0.0
  0
ARC
  5
180
330
1F
100
AcDbEntity
  8
0
  6
Continuous
 62
     7
100
AcDbCircle
 10
226.5644884502
 20
195.5017731224
 30
0.0
 40
1.999624041511078
100
AcDbArc
 50
336.3898641584
 51
0.00231009
  0
ARC
  5
181
330
1F
100
AcDbEntity
  8
0
  6
Continuous
 62
     7
100
AcDbCircle
 10
226.5641752325
 20
195.5017992599
 30
0.0
 40
1.999929036661817
100
AcDbArc
 50
304.0878831299
 51
331.6851823313
  0
LINE
  5
182
330
1F
100
AcDbEntity
  8
0
  6
Continuous
 62
     7
100
AcDbLine
 10
226.9413685855
 20
193.845500271
 30
0.0
 11
226.7359933314
 21
194.1489773198
 31
0.0
  0
LINE
  5
183
330
1F
100
AcDbEntity
  8
0
  6
Continuous
 62
     7
100
AcDbLine
 10
228.5641124901
 20
196.6662602826
 30
0.0
 11
228.5641124901
 21
195.5018537446
 31
0.0
  0
LINE
  5
184
330
1F
100
AcDbEntity
  8
0
  6
Continuous
 62
     7
100
AcDbLine
 10
223.2163837609
 20
191.3073705837
 30
0.0
 11
226.9413685855
 21
193.845500271
 31
0.0
  0
LINE
  5
185
330
1F
100
AcDbEntity
  8
0
  6
Continuous
 62
     7
100
AcDbLine
 10
223.2163837609
 20
191.3073705837
 30
0.0
 11
223.0585134086
 21
191.5406631633
 31
0.0
  0
LINE
  5
186
330
1F
100
AcDbEntity
  8
0
  6
Continuous
 62
     7
100
AcDbLine
 10
227.685063189
 20
193.845500271
 30
0.0
 11
223.9346197304
 21
191.3073705837
 31
0.0
  0
SPLINE
  5
187
330
1F
100
AcDbEntity
  8
0
  6
Continuous
 62
     7
100
AcDbSpline
210
0.0
220
0.0
230
1.0
 70
     8
 71
     3
 72
    15
 73
    11
 74
     0
 42
0.000000001
 43
0.00000001
 40
0.0
 40
0.0
 40
0.0
 40
0.0
 40
0.0827583099437654
 40
0.1672977711795539
 40
0.2508708131135519
 40
0.4946353572441277
 40
0.6225433206456682
 40
0.7466877213883355
 40
0.8742967944170482
 40
0.9999999999999999
 40
0.9999999999999999
 40
0.9999999999999999
 40
0.9999999999999999
 10
216.8608522471766
 20
181.2710212870811
 30
0.0
 10
216.9298981329119
 20
181.64824151368
 30
0.0
 10
217.0694759324161
 20
182.4108006234145
 30
0.0
 10
217.3758211781035
 20
183.4876834614787
 30
0.0
 10
217.9918618371823
 20
185.1988065026046
 30
0.0
 10
218.9068620178088
 20
186.9003831310495
 30
0.0
 10
220.0854426288909
 20
188.4815592051695
 30
0.0
 10
221.066798076248
 20
189.5562166963794
 30
0.0
 10
222.1074807990022
 20
190.5086919856448
 30
0.0
 10
222.8486081348055
 20
191.0424830943886
 30
0.0
 10
223.2163837608676
 20
191.3073705836509
 30
0.0
  0
ARC
  5
188
330
1F
100
AcDbEntity
  8
0
  6
Continuous
 62
     7
100
AcDbCircle
 10
232.3417451372
 20
178.884753021
 30
0.0
 40
15.00003949043274
100
AcDbArc
 50
124.0885533166
 51
170.8462600084
  0
LINE
  5
189
330
1F
100
AcDbEntity
  8
0
  6
Continuous
 62
     7
100
AcDbLine
 10
215.2095279154
 20
170.9532039567
 30
0.0
 11
216.8608522472
 21
181.2710212871
 31
0.0
  0
LINE
  5
18A
330
1F
100
AcDbEntity
  8
0
  6
Continuous
 62
     7
100
AcDbLine
 10
215.2095279154
 20
170.9532039567
 30
0.0
 11
214.2472779807
 21
171.1082654401
 31
0.0
  0
LINE
  5
18B
330
1F
100
AcDbEntity
  8
0
  6
Continuous
 62
     7
100
AcDbLine
 10
216.8168416676
 20
176.8283443853
 30
0.0
 11
216.2377899942
 21
176.8283443853
 31
0.0
  0
LINE
  5
18C
330
1F
100
AcDbEntity
  8
0
  6
Continuous
 62
     7
100
AcDbLine
 10
216.2377899942
 20
176.8283443853
 30
0.0
 11
215.7683363613
 21
173.9150034591
 31
0.0
  0
ARC
  5
18D
330
1F
100
AcDbEntity
  8
0
  6
Continuous
 62
     7
100
AcDbCircle
 10
104.6535956369
 20
191.0611504174
 30
0.0
 40
112.4298713055037
100
AcDbArc
 50
349.697287727
 51
351.2278618329
  0
LINE
  5
18E
330
1F
100
AcDbEntity
  8
0
  6
Continuous
 62
     7
100
AcDbLine
 10
215.2095279154
 20
170.9532039567
 30
0.0
 11
215.2707120833
 21
170.9532039567
 31
0.0
  0
LINE
  5
18F
330
1F
100
AcDbEntity
  8
0
  6
Continuous
 62
     7
100
AcDbLine
 10
217.5327307042
 20
181.2710212871
 30
0.0
 11
216.8168416676
 21
176.8283443853
 31
0.0
  0
LINE
  5
190
330
1F
100
AcDbEntity
  8
0
  6
Continuous
 62
     7
100
AcDbLine
 10
226.9038400111
 20
194.3364786311
 30
0.0
 11
226.4643004593
 21
193.845500271
 31
0.0
  0
LINE
  5
191
330
1F
100
AcDbEntity
  8
0
  6
Continuous
 62
     7
100
AcDbLine
 10
19.3433752713
 20
193.845500271
 30
0.0
 11
18.9038357195
 21
194.3364786311
 31
0.0
  0
LINE
  5
192
330
1F
100
AcDbEntity
  8
0
  6
Continuous
 62
     7
100
AcDbLine
 10
18.9038357195
 20
194.3364786311
 30
0.0
 11
18.9038357195
 21
194.5532011195
 31
0.0
  0
LINE
  5
193
330
1F
100
AcDbEntity
  8
0
  6
Continuous
 62
     7
100
AcDbLine
 10
226.9038400111
 20
194.5532011195
 30
0.0
 11
226.9038400111
 21
194.3364786311
 31
0.0
  0
LINE
  5
194
330
1F
100
AcDbEntity
  8
0
  6
Continuous
 62
     7
100
AcDbLine
 10
222.7137750444
 20
191.3073705837
 30
0.0
 11
226.4643004593
 21
193.845500271
 31
0.0
  0
LINE
  5
195
330
1F
100
AcDbEntity
  8
0
  6
Continuous
 62
     7
100
AcDbLine
 10
23.0939006862
 20
191.3073705837
 30
0.0
 11
19.3433752713
 21
193.845500271
 31
0.0
  0
SPLINE
  5
196
330
1F
100
AcDbEntity
  8
0
  6
Continuous
 62
     7
100
AcDbSpline
210
0.0
220
0.0
230
1.0
 70
     8
 71
     3
 72
    15
 73
    11
 74
     0
 42
0.000000001
 43
0.00000001
 40
0.0
 40
0.0
 40
0.0
 40
0.0
 40
0.0827581341825456
 40
0.1672978008486583
 40
0.250870679884858
 40
0.4946354098482116
 40
0.6225432322094258
 40
0.746687496013897
 40
0.8742970782452028
 40
0.9999999999999999
 40
0.9999999999999999
 40
0.9999999999999999
 40
0.9999999999999999
 10
29.92273778289362
 20
181.2710212870811
 30
0.0
 10
29.8459940387944
 20
181.648242053313
 30
0.0
 10
29.69085448975184
 20
182.4108040086833
 30
0.0
 10
29.29609225008883
 20
183.4876801238654
 30
0.0
 10
28.61376926657055
 20
185.1988115246563
 30
0.0
 10
27.62378381372321
 20
186.9003804085121
 30
0.0
 10
26.36873443849966
 20
188.4815590351329
 30
0.0
 10
25.32646888670082
 20
189.5562201550485
 30
0.0
 10
24.24155811383105
 20
190.5086883160073
 30
0.0
 10
23.47452870825331
 20
191.0424824345728
 30
0.0
 10
23.09390068620248
 20
191.3073705836509
 30
0.0
  0
SPLINE
  5
197
330
1F
100
AcDbEntity
  8
0
  6
Continuous
 62
     7
100
AcDbSpline
210
0.0
220
0.0
230
1.0
 70
     8
 71
     3
 72
    15
 73
    11
 74
     0
 42
0.000000001
 43
0.00000001
 40
0.0
 40
0.0
 40
0.0
 40
0.0
 40
0.0827581341825456
 40
0.1672978008486583
 40
0.250870679884858
 40
0.4946354098482116
 40
0.6225432322094258
 40
0.746687496013897
 40
0.8742970782452028
 40
0.9999999999999999
 40
0.9999999999999999
 40
0.9999999999999999
 40
0.9999999999999999
 10
215.8849379476885
 20
181.2710212870811
 30
0.0
 10
215.9616816917878
 20
181.648242053313
 30
0.0
 10
216.1168212408303
 20
182.4108040086833
 30
0.0
 10
216.5115834804933
 20
183.4876801238654
 30
0.0
 10
217.1939064640116
 20
185.1988115246563
 30
0.0
 10
218.183891916859
 20
186.9003804085121
 30
0.0
 10
219.4389412920825
 20
188.4815590351329
 30
0.0
 10
220.4812068438814
 20
189.5562201550485
 30
0.0
 10
221.5661176167511
 20
190.5086883160073
 30
0.0
 10
222.3331470223288
 20
191.0424824345728
 30
0.0
 10
222.7137750443797
 20
191.3073705836509
 30
0.0
  0
LINE
  5
198
330
1F
100
AcDbEntity
  8
0
  6
Continuous
 62
     7
100
AcDbLine
 10
214.2222887334
 20
170.9532039567
 30
0.0
 11
205.2095523533
 21
170.9532039567
 31
0.0
  0
ARC
  5
199
330
1F
100
AcDbEntity
  8
0
  6
Continuous
 62
     7
100
AcDbCircle
 10
205.1905740098
 20
173.9342258057
 30
0.0
 40
2.98108226007373
100
AcDbArc
 50
180.3694520534
 51
270.3647622705
  0
LINE
  5
19A
330
1F
100
AcDbEntity
  8
0
  6
Continuous
 62
     7
100
AcDbLine
 10
202.2095537242
 20
176.8283443853
 30
0.0
 11
202.2095537242
 21
173.9150034591
 31
0.0
  0
LINE
  5
19B
330
1F
100
AcDbEntity
  8
0
  6
Continuous
 62
     7
100
AcDbLine
 10
202.2095537242
 20
176.8283443853
 30
0.0
 11
43.5981220064
 21
176.8283443853
 31
0.0
  0
LINE
  5
19C
330
1F
100
AcDbEntity
  8
0
  6
Continuous
 62
     7
100
AcDbLine
 10
43.5981220064
 20
176.8283443853
 30
0.0
 11
43.5981220064
 21
173.9150034591
 31
0.0
  0
ARC
  5
19D
330
1F
100
AcDbEntity
  8
0
  6
Continuous
 62
     7
100
AcDbCircle
 10
40.6171017208
 20
173.9342258057
 30
0.0
 40
2.981082260073733
100
AcDbArc
 50
269.6352377295
 51
359.6305479466
  0
LINE
  5
19E
330
1F
100
AcDbEntity
  8
0
  6
Continuous
 62
     7
100
AcDbLine
 10
31.5853869972
 20
170.9532039567
 30
0.0
 11
40.5981233773
 21
170.9532039567
 31
0.0
  0
LINE
  5
19F
330
1F
100
AcDbEntity
  8
0
  6
Continuous
 62
     7
100
AcDbLine
 10
31.5853869972
 20
170.9532039567
 30
0.0
 11
29.9227377829
 21
181.2710212871
 31
0.0
  0
LINE
  5
1A0
330
1F
100
AcDbEntity
  8
0
  6
Continuous
 62
     7
100
AcDbLine
 10
214.2222887334
 20
170.9532039567
 30
0.0
 11
215.8849379477
 21
181.2710212871
 31
0.0
  0
ARC
  5
1A1
330
1F
100
AcDbEntity
  8
0
  6
Continuous
 62
     7
100
AcDbCircle
 10
179.8845670975
 20
19.03648848
 30
0.0
 40
1.980740179751604
100
AcDbArc
 50
105.2248822077
 51
179.8121164814
  0
ARC
  5
1A2
330
1F
100
AcDbEntity
  8
0
  6
Continuous
 62
     7
100
AcDbCircle
 10
179.8929139634
 20
18.8841287003
 30
0.0
 40
1.989107065363852
100
AcDbArc
 50
89.6853370355
 51
179.6818292109
  0
LINE
  5
1A3
330
1F
100
AcDbEntity
  8
0
  6
Continuous
 62
     7
100
AcDbLine
 10
177.9038375673
 20
19.0429836839
 30
0.0
 11
177.9038375673
 21
18.8951744094
 31
0.0
  0
ARC
  5
1A4
330
1F
100
AcDbEntity
  8
0
  6
Continuous
 62
     7
100
AcDbCircle
 10
65.922848342
 20
19.0364087408
 30
0.0
 40
1.981000732498511
100
AcDbArc
 50
0.1901650888
 51
75.5038815186
  0
LINE
  5
1A5
330
1F
100
AcDbEntity
  8
0
  6
Continuous
 62
     7
100
AcDbLine
 10
67.9038381633
 20
19.0429836839
 30
0.0
 11
67.9038381633
 21
18.8951744094
 31
0.0
  0
ARC
  5
1A6
330
1F
100
AcDbEntity
  8
0
  6
Continuous
 62
     7
100
AcDbCircle
 10
65.9147617671
 20
18.8841287003
 30
0.0
 40
1.989107065363844
100
AcDbArc
 50
0.3181707891
 51
90.3146629645
  0
LINE
  5
1A7
330
1F
100
AcDbEntity
  8
0
  6
Continuous
 62
     7
100
AcDbLine
 10
57.3579511103
 20
7.799975956
 30
0.0
 11
59.3219092545
 21
5.857587068
 31
0.0
  0
LINE
  5
1A8
330
1F
100
AcDbEntity
  8
0
  6
Continuous
 62
     7
100
AcDbLine
 10
57.3579511103
 20
7.799975956
 30
0.0
 11
55.4041406569
 21
20.873205769
 31
0.0
  0
LINE
  5
1A9
330
1F
100
AcDbEntity
  8
0
  6
Continuous
 62
     7
100
AcDbLine
 10
55.4041406569
 20
20.873205769
 30
0.0
 11
65.9038378355
 21
20.873205769
 31
0.0
  0
LINE
  5
1AA
330
1F
100
AcDbEntity
  8
0
  6
Continuous
 62
     7
100
AcDbLine
 10
67.9038381633
 20
18.8951744094
 30
0.0
 11
67.9038381633
 21
17.9061582639
 31
0.0
  0
LINE
  5
1AB
330
1F
100
AcDbEntity
  8
0
  6
Continuous
 62
     7
100
AcDbLine
 10
67.9038381633
 20
17.9061582639
 30
0.0
 11
177.9038375673
 21
17.9061582639
 31
0.0
  0
LINE
  5
1AC
330
1F
100
AcDbEntity
  8
0
  6
Continuous
 62
     7
100
AcDbLine
 10
177.9038375673
 20
18.8951744094
 30
0.0
 11
177.9038375673
 21
17.9061582639
 31
0.0
  0
LINE
  5
1AD
330
1F
100
AcDbEntity
  8
0
  6
Continuous
 62
     7
100
AcDbLine
 10
190.4035350737
 20
20.873205769
 30
0.0
 11
179.9038378951
 21
20.873205769
 31
0.0
  0
LINE
  5
1AE
330
1F
100
AcDbEntity
  8
0
  6
Continuous
 62
     7
100
AcDbLine
 10
190.4035350737
 20
20.873205769
 30
0.0
 11
188.4497246203
 21
7.799975956
 31
0.0
  0
LINE
  5
1AF
330
1F
100
AcDbEntity
  8
0
  6
Continuous
 62
     7
100
AcDbLine
 10
186.4857664761
 20
5.857587068
 30
0.0
 11
188.4497246203
 21
7.799975956
 31
0.0
  0
LINE
  5
1B0
330
1F
100
AcDbEntity
  8
0
  6
Continuous
 62
     7
100
AcDbLine
 10
55.4041406569
 20
21.0210150435
 30
0.0
 11
55.8188176212
 21
21.0210150435
 31
0.0
  0
LINE
  5
1B1
330
1F
100
AcDbEntity
  8
0
  6
Continuous
 62
     7
100
AcDbLine
 10
55.4041406569
 20
21.0210150435
 30
0.0
 11
55.4041406569
 21
20.873205769
 31
0.0
  0
LINE
  5
1B2
330
1F
100
AcDbEntity
  8
0
  6
Continuous
 62
     7
100
AcDbLine
 10
190.4035350737
 20
21.0210150435
 30
0.0
 11
189.9816086945
 21
21.0210150435
 31
0.0
  0
LINE
  5
1B3
330
1F
100
AcDbEntity
  8
0
  6
Continuous
 62
     7
100
AcDbLine
 10
190.4035350737
 20
21.0210150435
 30
0.0
 11
190.4035350737
 21
20.873205769
 31
0.0
  0
LINE
  5
1B4
330
1F
100
AcDbEntity
  8
0
  6
Continuous
 62
     7
100
AcDbLine
 10
67.9038381633
 20
18.0539675384
 30
0.0
 11
177.9038375673
 21
18.0539675384
 31
0.0
  0
LINE
  5
1B5
330
1F
100
AcDbEntity
  8
0
  6
Continuous
 62
     7
100
AcDbLine
 10
188.4715548214
 20
7.946033762
 30
0.0
 11
189.4488549289
 21
7.799975956
 31
0.0
  0
LINE
  5
1B6
330
1F
100
AcDbEntity
  8
0
  6
Continuous
 62
     7
100
AcDbLine
 10
190.4136455116
 20
21.0210150435
 30
0.0
 11
191.4026579317
 21
20.873205769
 31
0.0
  0
LINE
  5
1B7
330
1F
100
AcDbEntity
  8
0
  6
Continuous
 62
     7
100
AcDbLine
 10
189.4488549289
 20
7.799975956
 30
0.0
 11
191.4026579317
 21
20.873205769
 31
0.0
  0
LINE
  5
1B8
330
1F
100
AcDbEntity
  8
0
  6
Continuous
 62
     7
100
AcDbLine
 10
190.4035350737
 20
20.9533768102
 30
0.0
 11
190.4136455116
 21
21.0210150435
 31
0.0
  0
LINE
  5
1B9
330
1F
100
AcDbEntity
  8
0
  6
Continuous
 62
     7
100
AcDbLine
 10
57.3361209092
 20
7.946033762
 30
0.0
 11
56.3588208017
 21
7.799975956
 31
0.0
  0
LINE
  5
1BA
330
1F
100
AcDbEntity
  8
0
  6
Continuous
 62
     7
100
AcDbLine
 10
55.394030219
 20
21.0210150435
 30
0.0
 11
55.4041406569
 21
20.9533768102
 31
0.0
  0
LINE
  5
1BB
330
1F
100
AcDbEntity
  8
0
  6
Continuous
 62
     7
100
AcDbLine
 10
55.394030219
 20
21.0210150435
 30
0.0
 11
54.4050177988
 21
20.873205769
 31
0.0
  0
LINE
  5
1BC
330
1F
100
AcDbEntity
  8
0
  6
Continuous
 62
     7
100
AcDbLine
 10
54.4050177988
 20
20.873205769
 30
0.0
 11
56.3588208017
 21
7.799975956
 31
0.0
  0
LINE
  5
1BD
330
1F
100
AcDbEntity
  8
0
  6
Continuous
 62
     7
100
AcDbLine
 10
184.4221270141
 20
4.153205813
 30
0.0
 11
61.3855487165
 21
4.153205813
 31
0.0
  0
LINE
  5
1BE
330
1F
100
AcDbEntity
  8
0
  6
Continuous
 62
     7
100
AcDbLine
 10
61.3855487165
 20
4.155384875
 30
0.0
 11
61.3855487165
 21
4.1544316664
 31
0.0
  0
SPLINE
  5
1BF
330
1F
100
AcDbEntity
  8
0
  6
Continuous
 62
     7
100
AcDbSpline
210
0.0
220
0.0
230
1.0
 70
     8
 71
     3
 72
    11
 73
     7
 74
     0
 42
0.000000001
 43
0.00000001
 40
0.0
 40
0.0
 40
0.0
 40
0.0
 40
0.2500000616654285
 40
0.500000642607654
 40
0.7500006827257687
 40
0.9999999999999999
 40
0.9999999999999999
 40
0.9999999999999999
 40
0.9999999999999999
 10
59.32190925448938
 20
5.857587068000145
 30
0.0
 10
59.49387772647638
 20
5.633992056570766
 30
0.0
 10
59.83781502764723
 20
5.186801569281322
 30
0.0
 10
60.35373630736414
 20
4.642669705086172
 30
0.0
 10
60.86963326339804
 20
4.256281443504816
 30
0.0
 10
61.21357706453372
 20
4.189017032104989
 30
0.0
 10
61.38554871648355
 20
4.155384875026799
 30
0.0
  0
SPLINE
  5
1C0
330
1F
100
AcDbEntity
  8
0
  6
Continuous
 62
     7
100
AcDbSpline
210
0.0
220
0.0
230
1.0
 70
     8
 71
     3
 72
    11
 73
     7
 74
     0
 42
0.000000001
 43
0.00000001
 40
0.0
 40
0.0
 40
0.0
 40
0.0
 40
0.2499993172742312
 40
0.499999357392346
 40
0.7499999383345713
 40
0.9999999999999999
 40
0.9999999999999999
 40
0.9999999999999999
 40
0.9999999999999999
 10
184.4221270140986
 20
4.155384875026799
 30
0.0
 10
184.5940986660484
 20
4.189017032104989
 30
0.0
 10
184.9380424671841
 20
4.256281443504816
 30
0.0
 10
185.453939423218
 20
4.642669705086172
 30
0.0
 10
185.9698607029349
 20
5.186801569281322
 30
0.0
 10
186.3137980041058
 20
5.633992056570766
 30
0.0
 10
186.4857664760928
 20
5.857587068000145
 30
0.0
  0
LINE
  5
1C1
330
1F
100
AcDbEntity
  8
0
  6
Continuous
 62
     7
100
AcDbLine
 10
184.4221270141
 20
4.1544316664
 30
0.0
 11
184.4221270141
 21
4.155384875
 31
0.0
  0
LINE
  5
1C2
330
1F
100
AcDbEntity
  8
0
  6
Continuous
 62
     7
100
AcDbLine
 10
184.4221270141
 20
4.153205813
 30
0.0
 11
184.4221270141
 21
4.1544316664
 31
0.0
  0
LINE
  5
1C3
330
1F
100
AcDbEntity
  8
0
  6
Continuous
 62
     7
100
AcDbLine
 10
57.6381301936
 20
6.0053964589
 30
0.0
 11
56.6491177735
 21
5.857587068
 31
0.0
  0
LINE
  5
1C4
330
1F
100
AcDbEntity
  8
0
  6
Continuous
 62
     7
100
AcDbLine
 10
57.5567773041
 20
6.54975211
 30
0.0
 11
57.3720103559
 21
7.7860706115
 31
0.0
  0
LINE
  5
1C5
330
1F
100
AcDbEntity
  8
0
  6
Continuous
 62
     7
100
AcDbLine
 10
56.6491177735
 20
5.857587068
 30
0.0
 11
56.3588208017
 21
7.799975956
 31
0.0
  0
LINE
  5
1C6
330
1F
100
AcDbEntity
  8
0
  6
Continuous
 62
     7
100
AcDbLine
 10
189.1585579571
 20
5.857587068
 30
0.0
 11
188.1695455369
 21
6.0053964589
 31
0.0
  0
LINE
  5
1C7
330
1F
100
AcDbEntity
  8
0
  6
Continuous
 62
     7
100
AcDbLine
 10
189.4488549289
 20
7.799975956
 30
0.0
 11
189.1585579571
 21
5.857587068
 31
0.0
  0
LINE
  5
1C8
330
1F
100
AcDbEntity
  8
0
  6
Continuous
 62
     7
100
AcDbLine
 10
188.4356653747
 20
7.7860706115
 30
0.0
 11
188.2480597553
 21
6.5307379082
 31
0.0
  0
LINE
  5
1C9
330
1F
100
AcDbEntity
  8
0
  6
Continuous
 62
     7
100
AcDbLine
 10
185.129485136
 20
4.153205813
 30
0.0
 11
184.4921550211
 21
4.153205813
 31
0.0
  0
LINE
  5
1CA
330
1F
100
AcDbEntity
  8
0
  6
Continuous
 62
     7
100
AcDbLine
 10
184.4921550211
 20
4.153205813
 30
0.0
 11
184.4221270141
 21
4.153205813
 31
0.0
  0
LINE
  5
1CB
330
1F
100
AcDbEntity
  8
0
  6
Continuous
 62
     7
100
AcDbLine
 10
61.3855487165
 20
4.153205813
 30
0.0
 11
61.3155207095
 21
4.153205813
 31
0.0
  0
LINE
  5
1CC
330
1F
100
AcDbEntity
  8
0
  6
Continuous
 62
     7
100
AcDbLine
 10
61.3155207095
 20
4.153205813
 30
0.0
 11
60.6591729876
 21
4.153205813
 31
0.0
  0
SPLINE
  5
1CD
330
1F
100
AcDbEntity
  8
0
  6
Continuous
 62
     7
100
AcDbSpline
210
0.0
220
0.0
230
1.0
 70
     8
 71
     3
 72
    11
 73
     7
 74
     0
 42
0.000000001
 43
0.00000001
 40
0.0
 40
0.0
 40
0.0
 40
0.0
 40
0.3275281172725805
 40
0.6550569148559997
 40
0.9825858606858108
 40
1.0
 40
1.0
 40
1.0
 40
1.0
 10
189.1585579571108
 20
5.857587068000145
 30
0.0
 10
189.1023124922363
 20
5.632903891432909
 30
0.0
 10
188.9898214456592
 20
5.183537071607514
 30
0.0
 10
188.5403200638843
 20
4.655727255419614
 30
0.0
 10
188.1535827614836
 20
4.348836974697096
 30
0.0
 10
187.9184053118761
 20
4.298508568833014
 30
0.0
 10
187.9065325912814
 20
4.295967784834362
 30
0.0
  0
SPLINE
  5
1CE
330
1F
100
AcDbEntity
  8
0
  6
Continuous
 62
     7
100
AcDbSpline
210
0.0
220
0.0
230
1.0
 70
     8
 71
     3
 72
    11
 73
     7
 74
     0
 42
0.000000001
 43
0.00000001
 40
0.0
 40
0.0
 40
0.0
 40
0.0
 40
0.0166420002895098
 40
0.3444283260500791
 40
0.6722145034477609
 40
0.9999999999999999
 40
0.9999999999999999
 40
0.9999999999999999
 40
0.9999999999999999
 10
57.89954126447244
 20
4.296324015719152
 30
0.0
 10
57.88820518422927
 20
4.298753856667503
 30
0.0
 10
57.6535899291998
 20
4.349042646227111
 30
0.0
 10
57.26737857186802
 20
4.65579519611227
 30
0.0
 10
56.81784855864532
 20
5.18352008647871
 30
0.0
 10
56.70536132958803
 20
5.632898229727235
 30
0.0
 10
56.64911777347131
 20
5.857587068000145
 30
0.0
  0
LINE
  5
1CF
330
1F
100
AcDbEntity
  8
0
  6
Continuous
 62
     7
100
AcDbLine
 10
203.2471886334
 20
171.6747330829
 30
0.0
 11
179.3811498639
 21
20.9129043251
 31
0.0
  0
LINE
  5
1D0
330
1F
100
AcDbEntity
  8
0
  6
Continuous
 62
     7
100
AcDbLine
 10
185.126571959
 20
4.0234309017
 30
0.0
 11
186.3481766042
 21
3.8345151442
 31
0.0
  0
LINE
  5
1D1
330
1F
100
AcDbEntity
  8
0
  6
Continuous
 62
     7
100
AcDbLine
 10
185.2003513333
 20
4.489496383
 30
0.0
 11
185.126571959
 21
4.0234309017
 31
0.0
  0
ARC
  5
1D2
330
1F
100
AcDbEntity
  8
0
  6
Continuous
 62
     7
100
AcDbCircle
 10
187.0741145844
 20
6.1743872645
 30
0.0
 40
2.449895403964462
100
AcDbArc
 50
252.7636606995
 51
288.100333276
  0
LINE
  5
1D3
330
1F
100
AcDbEntity
  8
0
  6
Continuous
 62
     7
100
AcDbLine
 10
214.3117553052
 20
171.0978793308
 30
0.0
 11
190.5509075579
 21
21.0005008011
 31
0.0
  0
LINE
  5
1D4
330
1F
100
AcDbEntity
  8
0
  6
Continuous
 62
     7
100
AcDbLine
 10
188.2239198741
 20
6.3009058976
 30
0.0
 11
187.8352528867
 21
3.8457275695
 31
0.0
  0
LINE
  5
1D5
330
1F
100
AcDbEntity
  8
0
  6
Continuous
 62
     7
100
AcDbLine
 10
185.126571959
 20
4.0234309017
 30
0.0
 11
185.1302488205
 21
4.1872356414
 31
0.0
  0
LINE
  5
1D6
330
1F
100
AcDbEntity
  8
0
  6
Continuous
 62
     7
100
AcDbLine
 10
185.1752913055
 20
4.4717621385
 30
0.0
 11
185.1302488205
 21
4.1872356414
 31
0.0
  0
LINE
  5
1D7
330
1F
100
AcDbEntity
  8
0
  6
Continuous
 62
     7
100
AcDbLine
 10
42.540966576
 20
171.6582076951
 30
0.0
 11
66.4021252152
 21
20.9186030879
 31
0.0
  0
LINE
  5
1D8
330
1F
100
AcDbEntity
  8
0
  6
Continuous
 62
     7
100
AcDbLine
 10
60.6860435066
 20
3.8428793523
 30
0.0
 11
60.5807071981
 21
4.5083328477
 31
0.0
  0
LINE
  5
1D9
330
1F
100
AcDbEntity
  8
0
  6
Continuous
 62
     7
100
AcDbLine
 10
59.485993391
 20
3.6573103025
 30
0.0
 11
60.6860435066
 21
3.8428793523
 31
0.0
  0
ARC
  5
1DA
330
1F
100
AcDbEntity
  8
0
  6
Continuous
 62
     7
100
AcDbCircle
 10
58.7602548876
 20
5.99613425
 30
0.0
 40
2.448835199154145
100
AcDbArc
 50
251.8862813034
 51
287.2391485897
  0
LINE
  5
1DB
330
1F
100
AcDbEntity
  8
0
  6
Continuous
 62
     7
100
AcDbLine
 10
31.4958831725
 20
171.0978793308
 30
0.0
 11
55.2554047164
 21
21.0002977728
 31
0.0
  0
LINE
  5
1DC
330
1F
100
AcDbEntity
  8
0
  6
Continuous
 62
     7
100
AcDbLine
 10
57.5816696939
 20
6.3044647577
 30
0.0
 11
57.9989022073
 21
3.6686600979
 31
0.0
  0
LINE
  5
1DD
330
1F
100
AcDbEntity
  8
0
  6
Continuous
 62
     7
100
AcDbLine
 10
60.6860435066
 20
3.8428793523
 30
0.0
 11
60.6823554692
 21
4.006766514
 31
0.0
  0
LINE
  5
1DE
330
1F
100
AcDbEntity
  8
0
  6
Continuous
 62
     7
100
AcDbLine
 10
60.6823554692
 20
4.006766514
 30
0.0
 11
60.6057672259
 21
4.4905983704
 31
0.0
  0
LINE
  5
1DF
330
1F
100
AcDbEntity
  8
0
  6
Continuous
 62
     7
100
AcDbLine
 10
199.3006533441
 20
76.2726711436
 30
0.0
 11
214.7497749385
 21
171.0272925302
 31
0.0
  0
LINE
  5
1E0
330
1F
100
AcDbEntity
  8
0
  6
Continuous
 62
     7
100
AcDbLine
 10
46.4763110933
 20
76.4610367223
 30
0.0
 11
31.0579007921
 21
171.0272925302
 31
0.0
  0
LINE
  5
1E1
330
1F
100
AcDbEntity
  8
0
  6
Continuous
 62
     8
370
    18
100
AcDbLine
 10
51.5699005184
 20
255.3673135444
 30
0.0
 11
194.2377752122
 21
255.3673135444
 31
0.0
  0
LINE
  5
1E2
330
1F
100
AcDbEntity
  8
0
  6
Continuous
 62
     8
370
    18
100
AcDbLine
 10
50.444937354
 20
255.6576179668
 30
0.0
 11
50.444937354
 21
256.5531926557
 31
0.0
  0
LINE
  5
1E3
330
1F
100
AcDbEntity
  8
0
  6
Continuous
 62
     8
370
    18
100
AcDbLine
 10
195.3627383766
 20
255.6576179668
 30
0.0
 11
195.3627383766
 21
256.5531926557
 31
0.0
  0
LINE
  5
1E4
330
1F
100
AcDbEntity
  8
0
  6
Continuous
 62
     8
370
    18
100
AcDbLine
 10
187.4848893341
 20
259.8379450246
 30
0.0
 11
58.3227863964
 21
259.8379450246
 31
0.0
  0
LINE
  5
1E5
330
1F
100
AcDbEntity
  8
0
  6
Continuous
 62
     8
370
    18
100
AcDbLine
 10
167.180831587
 20
274.9754088327
 30
0.0
 11
78.6268441436
 21
274.9754088327
 31
0.0
  0
LINE
  5
1E6
330
1F
100
AcDbEntity
  8
0
  6
Continuous
 62
     8
370
    18
100
AcDbLine
 10
161.0030336735
 20
277.1218913003
 30
0.0
 11
84.8046420571
 21
277.1218913003
 31
0.0
  0
LINE
  5
1E7
330
1F
100
AcDbEntity
  8
0
  6
Continuous
 62
     8
370
    18
100
AcDbLine
 10
158.0672664997
 20
279.4215279027
 30
0.0
 11
87.7404092309
 21
279.4215279027
 31
0.0
  0
LINE
  5
1E8
330
1F
100
AcDbEntity
  8
0
  6
Continuous
 62
     8
370
    18
100
AcDbLine
 10
156.8871243355
 20
281.2380390569
 30
0.0
 11
88.9205513951
 21
281.2380390569
 31
0.0
  0
LINE
  5
1E9
330
1F
100
AcDbEntity
  8
0
  6
Continuous
 62
     8
370
    18
100
AcDbLine
 10
153.5406606701
 20
284.0507822438
 30
0.0
 11
92.2670150605
 21
284.0507822438
 31
0.0
  0
LINE
  5
1EA
330
1F
100
AcDbEntity
  8
0
  6
Continuous
 62
     8
370
    18
100
AcDbLine
 10
144.6915446278
 20
290.7288270398
 30
0.0
 11
101.1161311027
 21
290.7288270398
 31
0.0
  0
LINE
  5
1EB
330
1F
100
AcDbEntity
  8
0
  6
Continuous
 62
     8
370
    18
100
AcDbLine
 10
142.4666708764
 20
293.4731142923
 30
0.0
 11
103.3410048541
 21
293.4731142923
 31
0.0
  0
LINE
  5
1EC
330
1F
100
AcDbEntity
  8
0
  6
Continuous
 62
     8
370
    18
100
AcDbLine
 10
157.1965692994
 20
319.3586366578
 30
0.0
 11
88.6111064312
 21
319.3586366578
 31
0.0
  0
LINE
  5
1ED
330
1F
100
AcDbEntity
  8
0
  6
Continuous
 62
     8
370
    18
100
AcDbLine
 10
155.744398987
 20
321.3319974347
 30
0.0
 11
90.0632767436
 21
321.3319974347
 31
0.0
  0
LINE
  5
1EE
330
1F
100
AcDbEntity
  8
0
  6
Continuous
 62
     8
370
    18
100
AcDbLine
 10
151.0225786325
 20
323.4654562875
 30
0.0
 11
94.7850970981
 21
323.4654562875
 31
0.0
  0
LINE
  5
1EF
330
1F
100
AcDbEntity
  8
0
  6
Continuous
 62
     8
370
    18
100
AcDbLine
 10
149.8886114416
 20
324.1737382814
 30
0.0
 11
95.919064289
 21
324.1737382814
 31
0.0
  0
LINE
  5
1F0
330
1F
100
AcDbEntity
  8
0
  6
Continuous
 62
     8
370
    18
100
AcDbLine
 10
152.9504759666
 20
311.1956017419
 30
0.0
 11
92.857199764
 21
311.1956017419
 31
0.0
  0
LINE
  5
1F1
330
1F
100
AcDbEntity
  8
0
  6
Continuous
 62
     8
370
    18
100
AcDbLine
 10
152.0201014784
 20
310.201664488
 30
0.0
 11
93.7875742522
 21
310.201664488
 31
0.0
  0
LINE
  5
1F2
330
1F
100
AcDbEntity
  8
0
  6
Continuous
 62
     8
370
    18
100
AcDbLine
 10
140.5455330816
 20
297.5276010438
 30
0.0
 11
105.262142649
 21
297.5276010438
 31
0.0
  0
ARC
  5
1F3
330
1F
100
AcDbEntity
  8
0
  6
Continuous
 62
     8
370
    18
100
AcDbCircle
 10
-180.0705243584
 20
638.0307907707
 30
0.0
 40
478.6229743671303
100
AcDbArc
 50
294.5387103995
 51
295.4604856096
  0
ARC
  5
1F4
330
1F
100
AcDbEntity
  8
0
  6
Continuous
 62
     8
370
    18
100
AcDbCircle
 10
-160.445519239
 20
595.9464723434
 30
0.0
 40
431.5976258019149
100
AcDbArc
 50
294.5248066161
 51
295.4741207003
  0
ARC
  5
1F5
330
1F
100
AcDbEntity
  8
0
  6
Continuous
 62
     8
370
    18
100
AcDbCircle
 10
402.1898603829
 20
586.0686971504
 30
0.0
 40
421.3459134928374
100
AcDbArc
 50
244.8036131934
 51
245.4539376524
  0
ARC
  5
1F6
330
1F
100
AcDbEntity
  8
0
  6
Continuous
 62
     8
370
    18
100
AcDbCircle
 10
310.4225194404
 20
394.3335576365
 30
0.0
 40
208.7909893211158
100
AcDbArc
 50
244.3899175314
 51
245.1905783487
  0
ARC
  5
1F7
330
1F
100
AcDbEntity
  8
0
  6
Continuous
 62
     8
370
    18
100
AcDbCircle
 10
379.6043448485
 20
537.6006102846
 30
0.0
 40
367.283858357796
100
AcDbArc
 50
244.7828814437
 51
245.4757296651
  0
LWPOLYLINE
  5
1F8
330
1F
100
AcDbEntity
  8
0
  6
Continuous
 62
     8
370
    18
100
AcDbPolyline
 90
        6
 70
   128
 43
0.0
 10
220.6717050132
 20
206.4731316968
 10
220.6716677603
 20
206.473057191
 10
220.8494311628
 20
206.3864963456
 10
221.3590955791
 20
206.1455743715
 10
222.1454149541
 20
205.7763981029
 10
223.1231993493
 20
205.3189771577
  0
LINE
  5
1F9
330
1F
100
AcDbEntity
  8
0
  6
Continuous
 62
     8
370
    18
100
AcDbLine
 10
101.2612590995
 20
-25.9755914704
 30
0.0
 11
100.2764506695
 21
-26.1492421523
 31
0.0
  0
LINE
  5
1FA
330
1F
100
AcDbEntity
  8
0
  6
Continuous
 62
     8
370
    18
100
AcDbLine
 10
144.546416631
 20
-25.9755914704
 30
0.0
 11
145.5312250611
 21
-26.1492421523
 31
0.0
  0
LINE
  5
1FB
330
1F
100
AcDbEntity
  8
0
  6
Continuous
 62
     8
370
    18
100
AcDbLine
 10
144.5800783542
 20
-25.491527249
 30
0.0
 11
101.2275973764
 21
-25.491527249
 31
0.0
  0
LINE
  5
1FC
330
1F
100
AcDbEntity
  8
0
  6
Continuous
 62
     8
370
    18
100
AcDbLine
 10
101.6013576147
 20
-27.1219787792
 30
0.0
 11
144.2063181159
 21
-27.1219787792
 31
0.0
  0
LINE
  5
1FD
330
1F
100
AcDbEntity
  8
0
  6
Continuous
 62
     8
370
    18
100
AcDbLine
 10
229.1210433897
 20
198.0665373012
 30
0.0
 11
229.9210420307
 21
198.0665373012
 31
0.0
  0
SPLINE
  5
1FE
330
1F
100
AcDbEntity
  8
0
  6
Continuous
 62
     8
370
    18
100
AcDbSpline
210
0.0
220
0.0
230
1.0
 70
     8
 71
     3
 72
    12
 73
     8
 74
     0
 42
0.000000001
 43
0.00000001
 40
0.0
 40
0.0
 40
0.0
 40
0.0
 40
0.1797909249991257
 40
0.3672649493033665
 40
0.5251096429030896
 40
0.8123291605809808
 40
1.0
 40
1.0
 40
1.0
 40
1.0
 10
205.6060051974635
 20
220.5484854384636
 30
0.0
 10
205.6511179951573
 20
220.3774276827409
 30
0.0
 10
205.7432714192416
 20
220.028002271065
 30
0.0
 10
205.8704163766786
 20
219.5459553422421
 30
0.0
 10
206.0008580292119
 20
219.051320389111
 30
0.0
 10
206.1043608088593
 20
218.6588836046916
 30
0.0
 10
206.1558341473244
 20
218.4637210255991
 30
0.0
 10
206.1761757788043
 20
218.3865951701378
 30
0.0
  0
ARC
  5
1FF
330
1F
100
AcDbEntity
  8
0
  6
Continuous
 62
     8
370
    18
100
AcDbCircle
 10
206.415503771
 20
217.9894962292
 30
0.0
 40
0.4636436743212364
100
AcDbArc
 50
121.0769953979
 51
193.2682804946
  0
ARC
  5
200
330
1F
100
AcDbEntity
  8
0
  6
Continuous
 62
     8
370
    18
100
AcDbCircle
 10
205.4400130745
 20
220.955957055
 30
0.0
 40
0.4399846624075014
100
AcDbArc
 50
245.7995474879
 51
292.1645571324
  0
LINE
  5
201
330
1F
100
AcDbEntity
  8
0
  6
Continuous
 62
     8
370
    18
100
AcDbLine
 10
199.5317107496
 20
243.5801970168
 30
0.0
 11
205.6060051975
 21
220.5484854385
 31
0.0
  0
ARC
  5
202
330
1F
100
AcDbEntity
  8
0
  6
Continuous
 62
     8
370
    18
100
AcDbCircle
 10
199.3657183427
 20
243.987652658
 30
0.0
 40
0.4399699747081197
100
AcDbArc
 50
245.7987283801
 51
292.1653762402
  0
ARC
  5
203
330
1F
100
AcDbEntity
  8
0
  6
Continuous
 62
     8
370
    18
100
AcDbCircle
 10
205.5539230158
 20
219.4190519315
 30
0.0
 40
1.205473129155989
100
AcDbArc
 50
301.077006622
 51
13.2675812659
  0
ARC
  5
204
330
1F
100
AcDbEntity
  8
0
  6
Continuous
 62
     8
370
    18
100
AcDbCircle
 10
206.0375696047
 20
219.4891998987
 30
0.0
 40
1.143824152691254
100
AcDbArc
 50
65.7953291232
 51
112.1665142971
  0
ARC
  5
205
330
1F
100
AcDbEntity
  8
0
  6
Continuous
 62
     8
370
    18
100
AcDbCircle
 10
199.9632731961
 20
242.5210193742
 30
0.0
 40
1.143723491046618
100
AcDbArc
 50
65.79336385
 51
112.1684627109
  0
SPLINE
  5
206
330
1F
100
AcDbEntity
  8
0
  6
Continuous
 62
     8
370
    18
100
AcDbSpline
210
0.0
220
0.0
230
1.0
 70
     8
 71
     3
 72
     9
 73
     5
 74
     0
 42
0.000000001
 43
0.00000001
 40
0.0
 40
0.0
 40
0.0
 40
0.0
 40
0.4346888386672637
 40
1.0
 40
1.0
 40
1.0
 40
1.0
 10
206.1761757788043
 20
218.3865951701378
 30
0.0
 10
206.1884658658221
 20
218.3399979543372
 30
0.0
 10
206.2167391636954
 20
218.2328012387663
 30
0.0
 10
206.2212499130332
 20
218.2156843601554
 30
0.0
 10
206.2237998899798
 20
218.2060079976295
 30
0.0
  0
SPLINE
  5
207
330
1F
100
AcDbEntity
  8
0
  6
Continuous
 62
     8
370
    18
100
AcDbSpline
210
0.0
220
0.0
230
1.0
 70
     8
 71
     3
 72
    12
 73
     8
 74
     0
 42
0.000000001
 43
0.00000001
 40
0.0
 40
0.0
 40
0.0
 40
0.0
 40
0.0648876939899375
 40
0.2882282775953342
 40
0.5278656008529894
 40
0.7624779454332175
 40
1.0
 40
1.0
 40
1.0
 40
1.0
 10
199.2194867190699
 20
244.7640495702003
 30
0.0
 10
199.2197212061614
 20
244.7631595449534
 30
0.0
 10
199.2207627874895
 20
244.759206092023
 30
0.0
 10
199.238981195899
 20
244.6901425225002
 30
0.0
 10
199.3034826278986
 20
244.4455371814209
 30
0.0
 10
199.4080498695258
 20
244.0490910597158
 30
0.0
 10
199.490321446131
 20
243.7371358790905
 30
0.0
 10
199.5317107495646
 20
243.5801970168327
 30
0.0
  0
LINE
  5
208
330
1F
100
AcDbEntity
  8
0
  6
Continuous
 62
     8
370
    18
100
AcDbLine
 10
16.7038357314
 20
198.0665373012
 30
0.0
 11
16.4056113419
 21
198.0665373012
 31
0.0
  0
ARC
  5
209
330
1F
100
AcDbEntity
  8
0
  6
Continuous
 62
     8
370
    18
100
AcDbCircle
 10
39.9840442597
 20
219.2965185231
 30
0.0
 40
0.7264299444962368
100
AcDbArc
 50
346.2442382308
 51
48.5329480933
  0
SPLINE
  5
20A
330
1F
100
AcDbEntity
  8
0
  6
Continuous
 62
     8
370
    18
100
AcDbSpline
210
0.0
220
0.0
230
1.0
 70
     8
 71
     3
 72
    12
 73
     8
 74
     0
 42
0.000000001
 43
0.00000001
 40
0.0
 40
0.0
 40
0.0
 40
0.0
 40
0.0187209019467858
 40
0.2177847722490901
 40
0.3524717743875148
 40
0.5865090129970806
 40
0.9999999999999999
 40
0.9999999999999999
 40
0.9999999999999999
 40
0.9999999999999999
 10
41.03936911195321
 20
222.0183806821083
 30
0.0
 10
41.03475898268216
 20
222.0009024659861
 30
0.0
 10
40.98112823582026
 20
221.7975741579643
 30
0.0
 10
40.88989659826802
 20
221.4516246439768
 30
0.0
 10
40.75509496679648
 20
220.940495760331
 30
0.0
 10
40.59234226425165
 20
220.323445874459
 30
0.0
 10
40.51467451853966
 20
220.0289285303386
 30
0.0
 10
40.46507835954231
 20
219.8408590956901
 30
0.0
  0
ARC
  5
20B
330
1F
100
AcDbEntity
  8
0
  6
Continuous
 62
     8
370
    18
100
AcDbCircle
 10
41.2159258564
 20
222.4897116607
 30
0.0
 40
0.5033141915292698
100
AcDbArc
 50
249.4644595539
 51
299.2002293553
  0
LINE
  5
20C
330
1F
100
AcDbEntity
  8
0
  6
Continuous
 62
     8
370
    18
100
AcDbLine
 10
46.7312178072
 20
243.5999857589
 30
0.0
 11
41.039369112
 21
222.0183806821
 31
0.0
  0
ARC
  5
20D
330
1F
100
AcDbEntity
  8
0
  6
Continuous
 62
     8
370
    18
100
AcDbCircle
 10
46.9077658061
 20
244.0714893926
 30
0.0
 40
0.5034728120973258
100
AcDbArc
 50
249.4722839853
 51
299.1922525684
  0
ARC
  5
20E
330
1F
100
AcDbEntity
  8
0
  6
Continuous
 62
     8
370
    18
100
AcDbCircle
 10
40.6862610233
 20
221.0755330164
 30
0.0
 40
1.006800398807887
100
AcDbArc
 50
69.4684546402
 51
119.1960819135
  0
ARC
  5
20F
330
1F
100
AcDbEntity
  8
0
  6
Continuous
 62
     8
370
    18
100
AcDbCircle
 10
41.4271324962
 20
220.9295358369
 30
0.0
 40
1.452847276482792
100
AcDbArc
 50
166.2439376552
 51
228.533248669
  0
SPLINE
  5
210
330
1F
100
AcDbEntity
  8
0
  6
Continuous
 62
     8
370
    18
100
AcDbSpline
210
0.0
220
0.0
230
1.0
 70
     8
 71
     3
 72
    11
 73
     7
 74
     0
 42
0.000000001
 43
0.00000001
 40
0.0
 40
0.0
 40
0.0
 40
0.0
 40
0.2499995000993193
 40
0.5000012805353823
 40
0.7499989842080514
 40
1.0
 40
1.0
 40
1.0
 40
1.0
 10
45.88699997037454
 20
243.5360448762153
 30
0.0
 10
45.90433461260436
 20
243.5603693558818
 30
0.0
 10
45.93900405517964
 20
243.6090185370871
 30
0.0
 10
46.12199665948927
 20
243.6412075180259
 30
0.0
 10
46.3834495739025
 20
243.6426984893315
 30
0.0
 10
46.61529455085496
 20
243.6142233985847
 30
0.0
 10
46.73121780723138
 20
243.5999857588981
 30
0.0
  0
SPLINE
  5
211
330
1F
100
AcDbEntity
  8
0
  6
Continuous
 62
     8
370
    18
100
AcDbSpline
210
0.0
220
0.0
230
1.0
 70
     8
 71
     3
 72
     9
 73
     5
 74
     0
 42
0.000000001
 43
0.00000001
 40
0.0
 40
0.0
 40
0.0
 40
0.0
 40
0.5005547280974388
 40
1.0
 40
1.0
 40
1.0
 40
1.0
 10
40.46507835954232
 20
219.8408590956901
 30
0.0
 10
40.45108678601994
 20
219.7878146740689
 30
0.0
 10
40.42313465064495
 20
219.6818434013115
 30
0.0
 10
40.41914259025114
 20
219.6667018240857
 30
0.0
 10
40.41714877456231
 20
219.6591394349311
 30
0.0
  0
LINE
  5
212
330
1F
100
AcDbEntity
  8
0
  6
Continuous
 62
     8
370
    18
100
AcDbLine
 10
46.8324786481
 20
243.9839290782
 30
0.0
 11
46.7312178072
 21
243.5999857589
 31
0.0
  0
SPLINE
  5
213
330
1F
100
AcDbEntity
  8
0
  6
Continuous
 62
     8
370
    18
100
AcDbSpline
210
0.0
220
0.0
230
1.0
 70
     8
 71
     3
 72
    11
 73
     7
 74
     0
 42
0.000000001
 43
0.00000001
 40
0.0
 40
0.0
 40
0.0
 40
0.0
 40
0.2501150193215343
 40
0.5000302669251177
 40
0.749886913886046
 40
0.9999999999999999
 40
0.9999999999999999
 40
0.9999999999999999
 40
0.9999999999999999
 10
47.0351493415217
 20
244.7523968621467
 30
0.0
 10
47.00523416464951
 20
244.7195728517142
 30
0.0
 10
46.94542770473724
 20
244.6539510480231
 30
0.0
 10
46.87991684039356
 20
244.4836701208145
 30
0.0
 10
46.84072223732187
 20
244.2569556094487
 30
0.0
 10
46.83522745063258
 20
244.0749690361674
 30
0.0
 10
46.83247864812417
 20
243.9839290782188
 30
0.0
  0
SPLINE
  5
214
330
1F
100
AcDbEntity
  8
0
  6
Continuous
 62
     8
370
    18
100
AcDbSpline
210
0.0
220
0.0
230
1.0
 70
     8
 71
     3
 72
     9
 73
     5
 74
     0
 42
0.000000001
 43
0.00000001
 40
0.0
 40
0.0
 40
0.0
 40
0.0
 40
0.8597168311987179
 40
1.0
 40
1.0
 40
1.0
 40
1.0
 10
47.04639226764245
 20
244.7950141831611
 30
0.0
 10
47.04514176460567
 20
244.790266266573
 30
0.0
 10
47.04368721237243
 20
244.7847436149092
 30
0.0
 10
47.03619971182492
 20
244.7563763166385
 30
0.0
 10
47.0351493415217
 20
244.7523968621467
 30
0.0
  0
SPLINE
  5
215
330
1F
100
AcDbEntity
  8
0
  6
Continuous
 62
     8
370
    18
100
AcDbSpline
210
0.0
220
0.0
230
1.0
 70
     8
 71
     3
 72
    11
 73
     7
 74
     0
 42
0.000000001
 43
0.00000001
 40
0.0
 40
0.0
 40
0.0
 40
0.0
 40
0.2498935333500221
 40
0.5002944468234024
 40
0.750680188711719
 40
1.0
 40
1.0
 40
1.0
 40
1.0
 10
45.91622114747567
 20
243.6468350096916
 30
0.0
 10
45.94079230664788
 20
243.6986820054144
 30
0.0
 10
45.9899845139094
 20
243.8024812662313
 30
0.0
 10
46.19339799040256
 20
243.9114334993677
 30
0.0
 10
46.47277985542007
 20
243.9799460853633
 30
0.0
 10
46.7127496784895
 20
243.9826033033197
 30
0.0
 10
46.83247864812416
 20
243.9839290782188
 30
0.0
  0
SPLINE
  5
216
330
1F
100
AcDbEntity
  8
0
  6
Continuous
 62
     8
370
    18
100
AcDbSpline
210
0.0
220
0.0
230
1.0
 70
     8
 71
     3
 72
    11
 73
     7
 74
     0
 42
0.000000001
 43
0.00000001
 40
0.0
 40
0.0
 40
0.0
 40
0.0
 40
0.2498897596009513
 40
0.5002874596206847
 40
0.750675440097681
 40
0.9999999999999999
 40
0.9999999999999999
 40
0.9999999999999999
 40
0.9999999999999999
 10
45.91622114747566
 20
243.6468350096916
 30
0.0
 10
45.96121586069013
 20
243.7761304788721
 30
0.0
 10
46.05129674598281
 20
244.0349842307028
 30
0.0
 10
46.3116464794708
 20
244.3597968877337
 30
0.0
 10
46.64083125064894
 20
244.6171984632578
 30
0.0
 10
46.9038965845736
 20
244.707394710331
 30
0.0
 10
47.0351493415217
 20
244.7523968621467
 30
0.0
  0
LINE
  5
217
330
1F
100
AcDbEntity
  8
0
  6
Continuous
 62
     8
370
    18
100
AcDbLine
 10
17.144656783
 20
199.4961994096
 30
0.0
 11
227.9559141454
 21
199.4961994096
 31
0.0
  0
LINE
  5
218
330
1F
100
AcDbEntity
  8
0
  6
Continuous
 62
     8
370
    18
100
AcDbLine
 10
228.3967277464
 20
198.0665373012
 30
0.0
 11
16.7038357314
 21
198.0665373012
 31
0.0
  0
LINE
  5
219
330
1F
100
AcDbEntity
  8
0
  6
Continuous
 62
     8
370
    18
100
AcDbLine
 10
207.2681328711
 20
209.8912345573
 30
0.0
 11
37.8324380574
 21
209.8912345573
 31
0.0
  0
LINE
  5
21A
330
1F
100
AcDbEntity
  8
0
  6
Continuous
 62
     8
370
    18
100
AcDbLine
 10
227.9559141454
 20
199.4961994096
 30
0.0
 11
207.2681328711
 21
209.8912345573
 31
0.0
  0
LINE
  5
21B
330
1F
100
AcDbEntity
  8
0
  6
Continuous
 62
     8
370
    18
100
AcDbLine
 10
38.6611661372
 20
210.402046363
 30
0.0
 11
206.4393973407
 21
210.402046363
 31
0.0
  0
LINE
  5
21C
330
1F
100
AcDbEntity
  8
0
  6
Continuous
 62
     8
370
    18
100
AcDbLine
 10
50.2547985372
 20
254.3612318441
 30
0.0
 11
52.5046652612
 21
254.3612318441
 31
0.0
  0
LINE
  5
21D
330
1F
100
AcDbEntity
  8
0
  6
Continuous
 62
     8
370
    18
100
AcDbLine
 10
193.3030104694
 20
254.3612318441
 30
0.0
 11
194.8457723913
 21
254.3612318441
 31
0.0
  0
LINE
  5
21E
330
1F
100
AcDbEntity
  8
0
  6
Continuous
 62
     8
370
    18
100
AcDbLine
 10
194.8457723913
 20
254.3612318441
 30
0.0
 11
206.4393973407
 21
210.402046363
 31
0.0
  0
SPLINE
  5
21F
330
1F
100
AcDbEntity
  8
0
  6
Continuous
 62
     8
370
    18
100
AcDbSpline
210
0.0
220
0.0
230
1.0
 70
     8
 71
     3
 72
    11
 73
     7
 74
     0
 42
0.000000001
 43
0.00000001
 40
0.0
 40
0.0
 40
0.0
 40
0.0
 40
0.2810819373273854
 40
0.5397062108933369
 40
0.7725390937717083
 40
1.0
 40
1.0
 40
1.0
 40
1.0
 10
53.89048815339608
 20
243.3123933478569
 30
0.0
 10
53.99200788624653
 20
243.6305837580214
 30
0.0
 10
54.18693620810376
 20
244.2415420509853
 30
0.0
 10
54.85933462149723
 20
244.9097895307603
 30
0.0
 10
55.65203996296501
 20
245.2986945229599
 30
0.0
 10
56.21159729124542
 20
245.3416835716112
 30
0.0
 10
56.48811072677179
 20
245.3629272385811
 30
0.0
  0
LINE
  5
220
330
1F
100
AcDbEntity
  8
0
  6
Continuous
 62
     8
370
    18
100
AcDbLine
 10
49.3655717429
 20
221.8778925344
 30
0.0
 11
53.8904881534
 21
243.3123933479
 31
0.0
  0
SPLINE
  5
221
330
1F
100
AcDbEntity
  8
0
  6
Continuous
 62
     8
370
    18
100
AcDbSpline
210
0.0
220
0.0
230
1.0
 70
     8
 71
     3
 72
    10
 73
     6
 74
     0
 42
0.000000001
 43
0.00000001
 40
0.0
 40
0.0
 40
0.0
 40
0.0
 40
0.3832440432925838
 40
0.7405045813909976
 40
1.0
 40
1.0
 40
1.0
 40
1.0
 10
50.22583067983194
 20
219.3901734753822
 30
0.0
 10
49.98793643049912
 20
219.6558430090067
 30
0.0
 10
49.52827688822922
 20
220.1691699875418
 30
0.0
 10
49.26829465867642
 20
221.0838316368118
 30
0.0
 10
49.3367638478462
 20
221.6427372229882
 30
0.0
 10
49.36557174294992
 20
221.8778925343727
 30
0.0
  0
SPLINE
  5
222
330
1F
100
AcDbEntity
  8
0
  6
Continuous
 62
     8
370
    18
100
AcDbSpline
210
0.0
220
0.0
230
1.0
 70
     8
 71
     3
 72
    10
 73
     6
 74
     0
 42
0.000000001
 43
0.00000001
 40
0.0
 40
0.0
 40
0.0
 40
0.0
 40
0.3005989758827901
 40
0.7479238948581185
 40
1.0
 40
1.0
 40
1.0
 40
1.0
 10
52.1988934335093
 20
218.6348783179496
 30
0.0
 10
51.98183909324672
 20
218.6492593562999
 30
0.0
 10
51.4417836020785
 20
218.6850409892328
 30
0.0
 10
50.75292747671379
 20
218.9627520686541
 30
0.0
 10
50.36547513738628
 20
219.27693615191
 30
0.0
 10
50.22583067983194
 20
219.3901734753822
 30
0.0
  0
LINE
  5
223
330
1F
100
AcDbEntity
  8
0
  6
Continuous
 62
     8
370
    18
100
AcDbLine
 10
193.6087822971
 20
218.6348783179
 30
0.0
 11
52.1988934335
 21
218.6348783179
 31
0.0
  0
SPLINE
  5
224
330
1F
100
AcDbEntity
  8
0
  6
Continuous
 62
     8
370
    18
100
AcDbSpline
210
0.0
220
0.0
230
1.0
 70
     8
 71
     3
 72
    10
 73
     6
 74
     0
 42
0.000000001
 43
0.00000001
 40
0.0
 40
0.0
 40
0.0
 40
0.0
 40
0.2945072495798911
 40
0.7405799296742885
 40
1.0
 40
1.0
 40
1.0
 40
1.0
 10
195.5818450507502
 20
219.3901734753822
 30
0.0
 10
195.4171841487935
 20
219.2592872946887
 30
0.0
 10
195.0031211355225
 20
218.9301555716781
 30
0.0
 10
194.3052184306683
 20
218.6747829277483
 30
0.0
 10
193.7960215034242
 20
218.6456068070501
 30
0.0
 10
193.6087822970728
 20
218.6348783179496
 30
0.0
  0
SPLINE
  5
225
330
1F
100
AcDbEntity
  8
0
  6
Continuous
 62
     8
370
    18
100
AcDbSpline
210
0.0
220
0.0
230
1.0
 70
     8
 71
     3
 72
    11
 73
     7
 74
     0
 42
0.000000001
 43
0.00000001
 40
0.0
 40
0.0
 40
0.0
 40
0.0
 40
0.3155608447944945
 40
0.6309724078201034
 40
0.9536701879302543
 40
0.9999999999999999
 40
0.9999999999999999
 40
0.9999999999999999
 40
0.9999999999999999
 10
196.4421039876322
 20
221.8778925343727
 30
0.0
 10
196.4730553062867
 20
221.5894246435385
 30
0.0
 10
196.534943301514
 20
221.0126253268267
 30
0.0
 10
196.2417977204283
 20
220.1676006521845
 30
0.0
 10
195.8625687940635
 20
219.653209312157
 30
0.0
 10
195.6131575496684
 20
219.4195130291272
 30
0.0
 10
195.5818450507502
 20
219.3901734753822
 30
0.0
  0
LINE
  5
226
330
1F
100
AcDbEntity
  8
0
  6
Continuous
 62
     8
370
    18
100
AcDbLine
 10
191.9171875772
 20
243.3123933479
 30
0.0
 11
196.4421039876
 21
221.8778925344
 31
0.0
  0
SPLINE
  5
227
330
1F
100
AcDbEntity
  8
0
  6
Continuous
 62
     8
370
    18
100
AcDbSpline
210
0.0
220
0.0
230
1.0
 70
     8
 71
     3
 72
    11
 73
     7
 74
     0
 42
0.000000001
 43
0.00000001
 40
0.0
 40
0.0
 40
0.0
 40
0.0
 40
0.2810218969377502
 40
0.5397676318490648
 40
0.7726334281411934
 40
1.0
 40
1.0
 40
1.0
 40
1.0
 10
189.3195650038104
 20
245.3629272385811
 30
0.0
 10
189.6622154946418
 20
245.3304238590616
 30
0.0
 10
190.3203551129541
 20
245.2679935915934
 30
0.0
 10
191.132184039678
 20
244.7647036345762
 30
0.0
 10
191.6849269446009
 20
244.091462136979
 30
0.0
 10
191.8403865515651
 20
243.5700060193109
 30
0.0
 10
191.9171875771861
 20
243.3123933478569
 30
0.0
  0
LINE
  5
228
330
1F
100
AcDbEntity
  8
0
  6
Continuous
 62
     8
370
    18
100
AcDbLine
 10
56.4881107268
 20
245.3629272386
 30
0.0
 11
189.3195650038
 21
245.3629272386
 31
0.0
  0
LINE
  5
229
330
1F
100
AcDbEntity
  8
0
  6
Continuous
 62
     8
370
    18
100
AcDbLine
 10
206.9220534024
 20
210.2006571695
 30
0.0
 11
207.6942911801
 21
210.4088561937
 31
0.0
  0
LINE
  5
22A
330
1F
100
AcDbEntity
  8
0
  6
Continuous
 62
     8
370
    18
100
AcDbLine
 10
207.6942911801
 20
210.4088561937
 30
0.0
 11
196.10065878
 21
254.3680416747
 31
0.0
  0
LINE
  5
22B
330
1F
100
AcDbEntity
  8
0
  6
Continuous
 62
     8
370
    18
100
AcDbLine
 10
207.1846193132
 20
210.1327376767
 30
0.0
 11
207.2141683158
 21
210.140709798
 31
0.0
  0
SPLINE
  5
22C
330
1F
100
AcDbEntity
  8
0
  6
Continuous
 62
     8
370
    18
100
AcDbSpline
210
0.0
220
0.0
230
1.0
 70
     8
 71
     3
 72
    11
 73
     7
 74
     0
 42
0.000000001
 43
0.00000001
 40
0.0
 40
0.0
 40
0.0
 40
0.0
 40
0.1247729205752723
 40
0.5151335237067506
 40
0.810572950100037
 40
1.0
 40
1.0
 40
1.0
 40
1.0
 10
194.1551408228259
 20
221.1576896115516
 30
0.0
 10
194.1764221039203
 20
221.178140858048
 30
0.0
 10
194.2642833262802
 20
221.2625752258846
 30
0.0
 10
194.373764038233
 20
221.4228592077669
 30
0.0
 10
194.426946449309
 20
221.6256952598769
 30
0.0
 10
194.4116232443133
 20
221.7380602427009
 30
0.0
 10
194.405636793075
 20
221.7819588586067
 30
0.0
  0
SPLINE
  5
22D
330
1F
100
AcDbEntity
  8
0
  6
Continuous
 62
     8
370
    18
100
AcDbSpline
210
0.0
220
0.0
230
1.0
 70
     8
 71
     3
 72
     9
 73
     5
 74
     0
 42
0.000000001
 43
0.00000001
 40
0.0
 40
0.0
 40
0.0
 40
0.0
 40
0.5054407177725683
 40
1.0
 40
1.0
 40
1.0
 40
1.0
 10
193.6087822970728
 20
220.9506379767631
 30
0.0
 10
193.7111845925224
 20
220.9601386772885
 30
0.0
 10
193.91378460445
 20
220.9789355414731
 30
0.0
 10
194.0752744973207
 20
221.0985387396896
 30
0.0
 10
194.1551408228259
 20
221.1576896115516
 30
0.0
  0
LINE
  5
22E
330
1F
100
AcDbEntity
  8
0
  6
Continuous
 62
     8
370
    18
100
AcDbLine
 10
52.1988934335
 20
220.9506379768
 30
0.0
 11
193.6087822971
 21
220.9506379768
 31
0.0
  0
SPLINE
  5
22F
330
1F
100
AcDbEntity
  8
0
  6
Continuous
 62
     8
370
    18
100
AcDbSpline
210
0.0
220
0.0
230
1.0
 70
     8
 71
     3
 72
     9
 73
     5
 74
     0
 42
0.000000001
 43
0.00000001
 40
0.0
 40
0.0
 40
0.0
 40
0.0
 40
0.4941492776389098
 40
1.0
 40
1.0
 40
1.0
 40
1.0
 10
51.65253490775628
 20
221.1576896115516
 30
0.0
 10
51.73232860403947
 20
221.0985827465736
 30
0.0
 10
51.89380550969119
 20
220.9789693672716
 30
0.0
 10
52.09640721468606
 20
220.9601551580755
 30
0.0
 10
52.1988934335093
 20
220.9506379767631
 30
0.0
  0
SPLINE
  5
230
330
1F
100
AcDbEntity
  8
0
  6
Continuous
 62
     8
370
    18
100
AcDbSpline
210
0.0
220
0.0
230
1.0
 70
     8
 71
     3
 72
    10
 73
     6
 74
     0
 42
0.000000001
 43
0.00000001
 40
0.0
 40
0.0
 40
0.0
 40
0.0
 40
0.2402918739529565
 40
0.5792789668595839
 40
1.0
 40
1.0
 40
1.0
 40
1.0
 10
51.40203893750709
 20
221.7819588586067
 30
0.0
 10
51.39563521879695
 20
221.7261116152065
 30
0.0
 10
51.3801975783248
 20
221.5914789581522
 30
0.0
 10
51.46107119264632
 20
221.3621346883456
 30
0.0
 10
51.58429463141015
 20
221.230556622045
 30
0.0
 10
51.65253490775627
 20
221.1576896115516
 30
0.0
  0
LINE
  5
231
330
1F
100
AcDbEntity
  8
0
  6
Continuous
 62
     8
370
    18
100
AcDbLine
 10
55.926955348
 20
243.2164745733
 30
0.0
 11
51.4020389375
 21
221.7819588586
 31
0.0
  0
SPLINE
  5
232
330
1F
100
AcDbEntity
  8
0
  6
Continuous
 62
     8
370
    18
100
AcDbSpline
210
0.0
220
0.0
230
1.0
 70
     8
 71
     3
 72
    12
 73
     8
 74
     0
 42
0.000000001
 43
0.00000001
 40
0.0
 40
0.0
 40
0.0
 40
0.0
 40
0.0983380753039723
 40
0.3296584961208055
 40
0.4882717108301229
 40
0.711710131632281
 40
1.0
 40
1.0
 40
1.0
 40
1.0
 10
56.48811072677177
 20
243.6592029734825
 30
0.0
 10
56.46199996512343
 20
243.6585545810241
 30
0.0
 10
56.37446892090729
 20
243.6563809765269
 30
0.0
 10
56.24526697301907
 20
243.630476482417
 30
0.0
 10
56.10028496949374
 20
243.5543530485637
 30
0.0
 10
55.98306069543643
 20
243.4166193763878
 30
0.0
 10
55.94717314312236
 20
243.2885975849698
 30
0.0
 10
55.92695534795327
 20
243.2164745732521
 30
0.0
  0
LINE
  5
233
330
1F
100
AcDbEntity
  8
0
  6
Continuous
 62
     8
370
    18
100
AcDbLine
 10
189.3195650038
 20
243.6592029735
 30
0.0
 11
56.4881107268
 21
243.6592029735
 31
0.0
  0
SPLINE
  5
234
330
1F
100
AcDbEntity
  8
0
  6
Continuous
 62
     8
370
    18
100
AcDbSpline
210
0.0
220
0.0
230
1.0
 70
     8
 71
     3
 72
    12
 73
     8
 74
     0
 42
0.000000001
 43
0.00000001
 40
0.0
 40
0.0
 40
0.0
 40
0.0
 40
0.0979356834321546
 40
0.3290306449181646
 40
0.487512681946704
 40
0.7110810005795322
 40
1.0
 40
1.0
 40
1.0
 40
1.0
 10
189.8807203826289
 20
243.2164745732521
 30
0.0
 10
189.874865123318
 20
243.2409812348787
 30
0.0
 10
189.8551934400286
 20
243.32331529737
 30
0.0
 10
189.8031991672519
 20
243.4403617348318
 30
0.0
 10
189.6971213779161
 20
243.5624603914793
 30
0.0
 10
189.5339626765802
 20
243.6460503287395
 30
0.0
 10
189.3968585810434
 20
243.6544612477486
 30
0.0
 10
189.3195650038104
 20
243.6592029734825
 30
0.0
  0
LINE
  5
235
330
1F
100
AcDbEntity
  8
0
  6
Continuous
 62
     8
370
    18
100
AcDbLine
 10
194.4056367931
 20
221.7819588586
 30
0.0
 11
189.8807203826
 21
243.2164745733
 31
0.0
  0
SPLINE
  5
236
330
1F
100
AcDbEntity
  8
0
  6
Continuous
 62
     8
370
    18
100
AcDbSpline
210
0.0
220
0.0
230
1.0
 70
     8
 71
     3
 72
    10
 73
     6
 74
     0
 42
0.000000001
 43
0.00000001
 40
0.0
 40
0.0
 40
0.0
 40
0.0
 40
0.4993496890333078
 40
0.9453247118020789
 40
0.9999999999999999
 40
0.9999999999999999
 40
0.9999999999999999
 40
0.9999999999999999
 10
52.1988934335093
 20
219.4068031712745
 30
0.0
 10
51.92439229665709
 20
219.4354931061543
 30
0.0
 10
51.40473099760524
 20
219.489806356002
 30
0.0
 10
50.92494471680202
 20
219.7807987125329
 30
0.0
 10
50.72341049673813
 20
219.9598018202465
 30
0.0
 10
50.70140123933357
 20
219.9793504878257
 30
0.0
  0
ARC
  5
237
330
1F
100
AcDbEntity
  8
0
  6
Continuous
 62
     8
370
    18
100
AcDbCircle
 10
56.6835093198
 20
216.1237412331
 30
0.0
 40
7.116975467906264
100
AcDbArc
 50
134.9830703403
 51
147.1972683284
  0
LINE
  5
238
330
1F
100
AcDbEntity
  8
0
  6
Continuous
 62
     8
370
    18
100
AcDbLine
 10
52.1988934335
 20
220.9506379768
 30
0.0
 11
52.1988934335
 21
219.4068031713
 31
0.0
  0
ARC
  5
239
330
1F
100
AcDbEntity
  8
0
  6
Continuous
 62
     8
370
    18
100
AcDbCircle
 10
189.1241664108
 20
216.1237412331
 30
0.0
 40
7.116975467906264
100
AcDbArc
 50
32.8027316716
 51
45.0169296597
  0
SPLINE
  5
23A
330
1F
100
AcDbEntity
  8
0
  6
Continuous
 62
     8
370
    18
100
AcDbSpline
210
0.0
220
0.0
230
1.0
 70
     8
 71
     3
 72
    10
 73
     6
 74
     0
 42
0.000000001
 43
0.00000001
 40
0.0
 40
0.0
 40
0.0
 40
0.0
 40
0.5000920805280843
 40
0.9396690147253547
 40
1.0
 40
1.0
 40
1.0
 40
1.0
 10
195.1062744912486
 20
219.9793504878257
 30
0.0
 10
194.8853472518051
 20
219.8184017772666
 30
0.0
 10
194.4702267380098
 20
219.5159804389548
 30
0.0
 10
193.9149674902285
 20
219.411166129767
 30
0.0
 10
193.6417547561846
 20
219.4072730093781
 30
0.0
 10
193.6087822970728
 20
219.4068031712745
 30
0.0
  0
LINE
  5
23B
330
1F
100
AcDbEntity
  8
0
  6
Continuous
 62
     8
370
    18
100
AcDbLine
 10
193.6087822971
 20
220.9506379768
 30
0.0
 11
193.6087822971
 21
219.4068031713
 31
0.0
  0
LINE
  5
23C
330
1F
100
AcDbEntity
  8
0
  6
Continuous
 62
     8
370
    18
100
AcDbLine
 10
193.6087822971
 20
219.4068031713
 30
0.0
 11
52.1988934335
 21
219.4068031713
 31
0.0
  0
SPLINE
  5
23D
330
1F
100
AcDbEntity
  8
0
  6
Continuous
 62
     8
370
    18
100
AcDbSpline
210
0.0
220
0.0
230
1.0
 70
     8
 71
     3
 72
    10
 73
     6
 74
     0
 42
0.000000001
 43
0.00000001
 40
0.0
 40
0.0
 40
0.0
 40
0.0
 40
0.3561679707478925
 40
0.7198003102034073
 40
1.0
 40
1.0
 40
1.0
 40
1.0
 10
50.70140123933358
 20
219.9793504878257
 30
0.0
 10
50.53357667996202
 20
220.1628476714946
 30
0.0
 10
50.19441038816512
 20
220.5336876699619
 30
0.0
 10
49.97222414813152
 20
221.214703639109
 30
0.0
 10
50.02250960055604
 20
221.6545087375596
 30
0.0
 10
50.04439414113565
 20
221.8459146424507
 30
0.0
  0
ARC
  5
23E
330
1F
100
AcDbEntity
  8
0
  6
Continuous
 62
     8
370
    18
100
AcDbCircle
 10
50.5578498711
 20
218.3035553099
 30
0.0
 40
3.57937793858916
100
AcDbArc
 50
76.3583862826
 51
98.2474347928
  0
ARC
  5
23F
330
1F
100
AcDbEntity
  8
0
  6
Continuous
 62
     8
370
    18
100
AcDbCircle
 10
195.2498258595
 20
218.3035553099
 30
0.0
 40
3.579377938589131
100
AcDbArc
 50
81.7525652072
 51
103.6416137174
  0
SPLINE
  5
240
330
1F
100
AcDbEntity
  8
0
  6
Continuous
 62
     8
370
    18
100
AcDbSpline
210
0.0
220
0.0
230
1.0
 70
     8
 71
     3
 72
    11
 73
     7
 74
     0
 42
0.000000001
 43
0.00000001
 40
0.0
 40
0.0
 40
0.0
 40
0.0
 40
0.2210283412266176
 40
0.5507161009132173
 40
0.9013281262674705
 40
1.0
 40
1.0
 40
1.0
 40
1.0
 10
195.7632815894465
 20
221.8459146424507
 30
0.0
 10
195.7837480262326
 20
221.695221136935
 30
0.0
 10
195.8347423747577
 20
221.3197519128078
 30
0.0
 10
195.6810385208891
 20
220.7035166516006
 30
0.0
 10
195.381306772
 20
220.2438755385009
 30
0.0
 10
195.1558002957474
 20
220.026984227069
 30
0.0
 10
195.1062744912486
 20
219.9793504878257
 30
0.0
  0
LINE
  5
241
330
1F
100
AcDbEntity
  8
0
  6
Continuous
 62
     8
370
    18
100
AcDbLine
 10
50.0443941411
 20
221.8459146425
 30
0.0
 11
54.5693105516
 21
243.2804154559
 31
0.0
  0
ARC
  5
242
330
1F
100
AcDbEntity
  8
0
  6
Continuous
 62
     8
370
    18
100
AcDbCircle
 10
55.0828102599
 20
239.7381792786
 30
0.0
 40
3.579262366229914
100
AcDbArc
 50
76.3586617152
 51
98.2484143036
  0
ARC
  5
243
330
1F
100
AcDbEntity
  8
0
  6
Continuous
 62
     8
370
    18
100
AcDbCircle
 10
190.7248654707
 20
239.7381792786
 30
0.0
 40
3.579262366229913
100
AcDbArc
 50
81.7515856964
 51
103.6413382848
  0
LINE
  5
244
330
1F
100
AcDbEntity
  8
0
  6
Continuous
 62
     8
370
    18
100
AcDbLine
 10
191.238365179
 20
243.2804154559
 30
0.0
 11
195.7632815894
 21
221.8459146425
 31
0.0
  0
LINE
  5
245
330
1F
100
AcDbEntity
  8
0
  6
Continuous
 62
     8
370
    18
100
AcDbLine
 10
193.6087822971
 20
219.4068031713
 30
0.0
 11
193.6087822971
 21
218.6348783179
 31
0.0
  0
ARC
  5
246
330
1F
100
AcDbEntity
  8
0
  6
Continuous
 62
     8
370
    18
100
AcDbCircle
 10
198.0982139419
 20
221.9078538748
 30
0.0
 40
3.559610511019393
100
AcDbArc
 50
212.8044646782
 51
225.0149271255
  0
ARC
  5
247
330
1F
100
AcDbEntity
  8
0
  6
Continuous
 62
     8
370
    18
100
AcDbCircle
 10
47.7094617886
 20
221.9078538748
 30
0.0
 40
3.559610511019308
100
AcDbArc
 50
314.9850728745
 51
327.1955353218
  0
LINE
  5
248
330
1F
100
AcDbEntity
  8
0
  6
Continuous
 62
     8
370
    18
100
AcDbLine
 10
52.1988934335
 20
219.4068031713
 30
0.0
 11
52.1988934335
 21
218.6348783179
 31
0.0
  0
ARC
  5
249
330
1F
100
AcDbEntity
  8
0
  6
Continuous
 62
     8
370
    18
100
AcDbCircle
 10
49.7876737596
 20
223.6172531653
 30
0.0
 40
1.789845109775466
100
AcDbArc
 50
256.3593528315
 51
278.2464682439
  0
ARC
  5
24A
330
1F
100
AcDbEntity
  8
0
  6
Continuous
 62
     8
370
    18
100
AcDbCircle
 10
196.020001971
 20
223.6172531653
 30
0.0
 40
1.789845109775465
100
AcDbArc
 50
261.7535317561
 51
283.6406471685
  0
ARC
  5
24B
330
1F
100
AcDbEntity
  8
0
  6
Continuous
 62
     8
370
    18
100
AcDbCircle
 10
191.4950649969
 20
245.0521905011
 30
0.0
 40
1.790274170910467
100
AcDbArc
 50
261.7561868682
 51
283.6379920563
  0
ARC
  5
24C
330
1F
100
AcDbEntity
  8
0
  6
Continuous
 62
     8
370
    18
100
AcDbCircle
 10
54.3126107336
 20
245.0521905011
 30
0.0
 40
1.790274170910463
100
AcDbArc
 50
256.3620079437
 51
278.2438131318
  0
SPLINE
  5
24D
330
1F
100
AcDbEntity
  8
0
  6
Continuous
 62
     8
370
    18
100
AcDbSpline
210
0.0
220
0.0
230
1.0
 70
     8
 71
     3
 72
    12
 73
     8
 74
     0
 42
0.000000001
 43
0.00000001
 40
0.0
 40
0.0
 40
0.0
 40
0.0
 40
0.2472584205152648
 40
0.516209125007149
 40
0.7097231906065061
 40
0.924942603438447
 40
1.0
 40
1.0
 40
1.0
 40
1.0
 10
189.3195650038104
 20
244.7950141831611
 30
0.0
 10
189.5420588056223
 20
244.7772478114328
 30
0.0
 10
190.0065660629019
 20
244.740156402431
 30
0.0
 10
190.5797141701348
 20
244.4239368399421
 30
0.0
 10
190.9808220163663
 20
243.9764153021053
 30
0.0
 10
191.1644112607771
 20
243.588583706884
 30
0.0
 10
191.2231714509648
 20
243.3437281877901
 30
0.0
 10
191.2383651790003
 20
243.2804154559349
 30
0.0
  0
LINE
  5
24E
330
1F
100
AcDbEntity
  8
0
  6
Continuous
 62
     8
370
    18
100
AcDbLine
 10
189.3195650038
 20
244.7950141832
 30
0.0
 11
189.3195650038
 21
243.6592029735
 31
0.0
  0
SPLINE
  5
24F
330
1F
100
AcDbEntity
  8
0
  6
Continuous
 62
     8
370
    18
100
AcDbSpline
210
0.0
220
0.0
230
1.0
 70
     8
 71
     3
 72
    12
 73
     8
 74
     0
 42
0.000000001
 43
0.00000001
 40
0.0
 40
0.0
 40
0.0
 40
0.0
 40
0.2469589224302748
 40
0.5158949019852145
 40
0.7094647233735661
 40
0.9247133164302216
 40
1.0
 40
1.0
 40
1.0
 40
1.0
 10
54.56931055158181
 20
243.2804154559349
 30
0.0
 10
54.63172787135276
 20
243.4874009129358
 30
0.0
 10
54.76211707433652
 20
243.9197916158147
 30
0.0
 10
55.19694017659189
 20
244.3994477538432
 30
0.0
 10
55.73065285290676
 20
244.6900469257076
 30
0.0
 10
56.1606140813135
 20
244.7865612006529
 30
0.0
 10
56.42071144788881
 20
244.7932745472492
 30
0.0
 10
56.48811072677179
 20
244.7950141831611
 30
0.0
  0
LINE
  5
250
330
1F
100
AcDbEntity
  8
0
  6
Continuous
 62
     8
370
    18
100
AcDbLine
 10
56.4881107268
 20
244.7950141832
 30
0.0
 11
56.4881107268
 21
243.6592029735
 31
0.0
  0
LINE
  5
251
330
1F
100
AcDbEntity
  8
0
  6
Continuous
 62
     8
370
    18
100
AcDbLine
 10
56.4881107268
 20
244.7950141832
 30
0.0
 11
189.3195650038
 21
244.7950141832
 31
0.0
  0
LINE
  5
252
330
1F
100
AcDbEntity
  8
0
  6
Continuous
 62
     8
370
    18
100
AcDbLine
 10
56.4881107268
 20
245.3629272386
 30
0.0
 11
56.4881107268
 21
244.7950141832
 31
0.0
  0
LINE
  5
253
330
1F
100
AcDbEntity
  8
0
  6
Continuous
 62
     8
370
    18
100
AcDbLine
 10
189.3195650038
 20
245.3629272386
 30
0.0
 11
189.3195650038
 21
244.7950141832
 31
0.0
  0
LINE
  5
254
330
1F
100
AcDbEntity
  8
0
  6
Continuous
 62
     8
370
    18
100
AcDbLine
 10
124.4487590586
 20
-29.1435224608
 30
0.0
 11
119.0538378862
 21
-29.1435224608
 31
0.0
  0
LINE
  5
255
330
1F
100
AcDbEntity
  8
0
  6
Continuous
 62
     8
370
    18
100
AcDbLine
 10
126.7538378444
 20
-29.1435224608
 30
0.0
 11
124.4487590586
 21
-29.1435224608
 31
0.0
  0
LINE
  5
256
330
1F
100
AcDbEntity
  8
0
  6
Continuous
 62
     8
370
    18
100
AcDbLine
 10
124.3386008275
 20
-29.732926716
 30
0.0
 11
119.3283559252
 21
-29.732926716
 31
0.0
  0
LINE
  5
257
330
1F
100
AcDbEntity
  8
0
  6
Continuous
 62
     8
370
    18
100
AcDbLine
 10
126.4793198054
 20
-29.732926716
 30
0.0
 11
124.3386008275
 21
-29.732926716
 31
0.0
  0
LINE
  5
258
330
1F
100
AcDbEntity
  8
0
  6
Continuous
 62
     8
370
    18
100
AcDbLine
 10
18.1226125416
 20
193.845500271
 30
0.0
 11
18.8663071451
 21
193.845500271
 31
0.0
  0
LINE
  5
259
330
1F
100
AcDbEntity
  8
0
  6
Continuous
 62
     8
370
    18
100
AcDbLine
 10
21.8730560002
 20
191.3073705837
 30
0.0
 11
22.5912919697
 21
191.3073705837
 31
0.0
  0
LINE
  5
25A
330
1F
100
AcDbEntity
  8
0
  6
Continuous
 62
     8
370
    18
100
AcDbLine
 10
28.9468234834
 20
181.2710212871
 30
0.0
 11
29.9340626654
 21
181.4301209851
 31
0.0
  0
LINE
  5
25B
330
1F
100
AcDbEntity
  8
0
  6
Continuous
 62
     8
370
    18
100
AcDbLine
 10
28.2749450263
 20
181.2710212871
 30
0.0
 11
28.9468234834
 21
181.2710212871
 31
0.0
  0
LINE
  5
25C
330
1F
100
AcDbEntity
  8
0
  6
Continuous
 62
     8
370
    18
100
AcDbLine
 10
228.5641124901
 20
196.6662602826
 30
0.0
 11
228.3967277464
 21
196.6662602826
 31
0.0
  0
LINE
  5
25D
330
1F
100
AcDbEntity
  8
0
  6
Continuous
 62
     8
370
    18
100
AcDbLine
 10
226.9413685855
 20
193.845500271
 30
0.0
 11
227.685063189
 21
193.845500271
 31
0.0
  0
LINE
  5
25E
330
1F
100
AcDbEntity
  8
0
  6
Continuous
 62
     8
370
    18
100
AcDbLine
 10
228.5641124901
 20
195.5018537446
 30
0.0
 11
228.3967277464
 21
195.5018537446
 31
0.0
  0
LINE
  5
25F
330
1F
100
AcDbEntity
  8
0
  6
Continuous
 62
     8
370
    18
100
AcDbLine
 10
223.2163837609
 20
191.3073705837
 30
0.0
 11
223.9346197304
 21
191.3073705837
 31
0.0
  0
LINE
  5
260
330
1F
100
AcDbEntity
  8
0
  6
Continuous
 62
     8
370
    18
100
AcDbLine
 10
216.8608522472
 20
181.2710212871
 30
0.0
 11
215.8736130652
 21
181.4301209851
 31
0.0
  0
LINE
  5
261
330
1F
100
AcDbEntity
  8
0
  6
Continuous
 62
     8
370
    18
100
AcDbLine
 10
216.8608522472
 20
181.2710212871
 30
0.0
 11
217.5327307042
 21
181.2710212871
 31
0.0
  0
LINE
  5
262
330
1F
100
AcDbEntity
  8
0
  6
Continuous
 62
     8
370
    18
100
AcDbLine
 10
19.3433752713
 20
193.845500271
 30
0.0
 11
226.4643004593
 21
193.845500271
 31
0.0
  0
LINE
  5
263
330
1F
100
AcDbEntity
  8
0
  6
Continuous
 62
     8
370
    18
100
AcDbLine
 10
23.0939006862
 20
191.3073705837
 30
0.0
 11
222.7137750444
 21
191.3073705837
 31
0.0
  0
LINE
  5
264
330
1F
100
AcDbEntity
  8
0
  6
Continuous
 62
     8
370
    18
100
AcDbLine
 10
29.9227377829
 20
181.2710212871
 30
0.0
 11
215.8849379477
 21
181.2710212871
 31
0.0
  0
LINE
  5
265
330
1F
100
AcDbEntity
  8
0
  6
Continuous
 62
     8
370
    18
100
AcDbLine
 10
179.9038378951
 20
20.9811982095
 30
0.0
 11
179.9038378951
 21
20.873205769
 31
0.0
  0
LINE
  5
266
330
1F
100
AcDbEntity
  8
0
  6
Continuous
 62
     8
370
    18
100
AcDbLine
 10
65.9038378355
 20
20.9805537342
 30
0.0
 11
65.9038378355
 21
20.873205769
 31
0.0
  0
LINE
  5
267
330
1F
100
AcDbEntity
  8
0
  6
Continuous
 62
     8
370
    18
100
AcDbLine
 10
186.4857664761
 20
5.857587068
 30
0.0
 11
59.3219092545
 21
5.857587068
 31
0.0
  0
LINE
  5
268
330
1F
100
AcDbEntity
  8
0
  6
Continuous
 62
     8
370
    18
100
AcDbLine
 10
212.8035566267
 20
170.9532039567
 30
0.0
 11
189.061760014
 21
20.9762184277
 31
0.0
  0
LINE
  5
269
330
1F
100
AcDbEntity
  8
0
  6
Continuous
 62
     8
370
    18
100
AcDbLine
 10
186.7023474035
 20
6.0717894848
 30
0.0
 11
186.3481766042
 21
3.8345151442
 31
0.0
  0
LINE
  5
26A
330
1F
100
AcDbEntity
  8
0
  6
Continuous
 62
     8
370
    18
100
AcDbLine
 10
33.0040818509
 20
170.9532039567
 30
0.0
 11
56.7446193156
 21
20.97555812
 31
0.0
  0
LINE
  5
26B
330
1F
100
AcDbEntity
  8
0
  6
Continuous
 62
     8
370
    18
100
AcDbLine
 10
59.1035103855
 20
6.0735872575
 30
0.0
 11
59.485993391
 21
3.6573103025
 31
0.0
  0
DIMENSION
  5
26C
330
1F
100
AcDbEntity
  8
0
  6
Continuous
 62
     7
370
    18
100
AcDbDimension
280
     0
  2
_D
 10
6.4055895346
 20
-28.1861339642
 30
0.0
 11
6.4055895346
 21
132.5184614593
 31
0.0
 70
   160
  1
<>
 71
     2
 42
-1.0
 73
     0
 74
     0
 75
     0
  3
SLDDIMSTYLE0
100
AcDbAlignedDimension
 13
116.9877580822
 23
331.7532058639
 33
0.0
 14
101.6425300558
 24
-28.1861339642
 34
0.0
 50
90.0
100
AcDbRotatedDimension
  0
ARC
  5
276
330
1F
100
AcDbEntity
  8
0
  6
Continuous
 62
     7
100
AcDbCircle
 10
350.6424545073
 20
264.452302251
 30
0.0
 40
7.899096386958206
100
AcDbArc
 50
215.7437269367
 51
270.0
  0
ARC
  5
277
330
1F
100
AcDbEntity
  8
0
  6
Continuous
 62
     7
100
AcDbCircle
 10
310.1424545021
 20
235.3032058604
 30
0.0
 40
42.00000000562607
100
AcDbArc
 50
35.7437269367
 51
70.8348290328
  0
LINE
  5
278
330
1F
100
AcDbEntity
  8
0
  6
Continuous
 62
     7
100
AcDbLine
 10
323.9307396018
 20
274.9754088327
 30
0.0
 11
317.7547708057
 21
277.1218913003
 31
0.0
  0
ARC
  5
279
330
1F
100
AcDbEntity
  8
0
  6
Continuous
 62
     7
100
AcDbCircle
 10
319.6424545073
 20
282.5532058639
 30
0.0
 40
5.750000000022196
100
AcDbArc
 50
213.0000000127
 51
250.8348290404
  0
LINE
  5
27A
330
1F
100
AcDbEntity
  8
0
  6
Continuous
 62
     7
100
AcDbLine
 10
314.8200988673
 20
279.4215279027
 30
0.0
 11
313.6404503041
 21
281.2380390569
 31
0.0
  0
ARC
  5
27B
330
1F
100
AcDbEntity
  8
0
  6
Continuous
 62
     7
100
AcDbCircle
 10
307.3504205532
 20
277.1532387023
 30
0.0
 40
7.500000001612944
100
AcDbArc
 50
33.0000000108
 51
66.8780396062
  0
ARC
  5
27C
330
1F
100
AcDbEntity
  8
0
  6
Continuous
 62
     7
100
AcDbCircle
 10
319.3274545101
 20
305.2032058676
 30
0.0
 40
23.00000000450178
100
AcDbArc
 50
219.0000000206
 51
246.8780396218
  0
LINE
  5
27D
330
1F
100
AcDbEntity
  8
0
  6
Continuous
 62
     7
100
AcDbLine
 10
301.4530979001
 20
290.7288270398
 30
0.0
 11
299.2308299892
 21
293.4731142923
 31
0.0
  0
ARC
  5
27E
330
1F
100
AcDbEntity
  8
0
  6
Continuous
 62
     7
100
AcDbCircle
 10
293.4022350942
 20
288.7532058645
 30
0.0
 40
7.499999999449074
100
AcDbArc
 50
39.0000000007
 51
89.9999999237
  0
LINE
  5
27F
330
1F
100
AcDbEntity
  8
0
  6
Continuous
 62
     7
100
AcDbLine
 10
314.3924541675
 20
315.7532113
 30
0.0
 11
313.9497630202
 21
319.3586366578
 31
0.0
  0
LINE
  5
280
330
1F
100
AcDbEntity
  8
0
  6
Continuous
 62
     7
100
AcDbLine
 10
313.3999083095
 20
315.6313496038
 30
0.0
 11
314.3924541675
 21
315.7532113
 31
0.0
  0
ARC
  5
281
330
1F
100
AcDbEntity
  8
0
  6
Continuous
 62
     7
100
AcDbCircle
 10
311.4683980797
 20
319.0539617644
 30
0.0
 40
2.499999999999987
100
AcDbArc
 50
7.0
 51
65.6734964785
  0
LINE
  5
282
330
1F
100
AcDbEntity
  8
0
  6
Continuous
 62
     7
100
AcDbLine
 10
312.498237183
 20
321.3319974347
 30
0.0
 11
307.778970515
 21
323.4654562875
 31
0.0
  0
ARC
  5
283
330
1F
100
AcDbEntity
  8
0
  6
Continuous
 62
     7
100
AcDbCircle
 10
309.838650123
 20
328.021517412
 30
0.0
 40
5.000000000000014
100
AcDbArc
 50
230.3139844146
 51
245.6734964785
  0
ARC
  5
284
330
1F
100
AcDbEntity
  8
0
  6
Continuous
 62
     7
100
AcDbCircle
 10
285.6424545073
 20
298.8625808639
 30
0.0
 40
32.89062500000001
100
AcDbArc
 50
50.3139844146
 51
90.0
  0
ARC
  5
285
330
1F
100
AcDbEntity
  8
0
  6
Continuous
 62
     7
100
AcDbCircle
 10
310.1424545073
 20
316.7532058639
 30
0.0
 40
2.999999999999979
100
AcDbArc
 50
283.3815234015
 51
338.0401703799
  0
LINE
  5
286
330
1F
100
AcDbEntity
  8
0
  6
Continuous
 62
     7
100
AcDbLine
 10
309.7057279103
 20
311.1956017419
 30
0.0
 11
310.8367577099
 21
313.834656994
 31
0.0
  0
ARC
  5
287
330
1F
100
AcDbEntity
  8
0
  6
Continuous
 62
     7
100
AcDbCircle
 10
307.867438174
 20
311.983425455
 30
0.0
 40
1.999999999999996
100
AcDbArc
 50
297.0150015235
 51
336.8014094864
  0
ARC
  5
288
330
1F
100
AcDbEntity
  8
0
  6
Continuous
 62
     7
100
AcDbCircle
 10
319.6772562676
 20
288.8203471493
 30
0.0
 40
24.00000000000004
100
AcDbArc
 50
117.0150015235
 51
158.7276076423
  0
ARC
  5
289
330
1F
100
AcDbEntity
  8
0
  6
Continuous
 62
     7
100
AcDbCircle
 10
295.4487363692
 20
298.2532058639
 30
0.0
 40
2.0
100
AcDbArc
 50
270.0
 51
338.7276076423
  0
ARC
  5
28A
330
1F
100
AcDbEntity
  8
0
  6
Continuous
 62
     7
100
AcDbCircle
 10
330.1945643322
 20
200.9431101667
 30
0.0
 40
5.55645161290325
100
AcDbArc
 50
57.4464556844
 51
122.1908315592
  0
SPLINE
  5
28B
330
1F
100
AcDbEntity
  8
0
  6
Continuous
 62
     7
100
AcDbSpline
210
0.0
220
0.0
230
1.0
 70
     8
 71
     3
 72
    12
 73
     8
 74
     0
 42
0.000000001
 43
0.00000001
 40
0.0
 40
0.0
 40
0.0
 40
0.0
 40
0.0236143572069113
 40
0.3351391039112483
 40
0.63152651226314
 40
0.9661114935021254
 40
1.0
 40
1.0
 40
1.0
 40
1.0
 10
334.0445674859501
 20
204.2334722682212
 30
0.0
 10
334.0482318300967
 20
204.2493667264244
 30
0.0
 10
334.1002368456448
 20
204.4749436681423
 30
0.0
 10
333.9155633600955
 20
204.9227665958279
 30
0.0
 10
333.5160101648258
 20
205.4078422851305
 30
0.0
 10
333.148223580035
 20
205.6941416825387
 30
0.0
 10
332.8719423381092
 20
205.7952613241416
 30
0.0
 10
332.8465327524162
 20
205.8045612975334
 30
0.0
  0
SPLINE
  5
28C
330
1F
100
AcDbEntity
  8
0
  6
Continuous
 62
     7
100
AcDbSpline
210
0.0
220
0.0
230
1.0
 70
     8
 71
     3
 72
    11
 73
     7
 74
     0
 42
0.000000001
 43
0.00000001
 40
0.0
 40
0.0
 40
0.0
 40
0.0
 40
0.1032312714522503
 40
0.4876532352969142
 40
0.8170875538817334
 40
0.9999999999999999
 40
0.9999999999999999
 40
0.9999999999999999
 40
0.9999999999999999
 10
327.4386480354286
 20
205.7537334367012
 30
0.0
 10
327.3751711907144
 20
205.7220031186648
 30
0.0
 10
327.07531351914
 20
205.5721125668026
 30
0.0
 10
326.697175606535
 20
205.2302342343369
 30
0.0
 10
326.3764941464587
 20
204.730140901503
 30
0.0
 10
326.3870488733957
 20
204.3988160979347
 30
0.0
 10
326.3908170067288
 20
204.2805301352714
 30
0.0
  0
LINE
  5
28D
330
1F
100
AcDbEntity
  8
0
  6
Continuous
 62
     7
100
AcDbLine
 10
326.3550951981
 20
204.2758660718
 30
0.0
 11
326.3516306781
 21
203.1815992995
 31
0.0
  0
LINE
  5
28E
330
1F
100
AcDbEntity
  8
0
  6
Continuous
 62
     7
100
AcDbLine
 10
334.0515933835
 20
203.1572209998
 30
0.0
 11
334.0550541781
 21
204.2514877721
 31
0.0
  0
ARC
  5
28F
330
1F
100
AcDbEntity
  8
0
  6
Continuous
 62
     7
100
AcDbCircle
 10
281.4424545073
 20
-15.5861339642
 30
0.0
 40
1.000000000000002
100
AcDbArc
 50
180.0
 51
270.0
  0
ARC
  5
290
330
1F
100
AcDbEntity
  8
0
  6
Continuous
 62
     7
100
AcDbCircle
 10
281.4424545073
 20
-1.5861339642
 30
0.0
 40
1.000000000000001
100
AcDbArc
 50
90.0
 51
180.0
  0
LINE
  5
291
330
1F
100
AcDbEntity
  8
0
  6
Continuous
 62
     7
100
AcDbLine
 10
281.4424544942
 20
-16.5861332462
 30
0.0
 11
282.9424545073
 21
-16.5861332462
 31
0.0
  0
LINE
  5
292
330
1F
100
AcDbEntity
  8
0
  6
Continuous
 62
     7
100
AcDbLine
 10
282.9424545073
 20
-0.5861338832
 30
0.0
 11
281.4424544942
 21
-0.5861338832
 31
0.0
  0
LINE
  5
293
330
1F
100
AcDbEntity
  8
0
  6
Continuous
 62
     7
100
AcDbLine
 10
282.9424545073
 20
-15.0861339316
 30
0.0
 11
283.1424545022
 21
-15.0861339316
 31
0.0
  0
LINE
  5
294
330
1F
100
AcDbEntity
  8
0
  6
Continuous
 62
     7
100
AcDbLine
 10
283.1424545022
 20
-2.0861336634
 30
0.0
 11
282.9424545073
 21
-2.0861336634
 31
0.0
  0
ARC
  5
295
330
1F
100
AcDbEntity
  8
0
  6
Continuous
 62
     7
100
AcDbCircle
 10
296.0224545073
 20
-29.1435217367
 30
0.0
 40
0.7700000000000001
100
AcDbArc
 50
310.0520272787
 51
0.0
  0
ARC
  5
296
330
1F
100
AcDbEntity
  8
0
  6
Continuous
 62
     7
100
AcDbCircle
 10
289.8624545073
 20
-29.1435217367
 30
0.0
 40
0.7699999999999818
100
AcDbArc
 50
180.0
 51
229.9479727213
  0
LINE
  5
297
330
1F
100
AcDbEntity
  8
0
  6
Continuous
 62
     7
100
AcDbLine
 10
296.7924542629
 20
-29.1435224608
 30
0.0
 11
296.7924542629
 21
-28.18613403
 31
0.0
  0
LINE
  5
298
330
1F
100
AcDbEntity
  8
0
  6
Continuous
 62
     7
100
AcDbLine
 10
289.0924543046
 20
-28.18613403
 30
0.0
 11
289.0924543046
 21
-29.1435224608
 31
0.0
  0
ARC
  5
299
330
1F
100
AcDbEntity
  8
0
  6
Continuous
 62
     7
100
AcDbCircle
 10
292.9424545073
 20
-25.4796823512
 30
0.0
 40
5.556451612903246
100
AcDbArc
 50
285.7774918161
 51
310.0520272787
  0
ARC
  5
29A
330
1F
100
AcDbEntity
  8
0
  6
Continuous
 62
     7
100
AcDbCircle
 10
292.9424545073
 20
-25.4796823512
 30
0.0
 40
5.556451612903246
100
AcDbArc
 50
229.9479727213
 51
254.2225081839
  0
LINE
  5
29B
330
1F
100
AcDbEntity
  8
0
  6
Continuous
 62
     7
100
AcDbLine
 10
366.9542774462
 20
173.9478307172
 30
0.0
 11
366.9609755181
 21
173.7887310191
 31
0.0
  0
ARC
  5
29C
330
1F
100
AcDbEntity
  8
0
  6
Continuous
 62
     7
100
AcDbCircle
 10
280.9424545073
 20
172.9949145816
 30
0.0
 40
1.19999999999997
100
AcDbArc
 50
279.5940682269
 51
0.0
  0
ARC
  5
29D
330
1F
100
AcDbEntity
  8
0
  6
Continuous
 62
     7
100
AcDbCircle
 10
280.9424545073
 20
135.9114971465
 30
0.0
 40
1.200000000000054
100
AcDbArc
 50
0.0
 51
80.4059317731
  0
ARC
  5
29E
330
1F
100
AcDbEntity
  8
0
  6
Continuous
 62
     7
100
AcDbCircle
 10
281.4424545073
 20
170.0368746901
 30
0.0
 40
1.800000000000068
100
AcDbArc
 50
99.5940682269
 51
180.0
  0
ARC
  5
29F
330
1F
100
AcDbEntity
  8
0
  6
Continuous
 62
     7
100
AcDbCircle
 10
281.4424545073
 20
138.8695370381
 30
0.0
 40
1.800000000000068
100
AcDbArc
 50
180.0
 51
260.4059317731
  0
ARC
  5
2A0
330
1F
100
AcDbEntity
  8
0
  6
Continuous
 62
     7
100
AcDbCircle
 10
280.9424545073
 20
72.9949145816
 30
0.0
 40
1.199999999999984
100
AcDbArc
 50
279.5940682269
 51
0.0
  0
ARC
  5
2A1
330
1F
100
AcDbEntity
  8
0
  6
Continuous
 62
     7
100
AcDbCircle
 10
280.9424545073
 20
35.9114971465
 30
0.0
 40
1.199999999999984
100
AcDbArc
 50
0.0
 51
80.4059317731
  0
ARC
  5
2A2
330
1F
100
AcDbEntity
  8
0
  6
Continuous
 62
     7
100
AcDbCircle
 10
281.4424545073
 20
70.0368746901
 30
0.0
 40
1.800000000000068
100
AcDbArc
 50
99.5940682269
 51
180.0
  0
ARC
  5
2A3
330
1F
100
AcDbEntity
  8
0
  6
Continuous
 62
     7
100
AcDbCircle
 10
281.4424545073
 20
38.8695370381
 30
0.0
 40
1.800000000000068
100
AcDbArc
 50
180.0
 51
260.4059317731
  0
LINE
  5
2A4
330
1F
100
AcDbEntity
  8
0
  6
Continuous
 62
     7
100
AcDbLine
 10
354.2424544596
 20
250.5532102987
 30
0.0
 11
280.6424544562
 21
250.5532102987
 31
0.0
  0
LINE
  5
2A5
330
1F
100
AcDbEntity
  8
0
  6
Continuous
 62
     7
100
AcDbLine
 10
354.2424544596
 20
250.4382031366
 30
0.0
 11
354.2424544596
 21
250.5532102987
 31
0.0
  0
LINE
  5
2A6
330
1F
100
AcDbEntity
  8
0
  6
Continuous
 62
     7
100
AcDbLine
 10
280.6424544562
 20
250.4382031366
 30
0.0
 11
280.6424544562
 21
250.5532102987
 31
0.0
  0
LINE
  5
2A7
330
1F
100
AcDbEntity
  8
0
  6
Continuous
 62
     7
100
AcDbLine
 10
354.2424544596
 20
250.5532102987
 30
0.0
 11
359.2441856765
 21
255.4789530441
 31
0.0
  0
LINE
  5
2A8
330
1F
100
AcDbEntity
  8
0
  6
Continuous
 62
     7
100
AcDbLine
 10
280.6424544562
 20
250.5532102987
 30
0.0
 11
280.6424544562
 21
255.4789530441
 31
0.0
  0
LINE
  5
2A9
330
1F
100
AcDbEntity
  8
0
  6
Continuous
 62
     7
100
AcDbLine
 10
359.6424564623
 20
255.5532055303
 30
0.0
 11
359.5396235489
 21
255.5532055303
 31
0.0
  0
ELLIPSE
  5
2AA
330
1F
100
AcDbEntity
  8
0
  6
Continuous
 62
     7
100
AcDbEllipse
 10
359.244184658
 20
255.2532058641
 30
0.0
 11
0.2988584094274529
 21
0.2988584094275666
 31
0.0
210
0.0
220
0.0
230
1.0
 40
0.0874886635
 41
0.087266462598506
 42
1.483529864195109
  0
LINE
  5
2AB
330
1F
100
AcDbEntity
  8
0
  6
Continuous
 62
     7
100
AcDbLine
 10
359.2441856765
 20
255.3052949115
 30
0.0
 11
358.2855492734
 21
254.3612318441
 31
0.0
  0
ELLIPSE
  5
2AC
330
1F
100
AcDbEntity
  8
0
  6
Continuous
 62
     7
100
AcDbEllipse
 10
359.244184658
 20
255.2532058641
 30
0.0
 11
1.295053107519209
 21
1.295053107519265
 31
0.0
210
0.0
220
0.0
230
1.0
 40
0.0874886635
 41
1.172161570513439
 42
1.483529864195202
  0
LINE
  5
2AD
330
1F
100
AcDbEntity
  8
0
  6
Continuous
 62
     7
100
AcDbLine
 10
359.6424564623
 20
255.8603184625
 30
0.0
 11
359.6424564623
 21
255.6576179668
 31
0.0
  0
LINE
  5
2AE
330
1F
100
AcDbEntity
  8
0
  6
Continuous
 62
     7
100
AcDbLine
 10
359.6424564623
 20
255.6576179668
 30
0.0
 11
359.6424564623
 21
255.5532055303
 31
0.0
  0
LINE
  5
2AF
330
1F
100
AcDbEntity
  8
0
  6
Continuous
 62
     7
100
AcDbLine
 10
359.6424564623
 20
255.8603184625
 30
0.0
 11
359.6424564623
 21
256.5531926557
 31
0.0
  0
LINE
  5
2B0
330
1F
100
AcDbEntity
  8
0
  6
Continuous
 62
     7
100
AcDbLine
 10
359.6424564623
 20
256.5531926557
 30
0.0
 11
280.6424544562
 21
256.5531926557
 31
0.0
  0
LINE
  5
2B1
330
1F
100
AcDbEntity
  8
0
  6
Continuous
 62
     7
100
AcDbLine
 10
280.6424544562
 20
256.5531926557
 30
0.0
 11
280.6424544562
 21
255.4789530441
 31
0.0
  0
LINE
  5
2B2
330
1F
100
AcDbEntity
  8
0
  6
Continuous
 62
     7
100
AcDbLine
 10
359.9523484611
 20
255.4669874116
 30
0.0
 11
361.027079811
 21
255.7549523517
 31
0.0
  0
ARC
  5
2B3
330
1F
100
AcDbEntity
  8
0
  6
Continuous
 62
     7
100
AcDbCircle
 10
359.6424545073
 20
254.9532058641
 30
0.0
 40
0.5999999999999965
100
AcDbArc
 50
58.9033134618
 51
90.0
  0
ARC
  5
2B4
330
1F
100
AcDbEntity
  8
0
  6
Continuous
 62
     7
100
AcDbCircle
 10
359.6424545073
 20
254.9532058641
 30
0.0
 40
1.599999999999984
100
AcDbArc
 50
30.0725134329
 51
90.0
  0
LINE
  5
2B5
330
1F
100
AcDbEntity
  8
0
  6
Continuous
 62
     7
100
AcDbLine
 10
361.1879378461
 20
255.3673135444
 30
0.0
 11
362.477871766
 21
250.5532102987
 31
0.0
  0
LINE
  5
2B6
330
1F
100
AcDbEntity
  8
0
  6
Continuous
 62
     7
100
AcDbLine
 10
362.477871766
 20
250.5532102987
 30
0.0
 11
362.0774403118
 21
250.4459070369
 31
0.0
  0
ARC
  5
2B7
330
1F
100
AcDbEntity
  8
0
  6
Continuous
 62
     7
100
AcDbCircle
 10
359.6424545073
 20
254.9532058641
 30
0.0
 40
1.599999999999984
100
AcDbArc
 50
15.0
 51
30.0725134329
  0
SPLINE
  5
2B8
330
1F
100
AcDbEntity
  8
0
  6
Continuous
 62
     7
100
AcDbSpline
210
0.0
220
0.0
230
1.0
 70
    24
 71
     3
 72
    11
 73
     7
 74
     0
 42
0.000000001
 43
0.00000001
 40
0.0
 40
0.0
 40
0.0
 40
0.0
 40
0.0360415337826721
 40
0.3920729434961729
 40
0.7481114601437522
 40
1.0
 40
1.0
 40
1.0
 40
1.0
 10
280.6424544562168
 20
256.55319265568
 30
0.0
 10
280.6424544562168
 20
256.5541722920989
 30
0.0
 10
280.6424544562168
 20
256.5648291341917
 30
0.0
 10
280.6424544562168
 20
256.9578821111805
 30
0.0
 10
280.6424544562168
 20
258.1892666660621
 30
0.0
 10
280.6424544562168
 20
259.3549540365573
 30
0.0
 10
280.6424544562168
 20
259.8379450246071
 30
0.0
  0
SPLINE
  5
2B9
330
1F
100
AcDbEntity
  8
0
  6
Continuous
 62
     7
100
AcDbSpline
210
0.0
220
0.0
230
1.0
 70
    24
 71
     3
 72
    12
 73
     8
 74
     0
 42
0.000000001
 43
0.00000001
 40
0.0
 40
0.0
 40
0.0
 40
0.0
 40
0.1893365619655756
 40
0.3812759250258722
 40
0.6526404550600184
 40
0.931872918277084
 40
1.0
 40
1.0
 40
1.0
 40
1.0
 10
280.6424544562168
 20
259.8379450246071
 30
0.0
 10
280.6424544562168
 20
261.1233684821736
 30
0.0
 10
280.6424544562168
 20
263.7118860550382
 30
0.0
 10
280.6424544562168
 20
267.602389720492
 30
0.0
 10
280.6424544562168
 20
271.3712767404223
 30
0.0
 10
280.6424544562168
 20
273.7628959891522
 30
0.0
 10
280.6424544562168
 20
274.7765938617887
 30
0.0
 10
280.6424544562168
 20
274.9754088326667
 30
0.0
  0
LINE
  5
2BA
330
1F
100
AcDbEntity
  8
0
  6
Continuous
 62
     7
100
AcDbLine
 10
280.6424544562
 20
274.9754088327
 30
0.0
 11
280.6424544562
 21
277.1218913003
 31
0.0
  0
SPLINE
  5
2BB
330
1F
100
AcDbEntity
  8
0
  6
Continuous
 62
     7
100
AcDbSpline
210
0.0
220
0.0
230
1.0
 70
    24
 71
     3
 72
    10
 73
     6
 74
     0
 42
0.000000001
 43
0.00000001
 40
0.0
 40
0.0
 40
0.0
 40
0.0
 40
0.2448005256359382
 40
0.7549537926381074
 40
0.9999999999999999
 40
0.9999999999999999
 40
0.9999999999999999
 40
0.9999999999999999
 10
280.6424544562168
 20
277.1218913003181
 30
0.0
 10
280.6424544562168
 20
277.2377682610665
 30
0.0
 10
280.6424544562168
 20
277.5951275876818
 30
0.0
 10
280.6424544562168
 20
278.3979114239768
 30
0.0
 10
280.6424544562168
 20
279.1707561768412
 30
0.0
 10
280.6424544562168
 20
279.4215279027198
 30
0.0
  0
LINE
  5
2BC
330
1F
100
AcDbEntity
  8
0
  6
Continuous
 62
     7
100
AcDbLine
 10
280.6424544562
 20
279.4215279027
 30
0.0
 11
280.6424544562
 21
281.2380390569
 31
0.0
  0
SPLINE
  5
2BD
330
1F
100
AcDbEntity
  8
0
  6
Continuous
 62
     7
100
AcDbSpline
210
0.0
220
0.0
230
1.0
 70
    24
 71
     3
 72
    10
 73
     6
 74
     0
 42
0.000000001
 43
0.00000001
 40
0.0
 40
0.0
 40
0.0
 40
0.0
 40
0.1094043867843928
 40
0.6791252913765464
 40
1.0
 40
1.0
 40
1.0
 40
1.0
 10
280.6424544562168
 20
281.2380390568946
 30
0.0
 10
280.6424544562168
 20
281.371292229871
 30
0.0
 10
280.6424544562168
 20
282.1984583297341
 30
0.0
 10
280.6424544562168
 20
283.2563068467721
 30
0.0
 10
280.6424544562168
 20
283.8403544215959
 30
0.0
 10
280.6424544562168
 20
284.0507822438454
 30
0.0
  0
SPLINE
  5
2BE
330
1F
100
AcDbEntity
  8
0
  6
Continuous
 62
     7
100
AcDbSpline
210
0.0
220
0.0
230
1.0
 70
    24
 71
     3
 72
    10
 73
     6
 74
     0
 42
0.000000001
 43
0.00000001
 40
0.0
 40
0.0
 40
0.0
 40
0.0
 40
0.0839682091084631
 40
0.5661321237737533
 40
1.0
 40
1.0
 40
1.0
 40
1.0
 10
280.6424544562168
 20
284.0507822438453
 30
0.0
 10
280.6424544562168
 20
284.1774082309806
 30
0.0
 10
280.6424544562168
 20
285.031148471281
 30
0.0
 10
280.6424544562168
 20
287.0139634170241
 30
0.0
 10
280.6424544562168
 20
289.5348420128292
 30
0.0
 10
280.6424544562168
 20
290.7288270398354
 30
0.0
  0
LINE
  5
2BF
330
1F
100
AcDbEntity
  8
0
  6
Continuous
 62
     7
100
AcDbLine
 10
280.6424544562
 20
290.7288270398
 30
0.0
 11
280.6424544562
 21
293.4731142923
 31
0.0
  0
SPLINE
  5
2C0
330
1F
100
AcDbEntity
  8
0
  6
Continuous
 62
     7
100
AcDbSpline
210
0.0
220
0.0
230
1.0
 70
    24
 71
     3
 72
    11
 73
     7
 74
     0
 42
0.000000001
 43
0.00000001
 40
0.0
 40
0.0
 40
0.0
 40
0.0
 40
0.2166151683240137
 40
0.5955545692899668
 40
0.9744701245081294
 40
1.0
 40
1.0
 40
1.0
 40
1.0
 10
280.6424544562168
 20
293.4731142922615
 30
0.0
 10
280.6424544562168
 20
293.8295474000203
 30
0.0
 10
280.6424544562168
 20
294.8095127810894
 30
0.0
 10
280.6424544562168
 20
295.9014449848993
 30
0.0
 10
280.6424544562168
 20
296.2463246460122
 30
0.0
 10
280.6424544562168
 20
296.2527862565686
 30
0.0
 10
280.6424544562168
 20
296.2531941338752
 30
0.0
  0
LINE
  5
2C1
330
1F
100
AcDbEntity
  8
0
  6
Continuous
 62
     7
100
AcDbLine
 10
314.3924541675
 20
315.7532113
 30
0.0
 11
280.6424544562
 21
315.7532113
 31
0.0
  0
LINE
  5
2C2
330
1F
100
AcDbEntity
  8
0
  6
Continuous
 62
     7
100
AcDbLine
 10
280.6424544562
 20
319.3586366578
 30
0.0
 11
280.6424544562
 21
315.7532113
 31
0.0
  0
LINE
  5
2C3
330
1F
100
AcDbEntity
  8
0
  6
Continuous
 62
     7
100
AcDbLine
 10
313.3999083095
 20
315.6313496038
 30
0.0
 11
280.6424544562
 21
315.6313496038
 31
0.0
  0
LINE
  5
2C4
330
1F
100
AcDbEntity
  8
0
  6
Continuous
 62
     7
100
AcDbLine
 10
280.6424544562
 20
315.7532113
 30
0.0
 11
280.6424544562
 21
315.6313496038
 31
0.0
  0
SPLINE
  5
2C5
330
1F
100
AcDbEntity
  8
0
  6
Continuous
 62
     7
100
AcDbSpline
210
0.0
220
0.0
230
1.0
 70
    24
 71
     3
 72
    12
 73
     8
 74
     0
 42
0.000000001
 43
0.00000001
 40
0.0
 40
0.0
 40
0.0
 40
0.0
 40
0.1003043087095779
 40
0.4295441540926425
 40
0.6356918038557446
 40
0.964587158597134
 40
1.0
 40
1.0
 40
1.0
 40
1.0
 10
280.6424544562168
 20
321.3319974347328
 30
0.0
 10
280.6424544562168
 20
321.2944262917727
 30
0.0
 10
280.6424544562168
 20
321.1335312611529
 30
0.0
 10
280.6424544562168
 20
320.7741207948457
 30
0.0
 10
280.6424544562168
 20
320.1660659689758
 30
0.0
 10
280.6424544562168
 20
319.6954837591582
 30
0.0
 10
280.6424544562168
 20
319.388479252681
 30
0.0
 10
280.6424544562168
 20
319.3586366578315
 30
0.0
  0
LINE
  5
2C6
330
1F
100
AcDbEntity
  8
0
  6
Continuous
 62
     7
100
AcDbLine
 10
280.6424544562
 20
323.4654562875
 30
0.0
 11
280.6424544562
 21
321.3319974347
 31
0.0
  0
SPLINE
  5
2C7
330
1F
100
AcDbEntity
  8
0
  6
Continuous
 62
     7
100
AcDbSpline
210
0.0
220
0.0
230
1.0
 70
    24
 71
     3
 72
     9
 73
     5
 74
     0
 42
0.000000001
 43
0.00000001
 40
0.0
 40
0.0
 40
0.0
 40
0.0
 40
0.7908844580913881
 40
0.9999999999999999
 40
0.9999999999999999
 40
0.9999999999999999
 40
0.9999999999999999
 10
280.6424544562168
 20
324.1737382813667
 30
0.0
 10
280.6424544562168
 20
323.962205957221
 30
0.0
 10
280.6424544562168
 20
323.6947429643886
 30
0.0
 10
280.6424544562168
 20
323.5051112303312
 30
0.0
 10
280.6424544562168
 20
323.4654562875008
 30
0.0
  0
LINE
  5
2C8
330
1F
100
AcDbEntity
  8
0
  6
Continuous
 62
     7
100
AcDbLine
 10
285.6424545773
 20
331.7532139226
 30
0.0
 11
280.6424544562
 21
331.7532139226
 31
0.0
  0
SPLINE
  5
2C9
330
1F
100
AcDbEntity
  8
0
  6
Continuous
 62
     7
100
AcDbSpline
210
0.0
220
0.0
230
1.0
 70
    24
 71
     3
 72
    12
 73
     8
 74
     0
 42
0.000000001
 43
0.00000001
 40
0.0
 40
0.0
 40
0.0
 40
0.0
 40
0.2234234500264098
 40
0.4523638907130993
 40
0.6939717355996526
 40
0.9427192975875803
 40
1.0
 40
1.0
 40
1.0
 40
1.0
 10
280.6424544562168
 20
331.7532139226173
 30
0.0
 10
280.6424544562168
 20
331.6782743856921
 30
0.0
 10
280.6424544562168
 20
331.5265448313963
 30
0.0
 10
280.6424544562168
 20
330.2595140939348
 30
0.0
 10
280.6424544562168
 20
328.1493546768491
 30
0.0
 10
280.6424544562168
 20
325.9109871247932
 30
0.0
 10
280.6424544562168
 20
324.4476396796438
 30
0.0
 10
280.6424544562168
 20
324.1737382813667
 30
0.0
  0
LINE
  5
2CA
330
1F
100
AcDbEntity
  8
0
  6
Continuous
 62
     7
100
AcDbLine
 10
310.8367577099
 20
313.834656994
 30
0.0
 11
280.6424544562
 21
313.834656994
 31
0.0
  0
SPLINE
  5
2CB
330
1F
100
AcDbEntity
  8
0
  6
Continuous
 62
     7
100
AcDbSpline
210
0.0
220
0.0
230
1.0
 70
    24
 71
     3
 72
    12
 73
     8
 74
     0
 42
0.000000001
 43
0.00000001
 40
0.0
 40
0.0
 40
0.0
 40
0.0
 40
0.0674303205938963
 40
0.2889175841032496
 40
0.6434620625860267
 40
0.9980073478254315
 40
1.0
 40
1.0
 40
1.0
 40
1.0
 10
280.6424544562168
 20
315.6313496037696
 30
0.0
 10
280.6424544562168
 20
315.5692859351371
 30
0.0
 10
280.6424544562168
 20
315.3033627563066
 30
0.0
 10
280.6424544562168
 20
314.7970598156125
 30
0.0
 10
280.6424544562168
 20
314.1817963901075
 30
0.0
 10
280.6424544562167
 20
313.9131969410842
 30
0.0
 10
280.6424544562168
 20
313.8350935056805
 30
0.0
 10
280.6424544562168
 20
313.8346569939827
 30
0.0
  0
LINE
  5
2CC
330
1F
100
AcDbEntity
  8
0
  6
Continuous
 62
     7
100
AcDbLine
 10
280.6424544562
 20
313.834656994
 30
0.0
 11
280.6424544562
 21
311.1956017419
 31
0.0
  0
SPLINE
  5
2CD
330
1F
100
AcDbEntity
  8
0
  6
Continuous
 62
     7
100
AcDbSpline
210
0.0
220
0.0
230
1.0
 70
    24
 71
     3
 72
    10
 73
     6
 74
     0
 42
0.000000001
 43
0.00000001
 40
0.0
 40
0.0
 40
0.0
 40
0.0
 40
0.156831676570063
 40
0.6419461649314466
 40
1.0
 40
1.0
 40
1.0
 40
1.0
 10
280.6424544562168
 20
311.1956017419075
 30
0.0
 10
280.6424544562168
 20
311.1301424817201
 30
0.0
 10
280.6424544562168
 20
310.8622034916162
 30
0.0
 10
280.6424544562168
 20
310.4902000708432
 30
0.0
 10
280.6424544562168
 20
310.2876696213738
 30
0.0
 10
280.6424544562168
 20
310.2016644879555
 30
0.0
  0
SPLINE
  5
2CE
330
1F
100
AcDbEntity
  8
0
  6
Continuous
 62
     7
100
AcDbSpline
210
0.0
220
0.0
230
1.0
 70
    24
 71
     3
 72
    13
 73
     9
 74
     0
 42
0.000000001
 43
0.00000001
 40
0.0
 40
0.0
 40
0.0
 40
0.0
 40
0.107356389425708
 40
0.2899221622635857
 40
0.4724869026393903
 40
0.6664682142055192
 40
0.8604497192296964
 40
1.0
 40
1.0
 40
1.0
 40
1.0
 10
280.6424544562168
 20
310.2016644879554
 30
0.0
 10
280.6424544562168
 20
309.9048519705918
 30
0.0
 10
280.6424544562168
 20
309.1032925358781
 30
0.0
 10
280.6424544562168
 20
307.4938267412456
 30
0.0
 10
280.6424544562168
 20
305.2787974488025
 30
0.0
 10
280.6424544562168
 20
302.6928253501115
 30
0.0
 10
280.6424544562168
 20
300.0649764463586
 30
0.0
 10
280.6424544562168
 20
298.2760788975979
 30
0.0
 10
280.6424544562168
 20
297.5276010438179
 30
0.0
  0
LINE
  5
2CF
330
1F
100
AcDbEntity
  8
0
  6
Continuous
 62
     7
100
AcDbLine
 10
295.4487364643
 20
296.2531941339
 30
0.0
 11
280.6424544562
 21
296.2531941339
 31
0.0
  0
SPLINE
  5
2D0
330
1F
100
AcDbEntity
  8
0
  6
Continuous
 62
     7
100
AcDbSpline
210
0.0
220
0.0
230
1.0
 70
    24
 71
     3
 72
    12
 73
     8
 74
     0
 42
0.000000001
 43
0.00000001
 40
0.0
 40
0.0
 40
0.0
 40
0.0
 40
0.0480617460570292
 40
0.2227334357194733
 40
0.5036909027640019
 40
0.784640039957238
 40
1.0
 40
1.0
 40
1.0
 40
1.0
 10
280.6424544562168
 20
297.5276010438179
 30
0.0
 10
280.6424544562168
 20
297.4921339631197
 30
0.0
 10
280.6424544562168
 20
297.327768217242
 30
0.0
 10
280.6424544562168
 20
296.9795670474613
 30
0.0
 10
280.6424544562168
 20
296.5675853786598
 30
0.0
 10
280.6424544562168
 20
296.2964097560446
 30
0.0
 10
280.6424544562168
 20
296.2662717217912
 30
0.0
 10
280.6424544562168
 20
296.2531941338752
 30
0.0
  0
ARC
  5
2D1
330
1F
100
AcDbEntity
  8
0
  6
Continuous
 62
     7
100
AcDbCircle
 10
327.189303103
 20
199.9264227542
 30
0.0
 40
6.385065138711068
100
AcDbArc
 50
48.9165712296
 51
61.5574803226
  0
ARC
  5
2D2
330
1F
100
AcDbEntity
  8
0
  6
Continuous
 62
     7
100
AcDbCircle
 10
330.8907411319
 20
206.9313857142
 30
0.0
 40
2.24729058403297
100
AcDbArc
 50
282.7129540007
 51
304.7514864512
  0
ARC
  5
2D3
330
1F
100
AcDbEntity
  8
0
  6
Continuous
 62
     7
100
AcDbCircle
 10
328.6782627649
 20
201.6964453817
 30
0.0
 40
4.866852936180269
100
AcDbArc
 50
44.1260535007
 51
60.2271948644
  0
ARC
  5
2D4
330
1F
100
AcDbEntity
  8
0
  6
Continuous
 62
     7
100
AcDbCircle
 10
331.9169382392
 20
203.3643722964
 30
0.0
 40
2.685401898917266
100
AcDbArc
 50
85.6549496789
 51
107.8238972313
  0
ARC
  5
2D5
330
1F
100
AcDbEntity
  8
0
  6
Continuous
 62
     7
100
AcDbCircle
 10
330.7885634025
 20
203.9450427103
 30
0.0
 40
2.484196331944292
100
AcDbArc
 50
57.5800743334
 51
78.1792412054
  0
ARC
  5
2D6
330
1F
100
AcDbEntity
  8
0
  6
Continuous
 62
     7
100
AcDbCircle
 10
330.9585924504
 20
203.6290228616
 30
0.0
 40
2.768351788746133
100
AcDbArc
 50
82.9690737272
 51
106.1139454768
  0
ARC
  5
2D7
330
1F
100
AcDbEntity
  8
0
  6
Continuous
 62
     7
100
AcDbCircle
 10
329.4278501748
 20
203.3759667513
 30
0.0
 40
3.010769573693009
100
AcDbArc
 50
75.3317970225
 51
97.5358588833
  0
ARC
  5
2D8
330
1F
100
AcDbEntity
  8
0
  6
Continuous
 62
     7
100
AcDbCircle
 10
329.5273297764
 20
204.168959691
 30
0.0
 40
2.246826878700686
100
AcDbArc
 50
102.7098194737
 51
124.752801423
  0
ARC
  5
2D9
330
1F
100
AcDbEntity
  8
0
  6
Continuous
 62
     7
100
AcDbCircle
 10
328.5016642888
 20
203.0793200668
 30
0.0
 40
2.946739000261769
100
AcDbArc
 50
73.7621908648
 51
94.966499949
  0
ARC
  5
2DA
330
1F
100
AcDbEntity
  8
0
  6
Continuous
 62
     7
100
AcDbCircle
 10
331.8202771308
 20
201.8482866323
 30
0.0
 40
4.765355792866056
100
AcDbArc
 50
121.5668667267
 51
137.6601880031
  0
ARC
  5
2DB
330
1F
100
AcDbEntity
  8
0
  6
Continuous
 62
     7
100
AcDbCircle
 10
329.6296040829
 20
207.1545838578
 30
0.0
 40
2.483868742720099
100
AcDbArc
 50
237.5787011292
 51
258.1806144096
  0
ARC
  5
2DC
330
1F
100
AcDbEntity
  8
0
  6
Continuous
 62
     7
100
AcDbCircle
 10
333.4136674827
 20
200.0581251971
 30
0.0
 40
6.339790854394147
100
AcDbArc
 50
120.1400412418
 51
132.6193435967
  0
LWPOLYLINE
  5
2DD
330
1F
100
AcDbEntity
  8
0
  6
Continuous
 62
     7
100
AcDbPolyline
 90
       12
 70
   128
 43
0.0
 10
326.3516306781
 20
203.1815992995
 10
326.4136567615
 20
202.8883742496
 10
326.811756184
 20
202.4068879291
 10
327.5416783892
 20
202.000041525
 10
328.5319723093
 20
201.7076658412
 10
329.6857021653
 20
201.5583711072
 10
330.8899320566
 20
201.5667902633
 10
332.0267863475
 20
201.7320739433
 10
332.9849757158
 20
202.0380543872
 10
333.670715978
 20
202.4547802612
 10
334.0168736779
 20
202.9414670869
 10
334.0515933835
 20
203.1572209998
  0
LINE
  5
2DE
330
1F
100
AcDbEntity
  8
0
  6
Continuous
 62
     7
100
AcDbLine
 10
329.3256454073
 20
205.908511798
 30
0.0
 11
329.5107215547
 21
205.0533043548
 31
0.0
  0
LINE
  5
2DF
330
1F
100
AcDbEntity
  8
0
  6
Continuous
 62
     7
100
AcDbLine
 10
331.0949571334
 20
205.9208797618
 30
0.0
 11
330.9151559972
 21
205.1112102672
 31
0.0
  0
LINE
  5
2E0
330
1F
100
AcDbEntity
  8
0
  6
Continuous
 62
     7
100
AcDbLine
 10
330.1902405821
 20
206.2886106178
 30
0.0
 11
330.1915146314
 21
205.5183844968
 31
0.0
  0
LINE
  5
2E1
330
1F
100
AcDbEntity
  8
0
  6
Continuous
 62
     7
100
AcDbLine
 10
329.0329977774
 20
206.3607322379
 30
0.0
 11
329.0262885295
 21
205.9380608007
 31
0.0
  0
LINE
  5
2E2
330
1F
100
AcDbEntity
  8
0
  6
Continuous
 62
     7
100
AcDbLine
 10
331.2974527382
 20
206.3765572711
 30
0.0
 11
331.3053913318
 21
205.9457348987
 31
0.0
  0
LINE
  5
2E3
330
1F
100
AcDbEntity
  8
0
  6
Continuous
 62
     7
100
AcDbLine
 10
280.4424545631
 20
-15.5861330823
 30
0.0
 11
280.4424545631
 21
-1.5861335815
 31
0.0
  0
LINE
  5
2E4
330
1F
100
AcDbEntity
  8
0
  6
Continuous
 62
     7
100
AcDbLine
 10
282.9424545073
 20
-16.5861332462
 30
0.0
 11
282.9424545073
 21
-0.5861338832
 31
0.0
  0
LINE
  5
2E5
330
1F
100
AcDbEntity
  8
0
  6
Continuous
 62
     7
100
AcDbLine
 10
278.442454701
 20
151.9532101556
 30
0.0
 11
278.442454701
 21
156.9532053872
 31
0.0
  0
LINE
  5
2E6
330
1F
100
AcDbEntity
  8
0
  6
Continuous
 62
     7
100
AcDbLine
 10
278.442454701
 20
151.9532101556
 30
0.0
 11
273.4424548127
 21
151.9532101556
 31
0.0
  0
LINE
  5
2E7
330
1F
100
AcDbEntity
  8
0
  6
Continuous
 62
     7
100
AcDbLine
 10
273.4424548127
 20
151.9532101556
 30
0.0
 11
273.4424548127
 21
156.9532053872
 31
0.0
  0
LINE
  5
2E8
330
1F
100
AcDbEntity
  8
0
  6
Continuous
 62
     7
100
AcDbLine
 10
278.442454701
 20
156.9532053872
 30
0.0
 11
273.4424548127
 21
156.9532053872
 31
0.0
  0
LINE
  5
2E9
330
1F
100
AcDbEntity
  8
0
  6
Continuous
 62
     7
100
AcDbLine
 10
278.8424544871
 20
156.9532053872
 30
0.0
 11
278.8424544871
 21
151.9532101556
 31
0.0
  0
LINE
  5
2EA
330
1F
100
AcDbEntity
  8
0
  6
Continuous
 62
     7
100
AcDbLine
 10
278.442454701
 20
151.9532101556
 30
0.0
 11
278.8424544871
 21
151.9532101556
 31
0.0
  0
LINE
  5
2EB
330
1F
100
AcDbEntity
  8
0
  6
Continuous
 62
     7
100
AcDbLine
 10
278.442454701
 20
156.9532053872
 30
0.0
 11
278.8424544871
 21
156.9532053872
 31
0.0
  0
LINE
  5
2EC
330
1F
100
AcDbEntity
  8
0
  6
Continuous
 62
     7
100
AcDbLine
 10
279.2424545061
 20
156.9532053872
 30
0.0
 11
279.2424545061
 21
151.9532101556
 31
0.0
  0
LINE
  5
2ED
330
1F
100
AcDbEntity
  8
0
  6
Continuous
 62
     7
100
AcDbLine
 10
278.8424544871
 20
151.9532101556
 30
0.0
 11
279.2424545061
 21
151.9532101556
 31
0.0
  0
LINE
  5
2EE
330
1F
100
AcDbEntity
  8
0
  6
Continuous
 62
     7
100
AcDbLine
 10
278.8424544871
 20
156.9532053872
 30
0.0
 11
279.2424545061
 21
156.9532053872
 31
0.0
  0
LINE
  5
2EF
330
1F
100
AcDbEntity
  8
0
  6
Continuous
 62
     7
100
AcDbLine
 10
279.2424545061
 20
151.9532101556
 30
0.0
 11
279.6424545251
 21
151.9532101556
 31
0.0
  0
LINE
  5
2F0
330
1F
100
AcDbEntity
  8
0
  6
Continuous
 62
     7
100
AcDbLine
 10
279.2424545061
 20
156.9532053872
 30
0.0
 11
279.6424545251
 21
156.9532053872
 31
0.0
  0
LINE
  5
2F1
330
1F
100
AcDbEntity
  8
0
  6
Continuous
 62
     7
100
AcDbLine
 10
270.442454321
 20
163.953204672
 30
0.0
 11
279.6424545251
 21
163.953204672
 31
0.0
  0
LINE
  5
2F2
330
1F
100
AcDbEntity
  8
0
  6
Continuous
 62
     7
100
AcDbLine
 10
269.4424541571
 20
145.9532128974
 30
0.0
 11
269.4424541571
 21
162.9532026454
 31
0.0
  0
ARC
  5
2F3
330
1F
100
AcDbEntity
  8
0
  6
Continuous
 62
     7
100
AcDbCircle
 10
270.4424545073
 20
162.9532058641
 30
0.0
 40
1.0
100
AcDbArc
 50
90.0
 51
180.0
  0
LINE
  5
2F4
330
1F
100
AcDbEntity
  8
0
  6
Continuous
 62
     7
100
AcDbLine
 10
273.4424548127
 20
156.9532053872
 30
0.0
 11
273.4424548127
 21
157.4531989499
 31
0.0
  0
LINE
  5
2F5
330
1F
100
AcDbEntity
  8
0
  6
Continuous
 62
     7
100
AcDbLine
 10
273.4424548127
 20
151.4532016917
 30
0.0
 11
273.4424548127
 21
151.9532101556
 31
0.0
  0
LINE
  5
2F6
330
1F
100
AcDbEntity
  8
0
  6
Continuous
 62
     7
100
AcDbLine
 10
279.6424545251
 20
151.4532016917
 30
0.0
 11
273.4424548127
 21
151.4532016917
 31
0.0
  0
LINE
  5
2F7
330
1F
100
AcDbEntity
  8
0
  6
Continuous
 62
     7
100
AcDbLine
 10
273.4424548127
 20
157.4531989499
 30
0.0
 11
279.6424545251
 21
157.4531989499
 31
0.0
  0
ARC
  5
2F8
330
1F
100
AcDbEntity
  8
0
  6
Continuous
 62
     7
100
AcDbCircle
 10
270.4424545073
 20
145.9532058641
 30
0.0
 40
1.0
100
AcDbArc
 50
180.0
 51
270.0
  0
LINE
  5
2F9
330
1F
100
AcDbEntity
  8
0
  6
Continuous
 62
     7
100
AcDbLine
 10
279.6424545251
 20
144.9532108709
 30
0.0
 11
270.442454321
 21
144.9532108709
 31
0.0
  0
LINE
  5
2FA
330
1F
100
AcDbEntity
  8
0
  6
Continuous
 62
     7
100
AcDbLine
 10
279.2424545061
 20
144.3532007142
 30
0.0
 11
279.6424545251
 21
144.3532007142
 31
0.0
  0
LINE
  5
2FB
330
1F
100
AcDbEntity
  8
0
  6
Continuous
 62
     7
100
AcDbLine
 10
279.2424545061
 20
144.0532105371
 30
0.0
 11
279.2424545061
 21
144.3532007142
 31
0.0
  0
LINE
  5
2FC
330
1F
100
AcDbEntity
  8
0
  6
Continuous
 62
     7
100
AcDbLine
 10
278.8424544871
 20
144.0532105371
 30
0.0
 11
279.2424545061
 21
144.0532105371
 31
0.0
  0
LINE
  5
2FD
330
1F
100
AcDbEntity
  8
0
  6
Continuous
 62
     7
100
AcDbLine
 10
278.8424544871
 20
143.7532054588
 30
0.0
 11
278.8424544871
 21
144.0532105371
 31
0.0
  0
LINE
  5
2FE
330
1F
100
AcDbEntity
  8
0
  6
Continuous
 62
     7
100
AcDbLine
 10
278.442454701
 20
143.7532054588
 30
0.0
 11
278.8424544871
 21
143.7532054588
 31
0.0
  0
LINE
  5
2FF
330
1F
100
AcDbEntity
  8
0
  6
Continuous
 62
     7
100
AcDbLine
 10
278.442454701
 20
142.9532068177
 30
0.0
 11
278.442454701
 21
143.7532054588
 31
0.0
  0
LINE
  5
300
330
1F
100
AcDbEntity
  8
0
  6
Continuous
 62
     7
100
AcDbLine
 10
278.442454701
 20
142.9532068177
 30
0.0
 11
273.4424548127
 21
144.9532108709
 31
0.0
  0
LINE
  5
301
330
1F
100
AcDbEntity
  8
0
  6
Continuous
 62
     7
100
AcDbLine
 10
278.442454701
 20
165.9532087251
 30
0.0
 11
278.442454701
 21
165.1532100841
 31
0.0
  0
LINE
  5
302
330
1F
100
AcDbEntity
  8
0
  6
Continuous
 62
     7
100
AcDbLine
 10
278.442454701
 20
165.1532100841
 30
0.0
 11
278.8424544871
 21
165.1532100841
 31
0.0
  0
LINE
  5
303
330
1F
100
AcDbEntity
  8
0
  6
Continuous
 62
     7
100
AcDbLine
 10
278.8424544871
 20
165.1532100841
 30
0.0
 11
278.8424544871
 21
164.8532050058
 31
0.0
  0
LINE
  5
304
330
1F
100
AcDbEntity
  8
0
  6
Continuous
 62
     7
100
AcDbLine
 10
278.8424544871
 20
164.8532050058
 30
0.0
 11
279.2424545061
 21
164.8532050058
 31
0.0
  0
LINE
  5
305
330
1F
100
AcDbEntity
  8
0
  6
Continuous
 62
     7
100
AcDbLine
 10
279.2424545061
 20
164.8532050058
 30
0.0
 11
279.2424545061
 21
164.5531999274
 31
0.0
  0
LINE
  5
306
330
1F
100
AcDbEntity
  8
0
  6
Continuous
 62
     7
100
AcDbLine
 10
279.2424545061
 20
164.5531999274
 30
0.0
 11
279.6424545251
 21
164.5531999274
 31
0.0
  0
LINE
  5
307
330
1F
100
AcDbEntity
  8
0
  6
Continuous
 62
     7
100
AcDbLine
 10
278.442454701
 20
165.9532087251
 30
0.0
 11
273.4424548127
 21
163.953204672
 31
0.0
  0
LINE
  5
308
330
1F
100
AcDbEntity
  8
0
  6
Continuous
 62
     7
100
AcDbLine
 10
278.442454701
 20
51.9532049402
 30
0.0
 11
278.442454701
 21
56.9532076224
 31
0.0
  0
LINE
  5
309
330
1F
100
AcDbEntity
  8
0
  6
Continuous
 62
     7
100
AcDbLine
 10
278.442454701
 20
51.9532049402
 30
0.0
 11
273.4424548127
 21
51.9532049402
 31
0.0
  0
LINE
  5
30A
330
1F
100
AcDbEntity
  8
0
  6
Continuous
 62
     7
100
AcDbLine
 10
273.4424548127
 20
51.9532049402
 30
0.0
 11
273.4424548127
 21
56.9532076224
 31
0.0
  0
LINE
  5
30B
330
1F
100
AcDbEntity
  8
0
  6
Continuous
 62
     7
100
AcDbLine
 10
278.442454701
 20
56.9532076224
 30
0.0
 11
273.4424548127
 21
56.9532076224
 31
0.0
  0
LINE
  5
30C
330
1F
100
AcDbEntity
  8
0
  6
Continuous
 62
     7
100
AcDbLine
 10
278.8424544871
 20
56.9532076224
 30
0.0
 11
278.8424544871
 21
51.9532049402
 31
0.0
  0
LINE
  5
30D
330
1F
100
AcDbEntity
  8
0
  6
Continuous
 62
     7
100
AcDbLine
 10
278.442454701
 20
56.9532076224
 30
0.0
 11
278.8424544871
 21
56.9532076224
 31
0.0
  0
LINE
  5
30E
330
1F
100
AcDbEntity
  8
0
  6
Continuous
 62
     7
100
AcDbLine
 10
278.442454701
 20
51.9532049402
 30
0.0
 11
278.8424544871
 21
51.9532049402
 31
0.0
  0
LINE
  5
30F
330
1F
100
AcDbEntity
  8
0
  6
Continuous
 62
     7
100
AcDbLine
 10
279.2424545061
 20
56.9532076224
 30
0.0
 11
279.2424545061
 21
51.9532049402
 31
0.0
  0
LINE
  5
310
330
1F
100
AcDbEntity
  8
0
  6
Continuous
 62
     7
100
AcDbLine
 10
278.8424544871
 20
56.9532076224
 30
0.0
 11
279.2424545061
 21
56.9532076224
 31
0.0
  0
LINE
  5
311
330
1F
100
AcDbEntity
  8
0
  6
Continuous
 62
     7
100
AcDbLine
 10
278.8424544871
 20
51.9532049402
 30
0.0
 11
279.2424545061
 21
51.9532049402
 31
0.0
  0
LINE
  5
312
330
1F
100
AcDbEntity
  8
0
  6
Continuous
 62
     7
100
AcDbLine
 10
279.2424545061
 20
56.9532076224
 30
0.0
 11
279.6424545251
 21
56.9532076224
 31
0.0
  0
LINE
  5
313
330
1F
100
AcDbEntity
  8
0
  6
Continuous
 62
     7
100
AcDbLine
 10
279.2424545061
 20
51.9532049402
 30
0.0
 11
279.6424545251
 21
51.9532049402
 31
0.0
  0
LINE
  5
314
330
1F
100
AcDbEntity
  8
0
  6
Continuous
 62
     7
100
AcDbLine
 10
273.4424548127
 20
56.9532076224
 30
0.0
 11
273.4424548127
 21
57.4532049104
 31
0.0
  0
LINE
  5
315
330
1F
100
AcDbEntity
  8
0
  6
Continuous
 62
     7
100
AcDbLine
 10
273.4424548127
 20
51.4532076522
 30
0.0
 11
273.4424548127
 21
51.9532049402
 31
0.0
  0
LINE
  5
316
330
1F
100
AcDbEntity
  8
0
  6
Continuous
 62
     7
100
AcDbLine
 10
279.6424545251
 20
51.4532076522
 30
0.0
 11
273.4424548127
 21
51.4532076522
 31
0.0
  0
LINE
  5
317
330
1F
100
AcDbEntity
  8
0
  6
Continuous
 62
     7
100
AcDbLine
 10
273.4424548127
 20
57.4532049104
 30
0.0
 11
279.6424545251
 21
57.4532049104
 31
0.0
  0
ARC
  5
318
330
1F
100
AcDbEntity
  8
0
  6
Continuous
 62
     7
100
AcDbCircle
 10
270.4424545073
 20
62.9532058641
 30
0.0
 40
1.0
100
AcDbArc
 50
90.0
 51
180.0
  0
LINE
  5
319
330
1F
100
AcDbEntity
  8
0
  6
Continuous
 62
     7
100
AcDbLine
 10
269.4424541571
 20
45.953207682
 30
0.0
 11
269.4424541571
 21
62.9532048806
 31
0.0
  0
LINE
  5
31A
330
1F
100
AcDbEntity
  8
0
  6
Continuous
 62
     7
100
AcDbLine
 10
270.442454321
 20
63.9532069072
 30
0.0
 11
279.6424545251
 21
63.9532069072
 31
0.0
  0
ARC
  5
31B
330
1F
100
AcDbEntity
  8
0
  6
Continuous
 62
     7
100
AcDbCircle
 10
270.4424545073
 20
45.9532058641
 30
0.0
 40
1.0
100
AcDbArc
 50
180.0
 51
270.0
  0
LINE
  5
31C
330
1F
100
AcDbEntity
  8
0
  6
Continuous
 62
     7
100
AcDbLine
 10
279.6424545251
 20
44.9532056555
 30
0.0
 11
270.442454321
 21
44.9532056555
 31
0.0
  0
LINE
  5
31D
330
1F
100
AcDbEntity
  8
0
  6
Continuous
 62
     7
100
AcDbLine
 10
279.2424545061
 20
44.3532066747
 30
0.0
 11
279.6424545251
 21
44.3532066747
 31
0.0
  0
LINE
  5
31E
330
1F
100
AcDbEntity
  8
0
  6
Continuous
 62
     7
100
AcDbLine
 10
279.2424545061
 20
44.0532053217
 30
0.0
 11
279.2424545061
 21
44.3532066747
 31
0.0
  0
LINE
  5
31F
330
1F
100
AcDbEntity
  8
0
  6
Continuous
 62
     7
100
AcDbLine
 10
278.8424544871
 20
44.0532053217
 30
0.0
 11
279.2424545061
 21
44.0532053217
 31
0.0
  0
LINE
  5
320
330
1F
100
AcDbEntity
  8
0
  6
Continuous
 62
     7
100
AcDbLine
 10
278.8424544871
 20
43.7532076939
 30
0.0
 11
278.8424544871
 21
44.0532053217
 31
0.0
  0
LINE
  5
321
330
1F
100
AcDbEntity
  8
0
  6
Continuous
 62
     7
100
AcDbLine
 10
278.442454701
 20
43.7532076939
 30
0.0
 11
278.8424544871
 21
43.7532076939
 31
0.0
  0
LINE
  5
322
330
1F
100
AcDbEntity
  8
0
  6
Continuous
 62
     7
100
AcDbLine
 10
278.442454701
 20
42.9532053276
 30
0.0
 11
278.442454701
 21
43.7532076939
 31
0.0
  0
LINE
  5
323
330
1F
100
AcDbEntity
  8
0
  6
Continuous
 62
     7
100
AcDbLine
 10
278.442454701
 20
42.9532053276
 30
0.0
 11
273.4424548127
 21
44.9532056555
 31
0.0
  0
LINE
  5
324
330
1F
100
AcDbEntity
  8
0
  6
Continuous
 62
     7
100
AcDbLine
 10
278.442454701
 20
65.953207235
 30
0.0
 11
273.4424548127
 21
63.9532069072
 31
0.0
  0
LINE
  5
325
330
1F
100
AcDbEntity
  8
0
  6
Continuous
 62
     7
100
AcDbLine
 10
278.442454701
 20
65.953207235
 30
0.0
 11
278.442454701
 21
65.1532048687
 31
0.0
  0
LINE
  5
326
330
1F
100
AcDbEntity
  8
0
  6
Continuous
 62
     7
100
AcDbLine
 10
278.442454701
 20
65.1532048687
 30
0.0
 11
278.8424544871
 21
65.1532048687
 31
0.0
  0
LINE
  5
327
330
1F
100
AcDbEntity
  8
0
  6
Continuous
 62
     7
100
AcDbLine
 10
278.8424544871
 20
65.1532048687
 30
0.0
 11
278.8424544871
 21
64.8532072409
 31
0.0
  0
LINE
  5
328
330
1F
100
AcDbEntity
  8
0
  6
Continuous
 62
     7
100
AcDbLine
 10
278.8424544871
 20
64.8532072409
 30
0.0
 11
279.2424545061
 21
64.8532072409
 31
0.0
  0
LINE
  5
329
330
1F
100
AcDbEntity
  8
0
  6
Continuous
 62
     7
100
AcDbLine
 10
279.2424545061
 20
64.8532072409
 30
0.0
 11
279.2424545061
 21
64.5532058879
 31
0.0
  0
LINE
  5
32A
330
1F
100
AcDbEntity
  8
0
  6
Continuous
 62
     7
100
AcDbLine
 10
279.2424545061
 20
64.5532058879
 30
0.0
 11
279.6424545251
 21
64.5532058879
 31
0.0
  0
LINE
  5
32B
330
1F
100
AcDbEntity
  8
0
  6
Continuous
 62
     7
100
AcDbLine
 10
330.2276015185
 20
-22.8790053771
 30
0.0
 11
329.9457944833
 21
-25.1593617395
 31
0.0
  0
SPLINE
  5
32C
330
1F
100
AcDbEntity
  8
0
  6
Continuous
 62
     7
100
AcDbSpline
210
0.0
220
0.0
230
1.0
 70
     8
 71
     3
 72
     9
 73
     5
 74
     0
 42
0.000000001
 43
0.00000001
 40
0.0
 40
0.0
 40
0.0
 40
0.0
 40
0.9361169808558629
 40
1.0
 40
1.0
 40
1.0
 40
1.0
 10
329.6645872198559
 20
-26.88514717376485
 30
0.0
 10
329.6119535914381
 20
-26.89777873463319
 30
0.0
 10
329.5557281094801
 20
-26.91127230555081
 30
0.0
 10
329.4385003794632
 20
-26.91570563751507
 30
0.0
 10
329.4310115181423
 20
-26.91598885214582
 30
0.0
  0
LINE
  5
32D
330
1F
100
AcDbEntity
  8
0
  6
Continuous
 62
     7
100
AcDbLine
 10
283.9424545548
 20
4.153205813
 30
0.0
 11
283.9424545548
 21
-26.1492421523
 31
0.0
  0
SPLINE
  5
32E
330
1F
100
AcDbEntity
  8
0
  6
Continuous
 62
     7
100
AcDbSpline
210
0.0
220
0.0
230
1.0
 70
     8
 71
     3
 72
    18
 73
    14
 74
     0
 42
0.000000001
 43
0.00000001
 40
0.0
 40
0.0
 40
0.0
 40
0.0
 40
0.0654252395209491
 40
0.1308589900579519
 40
0.1963018058492315
 40
0.2617571627301074
 40
0.3926501748678701
 40
0.5236062300222908
 40
0.6284560590477636
 40
0.7332812868840193
 40
0.8382498257652617
 40
0.9432254945208316
 40
1.0
 40
1.0
 40
1.0
 40
1.0
 10
329.5827798449017
 20
-26.14924215233579
 30
0.0
 10
329.7346257063463
 20
-25.30833671083656
 30
0.0
 10
330.0383371825078
 20
-23.62641643642029
 30
0.0
 10
330.6018387110226
 20
-21.15937834439795
 30
0.0
 10
331.2435961559243
 20
-18.74370170081384
 30
0.0
 10
332.2129195026535
 20
-15.60704717056259
 30
0.0
 10
333.6315891604894
 20
-11.85675386569936
 30
0.0
 10
335.5239781530568
 20
-7.963487322649468
 30
0.0
 10
337.5264119521423
 20
-4.634394503311142
 30
0.0
 10
339.5705190200546
 20
-1.803930432275225
 30
0.0
 10
341.8138811735607
 20
0.7592729162368694
 30
0.0
 10
343.843720647508
 20
2.751086796863742
 30
0.0
 10
345.1913779655571
 20
3.788923783789477
 30
0.0
 10
345.6644073032356
 20
4.153205813032843
 30
0.0
  0
SPLINE
  5
32F
330
1F
100
AcDbEntity
  8
0
  6
Continuous
 62
     7
100
AcDbSpline
210
0.0
220
0.0
230
1.0
 70
     8
 71
     3
 72
    19
 73
    15
 74
     0
 42
0.000000001
 43
0.00000001
 40
0.0
 40
0.0
 40
0.0
 40
0.0
 40
0.0776462610650639
 40
0.161684310514613
 40
0.2456618811606712
 40
0.3296294812000273
 40
0.41349014663606
 40
0.4973898992447338
 40
0.6231095025615989
 40
0.748762097356735
 40
0.8115897440852897
 40
0.8744053583939514
 40
0.9372082360000196
 40
1.0
 40
1.0
 40
1.0
 40
1.0
 10
346.4997738503433
 20
4.153205813032843
 30
0.0
 10
345.9295856027086
 20
3.650633915385906
 30
0.0
 10
344.7422715914764
 20
2.604118736928368
 30
0.0
 10
342.9734513815601
 20
0.8146789438381319
 30
0.0
 10
341.2088468655967
 20
-1.169939075950172
 30
0.0
 10
339.5164368587711
 20
-3.318665980882665
 30
0.0
 10
337.9143329932064
 20
-5.624917731643683
 30
0.0
 10
336.1741893047044
 20
-8.493289904557624
 30
0.0
 10
334.3995742493091
 20
-12.01529068175068
 30
0.0
 10
333.028607730137
 20
-15.56320679885274
 30
0.0
 10
332.1345277455975
 20
-18.52330022951119
 30
0.0
 10
331.5735260301634
 20
-20.79945853147151
 30
0.0
 10
331.1167665848419
 20
-23.12107607269913
 30
0.0
 10
330.912539078792
 20
-24.70142347076133
 30
0.0
 10
330.8104343615986
 20
-25.49152724898114
 30
0.0
  0
LINE
  5
330
330
1F
100
AcDbEntity
  8
0
  6
Continuous
 62
     7
100
AcDbLine
 10
330.0694703959
 20
-23.5776668087
 30
0.0
 11
329.8168621861
 21
-25.3783231274
 31
0.0
  0
LINE
  5
331
330
1F
100
AcDbEntity
  8
0
  6
Continuous
 62
     7
100
AcDbLine
 10
283.9424545548
 20
-26.1492421523
 30
0.0
 11
283.9424545548
 21
-27.1945101813
 31
0.0
  0
ARC
  5
332
330
1F
100
AcDbEntity
  8
0
  6
Continuous
 62
     7
100
AcDbCircle
 10
406.1886262251
 20
-39.0489241532
 30
0.0
 40
77.68434523989532
100
AcDbArc
 50
170.4416165243
 51
171.2225314753
  0
SPLINE
  5
333
330
1F
100
AcDbEntity
  8
0
  6
Continuous
 62
     7
100
AcDbSpline
210
0.0
220
0.0
230
1.0
 70
     8
 71
     3
 72
    13
 73
     9
 74
     0
 42
0.000000001
 43
0.00000001
 40
0.0
 40
0.0
 40
0.0
 40
0.0
 40
0.0924506107435785
 40
0.2720115841488377
 40
0.531858197328088
 40
0.6175437551812267
 40
0.7627352673646323
 40
1.0
 40
1.0
 40
1.0
 40
1.0
 10
329.2716324233032
 20
-28.186134029987
 30
0.0
 10
329.2757770766637
 20
-28.18412365378149
 30
0.0
 10
329.2879716280819
 20
-28.17820865103572
 30
0.0
 10
329.3106982858306
 20
-28.10049586120554
 30
0.0
 10
329.3341288532878
 20
-27.94172407462105
 30
0.0
 10
329.3590721321129
 20
-27.74476636718985
 30
0.0
 10
329.383745506395
 20
-27.53030594996629
 30
0.0
 10
329.402468560634
 20
-27.3230720602345
 30
0.0
 10
329.4140837990261
 20
-27.19451018131032
 30
0.0
  0
LINE
  5
334
330
1F
100
AcDbEntity
  8
0
  6
Continuous
 62
     7
100
AcDbLine
 10
283.9424545548
 20
-28.18613403
 30
0.0
 11
329.2716324233
 21
-28.18613403
 31
0.0
  0
LINE
  5
335
330
1F
100
AcDbEntity
  8
0
  6
Continuous
 62
     7
100
AcDbLine
 10
283.9424545548
 20
-27.1945101813
 30
0.0
 11
283.9424545548
 21
-28.18613403
 31
0.0
  0
LWPOLYLINE
  5
336
330
1F
100
AcDbEntity
  8
0
  6
Continuous
 62
     7
100
AcDbPolyline
 90
        9
 70
   128
 43
0.0
 10
330.8104343616
 20
-25.491527249
 10
330.7872630559
 20
-25.6949020222
 10
330.7640768491
 20
-25.8984034554
 10
330.7408757411
 20
-26.1020278231
 10
330.7176634573
 20
-26.3057751254
 10
330.6944362723
 20
-26.5096453623
 10
330.6711941861
 20
-26.7136385337
 10
330.6479371988
 20
-26.9177509145
 10
330.6246690356
 20
-27.1219787792
  0
LINE
  5
337
330
1F
100
AcDbEntity
  8
0
  6
Continuous
 62
     7
100
AcDbLine
 10
329.6310968601
 20
-27.0087746576
 30
0.0
 11
330.6246690356
 21
-27.1219787792
 31
0.0
  0
LWPOLYLINE
  5
338
330
1F
100
AcDbEntity
  8
0
  6
Continuous
 62
     7
100
AcDbPolyline
 90
        9
 70
   128
 43
0.0
 10
329.8168621861
 20
-25.3783231274
 10
329.7936908804
 20
-25.5816979007
 10
329.7705046736
 20
-25.7851993338
 10
329.7473035656
 20
-25.9888237015
 10
329.7240912818
 20
-26.1925747291
 10
329.7008640968
 20
-26.396444966
 10
329.6776220106
 20
-26.6004344121
 10
329.6543650233
 20
-26.8045467929
 10
329.6310968601
 20
-27.0087746576
  0
SPLINE
  5
339
330
1F
100
AcDbEntity
  8
0
  6
Continuous
 62
     7
100
AcDbSpline
210
0.0
220
0.0
230
1.0
 70
     8
 71
     3
 72
    13
 73
     9
 74
     0
 42
0.000000001
 43
0.00000001
 40
0.0
 40
0.0
 40
0.0
 40
0.0
 40
0.0915033811338496
 40
0.2686651077206494
 40
0.5255115879838691
 40
0.7604068923444774
 40
0.8477417741534734
 40
1.0
 40
1.0
 40
1.0
 40
1.0
 10
329.6310968600727
 20
-27.00877465760961
 30
0.0
 10
329.6297285350332
 20
-27.01760973169477
 30
0.0
 10
329.625710965523
 20
-27.04355058875819
 30
0.0
 10
329.6057866638746
 20
-27.0925359545446
 30
0.0
 10
329.5625480526718
 20
-27.14346075974135
 30
0.0
 10
329.5151596219864
 20
-27.17011408260679
 30
0.0
 10
329.4712322919055
 20
-27.18363957165594
 30
0.0
 10
329.4474779760342
 20
-27.18516581892601
 30
0.0
 10
329.4323824249722
 20
-27.18613572871938
 30
0.0
  0
LINE
  5
33A
330
1F
100
AcDbEntity
  8
0
  6
Continuous
 62
     7
100
AcDbLine
 10
329.432382425
 20
-27.1861357287
 30
0.0
 11
329.432382425
 21
-28.18613403
 31
0.0
  0
SPLINE
  5
33B
330
1F
100
AcDbEntity
  8
0
  6
Continuous
 62
     7
100
AcDbSpline
210
0.0
220
0.0
230
1.0
 70
     8
 71
     3
 72
    13
 73
     9
 74
     0
 42
0.000000001
 43
0.00000001
 40
0.0
 40
0.0
 40
0.0
 40
0.0
 40
0.0923695604657238
 40
0.2727092891594535
 40
0.5299604526266368
 40
0.7584179914254491
 40
0.8453805207540162
 40
1.0
 40
1.0
 40
1.0
 40
1.0
 10
330.6246690355755
 20
-27.12197877919927
 30
0.0
 10
330.6164217668777
 20
-27.17508726945801
 30
0.0
 10
330.5920727630208
 20
-27.33188328054402
 30
0.0
 10
330.4739274398505
 20
-27.62115236734512
 30
0.0
 10
330.2202069173549
 20
-27.92548468770283
 30
0.0
 10
329.9255113768223
 20
-28.09155885544602
 30
0.0
 10
329.6633578765812
 20
-28.17152542462804
 30
0.0
 10
329.5225216726636
 20
-28.18043295358381
 30
0.0
 10
329.4323824249722
 20
-28.186134029987
 30
0.0
  0
SPLINE
  5
33C
330
1F
100
AcDbEntity
  8
0
  6
Continuous
 62
     7
100
AcDbSpline
210
0.0
220
0.0
230
1.0
 70
     8
 71
     3
 72
     9
 73
     5
 74
     0
 42
0.000000001
 43
0.00000001
 40
0.0
 40
0.0
 40
0.0
 40
0.0
 40
0.5000148578794281
 40
1.0
 40
1.0
 40
1.0
 40
1.0
 10
359.3855976962067
 20
254.5948224469398
 30
0.0
 10
359.4084762266875
 20
254.5562106121082
 30
0.0
 10
359.4542319279839
 20
254.4789892371367
 30
0.0
 10
359.4999842575455
 20
254.3757572924094
 30
0.0
 10
359.5228597425438
 20
254.3241428538536
 30
0.0
  0
LINE
  5
33D
330
1F
100
AcDbEntity
  8
0
  6
Continuous
 62
     7
100
AcDbLine
 10
393.1424572968
 20
198.0665373012
 30
0.0
 11
393.1424572968
 21
198.5782580777
 31
0.0
  0
LINE
  5
33E
330
1F
100
AcDbEntity
  8
0
  6
Continuous
 62
     7
100
AcDbLine
 10
393.1424572968
 20
194.5532011195
 30
0.0
 11
393.1424572968
 21
198.0665373012
 31
0.0
  0
LINE
  5
33F
330
1F
100
AcDbEntity
  8
0
  6
Continuous
 62
     7
100
AcDbLine
 10
393.1424572968
 20
194.5532011195
 30
0.0
 11
393.1353494429
 21
194.5532011195
 31
0.0
  0
LINE
  5
340
330
1F
100
AcDbEntity
  8
0
  6
Continuous
 62
     7
100
AcDbLine
 10
392.6945283913
 20
199.4961994096
 30
0.0
 11
393.1353494429
 21
199.0899937555
 31
0.0
  0
LINE
  5
341
330
1F
100
AcDbEntity
  8
0
  6
Continuous
 62
     7
100
AcDbLine
 10
393.1353494429
 20
199.0899937555
 30
0.0
 11
393.1353494429
 21
198.0665373012
 31
0.0
  0
LINE
  5
342
330
1F
100
AcDbEntity
  8
0
  6
Continuous
 62
     7
100
AcDbLine
 10
280.6424544562
 20
198.0665373012
 30
0.0
 11
280.6424544562
 21
199.4961994096
 31
0.0
  0
LINE
  5
343
330
1F
100
AcDbEntity
  8
0
  6
Continuous
 62
     7
100
AcDbLine
 10
393.1353494429
 20
198.0665373012
 30
0.0
 11
393.1353494429
 21
194.5532011195
 31
0.0
  0
LINE
  5
344
330
1F
100
AcDbEntity
  8
0
  6
Continuous
 62
     7
100
AcDbLine
 10
280.6424544562
 20
194.5532011195
 30
0.0
 11
280.6424544562
 21
198.0665373012
 31
0.0
  0
LINE
  5
345
330
1F
100
AcDbEntity
  8
0
  6
Continuous
 62
     7
100
AcDbLine
 10
280.6424544562
 20
194.5532011195
 30
0.0
 11
393.1353494429
 21
194.5532011195
 31
0.0
  0
LWPOLYLINE
  5
346
330
1F
100
AcDbEntity
  8
0
  6
Continuous
 62
     7
100
AcDbPolyline
 90
        8
 70
   128
 43
0.0
 10
332.1469157838
 20
201.7602818414
 10
332.6685160302
 20
201.8223302766
 10
333.5708185934
 20
202.0562189027
 10
334.2405289315
 20
202.4145620271
 10
334.5968790256
 20
202.8541462823
 10
334.5968790256
 20
203.3219384357
 10
334.2405289315
 20
203.7615077897
 10
334.053910514
 20
203.8893001481
  0
LINE
  5
347
330
1F
100
AcDbEntity
  8
0
  6
Continuous
 62
     7
100
AcDbLine
 10
280.6424544562
 20
209.8912345573
 30
0.0
 11
280.6424544562
 21
199.4961994096
 31
0.0
  0
ARC
  5
348
330
1F
100
AcDbEntity
  8
0
  6
Continuous
 62
     7
100
AcDbCircle
 10
372.3093716201
 20
209.1925173003
 30
0.0
 40
0.7614377157777983
100
AcDbArc
 50
80.4370016114
 51
113.41813094
  0
ARC
  5
349
330
1F
100
AcDbEntity
  8
0
  6
Continuous
 62
     7
100
AcDbCircle
 10
393.0002954744
 20
198.778281094
 30
0.0
 40
0.7803205860209289
100
AcDbArc
 50
82.117851888
 51
113.0695380911
  0
LINE
  5
34A
330
1F
100
AcDbEntity
  8
0
  6
Continuous
 62
     7
100
AcDbLine
 10
371.2098851704
 20
210.3227423831
 30
0.0
 11
371.1780190371
 21
210.402046363
 31
0.0
  0
SPLINE
  5
34B
330
1F
100
AcDbEntity
  8
0
  6
Continuous
 62
     7
100
AcDbSpline
210
0.0
220
0.0
230
1.0
 70
     8
 71
     3
 72
     9
 73
     5
 74
     0
 42
0.000000001
 43
0.00000001
 40
0.0
 40
0.0
 40
0.0
 40
0.0
 40
0.4999999679703708
 40
1.0
 40
1.0
 40
1.0
 40
1.0
 10
372.0067471169449
 20
209.8912345572685
 30
0.0
 10
371.8739386509056
 20
209.9448762571234
 30
0.0
 10
371.6083217018119
 20
210.052159663706
 30
0.0
 10
371.3426973531839
 20
210.2325481394635
 30
0.0
 10
371.2098851703621
 20
210.3227423831199
 30
0.0
  0
LINE
  5
34C
330
1F
100
AcDbEntity
  8
0
  6
Continuous
 62
     7
100
AcDbLine
 10
280.6424544562
 20
210.402046363
 30
0.0
 11
280.6424544562
 21
209.8912345573
 31
0.0
  0
LINE
  5
34D
330
1F
100
AcDbEntity
  8
0
  6
Continuous
 62
     7
100
AcDbLine
 10
280.6424544562
 20
250.4382031366
 30
0.0
 11
280.6424544562
 21
210.402046363
 31
0.0
  0
ARC
  5
34E
330
1F
100
AcDbEntity
  8
0
  6
Continuous
 62
     7
100
AcDbCircle
 10
360.5724663869
 20
250.5574970301
 30
0.0
 40
3.929974570756284
100
AcDbArc
 50
92.667646165
 51
104.5616398824
  0
ARC
  5
34F
330
1F
100
AcDbEntity
  8
0
  6
Continuous
 62
     7
100
AcDbCircle
 10
372.1650279327
 20
206.6040211927
 30
0.0
 40
3.924179118469423
100
AcDbArc
 50
92.6283850426
 51
104.5674665967
  0
SPLINE
  5
350
330
1F
100
AcDbEntity
  8
0
  6
Continuous
 62
     7
100
AcDbSpline
210
0.0
220
0.0
230
1.0
 70
     8
 71
     3
 72
    11
 73
     7
 74
     0
 42
0.000000001
 43
0.00000001
 40
0.0
 40
0.0
 40
0.0
 40
0.0
 40
0.2500000795838587
 40
0.5000025748218173
 40
0.7499960165870839
 40
1.0
 40
1.0
 40
1.0
 40
1.0
 10
359.5843866371132
 20
254.3612318440651
 30
0.0
 10
359.5615076311406
 20
254.4749745973963
 30
0.0
 10
359.5157493981243
 20
254.7024612031109
 30
0.0
 10
359.4471263833452
 20
254.999391709863
 30
0.0
 10
359.3784972263613
 20
255.2506001659107
 30
0.0
 10
359.3327410933114
 20
255.3614292792176
 30
0.0
 10
359.3098625444389
 20
255.4168450041984
 30
0.0
  0
LINE
  5
351
330
1F
100
AcDbEntity
  8
0
  6
Continuous
 62
     7
100
AcDbLine
 10
393.6371683978
 20
198.5782580777
 30
0.0
 11
394.2520946168
 21
199.0899937555
 31
0.0
  0
LINE
  5
352
330
1F
100
AcDbEntity
  8
0
  6
Continuous
 62
     7
100
AcDbLine
 10
393.6371683978
 20
198.5782580777
 30
0.0
 11
393.3814272188
 21
198.7813609048
 31
0.0
  0
LINE
  5
353
330
1F
100
AcDbEntity
  8
0
  6
Continuous
 62
     7
100
AcDbLine
 10
393.7406122588
 20
199.4961994096
 30
0.0
 11
393.3814272188
 21
198.7813609048
 31
0.0
  0
LINE
  5
354
330
1F
100
AcDbEntity
  8
0
  6
Continuous
 62
     7
100
AcDbLine
 10
394.2520946168
 20
199.0899937555
 30
0.0
 11
393.7406122588
 21
199.4961994096
 31
0.0
  0
ARC
  5
355
330
1F
100
AcDbEntity
  8
0
  6
Continuous
 62
     7
100
AcDbCircle
 10
393.0222429384
 20
198.0665341219
 30
0.0
 40
0.7999999999999895
100
AcDbArc
 50
0.0
 51
39.7667128033
  0
ARC
  5
356
330
1F
100
AcDbEntity
  8
0
  6
Continuous
 62
     7
100
AcDbCircle
 10
393.0222429384
 20
198.0665341219
 30
0.0
 40
1.599999999999966
100
AcDbArc
 50
360.0
 51
39.7667128033
  0
LINE
  5
357
330
1F
100
AcDbEntity
  8
0
  6
Continuous
 62
     7
100
AcDbLine
 10
393.8222408198
 20
194.5532011195
 30
0.0
 11
393.8222408198
 21
198.0665373012
 31
0.0
  0
LINE
  5
358
330
1F
100
AcDbEntity
  8
0
  6
Continuous
 62
     7
100
AcDbLine
 10
394.6222394608
 20
194.5532011195
 30
0.0
 11
394.6222394608
 21
198.0665373012
 31
0.0
  0
LINE
  5
359
330
1F
100
AcDbEntity
  8
0
  6
Continuous
 62
     7
100
AcDbLine
 10
393.8222408198
 20
194.5532011195
 30
0.0
 11
394.6222394608
 21
194.5532011195
 31
0.0
  0
LINE
  5
35A
330
1F
100
AcDbEntity
  8
0
  6
Continuous
 62
     7
100
AcDbLine
 10
373.0528235339
 20
209.8912345573
 30
0.0
 11
393.7406122588
 21
199.4961994096
 31
0.0
  0
LINE
  5
35B
330
1F
100
AcDbEntity
  8
0
  6
Continuous
 62
     7
100
AcDbLine
 10
393.1353494429
 20
198.9050107404
 30
0.0
 11
393.3814272188
 21
198.7813609048
 31
0.0
  0
LINE
  5
35C
330
1F
100
AcDbEntity
  8
0
  6
Continuous
 62
     7
100
AcDbLine
 10
373.0528235339
 20
209.8912345573
 30
0.0
 11
372.9596167706
 21
209.7057151004
 31
0.0
  0
LINE
  5
35D
330
1F
100
AcDbEntity
  8
0
  6
Continuous
 62
     7
100
AcDbLine
 10
372.6638585233
 20
210.3227423831
 30
0.0
 11
371.9157084726
 21
210.0394266053
 31
0.0
  0
SPLINE
  5
35E
330
1F
100
AcDbEntity
  8
0
  6
Continuous
 62
     7
100
AcDbSpline
210
0.0
220
0.0
230
1.0
 70
     8
 71
     3
 72
     9
 73
     5
 74
     0
 42
0.000000001
 43
0.00000001
 40
0.0
 40
0.0
 40
0.0
 40
0.0
 40
0.5000018109557182
 40
1.0
 40
1.0
 40
1.0
 40
1.0
 10
372.6638585232712
 20
210.3227423831199
 30
0.0
 10
372.7084091035892
 20
210.2325482240515
 30
0.0
 10
372.7975099415102
 20
210.0521605592627
 30
0.0
 10
372.9677192086071
 20
209.9448764284086
 30
0.0
 10
373.0528235339142
 20
209.8912345572685
 30
0.0
  0
LINE
  5
35F
330
1F
100
AcDbEntity
  8
0
  6
Continuous
 62
     7
100
AcDbLine
 10
371.8649104141
 20
210.1980345651
 30
0.0
 11
371.7923268579
 21
210.4732441112
 31
0.0
  0
LINE
  5
360
330
1F
100
AcDbEntity
  8
0
  6
Continuous
 62
     7
100
AcDbLine
 10
360.2712780141
 20
254.1572200462
 30
0.0
 11
361.044827094
 21
254.3612318441
 31
0.0
  0
LINE
  5
361
330
1F
100
AcDbEntity
  8
0
  6
Continuous
 62
     7
100
AcDbLine
 10
372.638459494
 20
210.402046363
 30
0.0
 11
361.044827094
 21
254.3612318441
 31
0.0
  0
LINE
  5
362
330
1F
100
AcDbEntity
  8
0
  6
Continuous
 62
     7
100
AcDbLine
 10
371.8649104141
 20
210.1980345651
 30
0.0
 11
372.638459494
 21
210.402046363
 31
0.0
  0
LINE
  5
363
330
1F
100
AcDbEntity
  8
0
  6
Continuous
 62
     7
100
AcDbLine
 10
372.638459494
 20
210.402046363
 30
0.0
 11
372.6638585233
 21
210.3227423831
 31
0.0
  0
LINE
  5
364
330
1F
100
AcDbEntity
  8
0
  6
Continuous
 62
     7
100
AcDbLine
 10
371.8649104141
 20
210.1980345651
 30
0.0
 11
371.9157084726
 21
210.0394266053
 31
0.0
  0
SPLINE
  5
365
330
1F
100
AcDbEntity
  8
0
  6
Continuous
 62
     7
100
AcDbSpline
210
0.0
220
0.0
230
1.0
 70
     8
 71
     3
 72
    10
 73
     6
 74
     0
 42
0.000000001
 43
0.00000001
 40
0.0
 40
0.0
 40
0.0
 40
0.0
 40
0.2402918739529565
 40
0.5792789668595839
 40
1.0
 40
1.0
 40
1.0
 40
1.0
 10
370.8782002233482
 20
221.7819588586067
 30
0.0
 10
370.892929674436
 20
221.7261116152065
 30
0.0
 10
370.9284384124893
 20
221.5914789581522
 30
0.0
 10
370.9889247862539
 20
221.3621346883456
 30
0.0
 10
371.0236259128139
 20
221.230556622045
 30
0.0
 10
371.0428431533791
 20
221.1576896115516
 30
0.0
  0
LINE
  5
366
330
1F
100
AcDbEntity
  8
0
  6
Continuous
 62
     7
100
AcDbLine
 10
365.2251392507
 20
243.2164745733
 30
0.0
 11
370.8782002233
 21
221.7819588586
 31
0.0
  0
SPLINE
  5
367
330
1F
100
AcDbEntity
  8
0
  6
Continuous
 62
     7
100
AcDbSpline
210
0.0
220
0.0
230
1.0
 70
     8
 71
     3
 72
    11
 73
     7
 74
     0
 42
0.000000001
 43
0.00000001
 40
0.0
 40
0.0
 40
0.0
 40
0.0
 40
0.2500034753588106
 40
0.4999983323895636
 40
0.7500012812216502
 40
1.0
 40
1.0
 40
1.0
 40
1.0
 10
360.1440891527153
 20
255.4168450041984
 30
0.0
 10
360.2504396041026
 20
255.3614290896305
 30
0.0
 10
360.4631368406761
 20
255.2505991708386
 30
0.0
 10
360.7237877226667
 20
254.9993922653774
 30
0.0
 10
360.9308604506988
 20
254.7024625102833
 30
0.0
 10
361.0068384271464
 20
254.4749747579497
 30
0.0
 10
361.0448270939804
 20
254.3612318440651
 30
0.0
  0
SPLINE
  5
368
330
1F
100
AcDbEntity
  8
0
  6
Continuous
 62
     7
100
AcDbSpline
210
0.0
220
0.0
230
1.0
 70
     8
 71
     3
 72
    11
 73
     7
 74
     0
 42
0.000000001
 43
0.00000001
 40
0.0
 40
0.0
 40
0.0
 40
0.0
 40
0.2499918101759457
 40
0.500000352707721
 40
0.7499991161180959
 40
1.0
 40
1.0
 40
1.0
 40
1.0
 10
359.8209127687431
 20
254.6850191756462
 30
0.0
 10
359.8740858966133
 20
254.6573139820792
 30
0.0
 10
359.9804357113171
 20
254.6019017405922
 30
0.0
 10
360.110752140061
 20
254.4762938831996
 30
0.0
 10
360.2143023999612
 20
254.327835493019
 30
0.0
 10
360.2522860890151
 20
254.214092022573
 30
0.0
 10
360.2712780140854
 20
254.1572200461601
 30
0.0
  0
LINE
  5
369
330
1F
100
AcDbEntity
  8
0
  6
Continuous
 62
     7
100
AcDbLine
 10
359.8209127687
 20
254.6850191756
 30
0.0
 11
360.1440891527
 21
255.4168450042
 31
0.0
  0
ARC
  5
36A
330
1F
100
AcDbEntity
  8
0
  6
Continuous
 62
     7
100
AcDbCircle
 10
371.2407134907
 20
218.8388964484
 30
0.0
 40
0.8000000000000539
100
AcDbArc
 50
134.774550275
 51
194.7745502751
  0
LINE
  5
36B
330
1F
100
AcDbEntity
  8
0
  6
Continuous
 62
     7
100
AcDbLine
 10
359.4977289342
 20
254.7532068893
 30
0.0
 11
359.4977289342
 21
255.5532055303
 31
0.0
  0
LINE
  5
36C
330
1F
100
AcDbEntity
  8
0
  6
Continuous
 62
     7
100
AcDbLine
 10
359.4977289342
 20
255.5532055303
 30
0.0
 11
360.1440891527
 21
255.4168450042
 31
0.0
  0
LINE
  5
36D
330
1F
100
AcDbEntity
  8
0
  6
Continuous
 62
     7
100
AcDbLine
 10
359.4977289342
 20
254.7532068893
 30
0.0
 11
359.8209127687
 21
254.6850191756
 31
0.0
  0
SPLINE
  5
36E
330
1F
100
AcDbEntity
  8
0
  6
Continuous
 62
     7
100
AcDbSpline
210
0.0
220
0.0
230
1.0
 70
     8
 71
     3
 72
     9
 73
     5
 74
     0
 42
0.000000001
 43
0.00000001
 40
0.0
 40
0.0
 40
0.0
 40
0.0
 40
0.4941492776389098
 40
1.0
 40
1.0
 40
1.0
 40
1.0
 10
371.0428431533791
 20
221.1576896115516
 30
0.0
 10
371.0584299249793
 20
221.0985827465736
 30
0.0
 10
371.0899725626105
 20
220.9789693672716
 30
0.0
 10
371.0949371290528
 20
220.9601551580755
 30
0.0
 10
371.0974484585739
 20
220.9506379767631
 30
0.0
  0
ARC
  5
36F
330
1F
100
AcDbEntity
  8
0
  6
Continuous
 62
     7
100
AcDbCircle
 10
369.5503479812
 20
220.5426172132
 30
0.0
 40
1.599999999999968
100
AcDbArc
 50
314.7745502753
 51
14.774550275
  0
ARC
  5
370
330
1F
100
AcDbEntity
  8
0
  6
Continuous
 62
     7
100
AcDbCircle
 10
364.1915588577
 20
245.5669410983
 30
0.0
 40
0.8000000000000321
100
AcDbArc
 50
194.774550275
 51
254.7745502749
  0
ARC
  5
371
330
1F
100
AcDbEntity
  8
0
  6
Continuous
 62
     7
100
AcDbCircle
 10
363.5612761492
 20
243.251181243
 30
0.0
 40
1.600000000000031
100
AcDbArc
 50
14.774550275
 51
74.7745502749
  0
SPLINE
  5
372
330
1F
100
AcDbEntity
  8
0
  6
Continuous
 62
     7
100
AcDbSpline
210
0.0
220
0.0
230
1.0
 70
     8
 71
     3
 72
    12
 73
     8
 74
     0
 42
0.000000001
 43
0.00000001
 40
0.0
 40
0.0
 40
0.0
 40
0.0
 40
0.0983380753039723
 40
0.3296584961208055
 40
0.4882717108301229
 40
0.711710131632281
 40
1.0
 40
1.0
 40
1.0
 40
1.0
 10
365.1083737515427
 20
243.6592029734825
 30
0.0
 10
365.1085443670069
 20
243.6585545810241
 30
0.0
 10
365.1091163208224
 20
243.6563809765269
 30
0.0
 10
365.1159535096188
 20
243.630476482417
 30
0.0
 10
365.1360322896332
 20
243.5543530485637
 30
0.0
 10
365.1723526001049
 20
243.4166193763878
 30
0.0
 10
365.2061173617217
 20
243.2885975849698
 30
0.0
 10
365.2251392506577
 20
243.2164745732521
 30
0.0
  0
ARC
  5
373
330
1F
100
AcDbEntity
  8
0
  6
Continuous
 62
     7
100
AcDbCircle
 10
293.2343720403
 20
-26.0014358984
 30
0.0
 40
5.001608545967182
100
AcDbArc
 50
245.7799881701
 51
262.9490501927
  0
LINE
  5
374
330
1F
100
AcDbEntity
  8
0
  6
Continuous
 62
     7
100
AcDbLine
 10
290.7257272766
 20
-30.562787284
 30
0.0
 11
291.1825042122
 21
-30.562787284
 31
0.0
  0
ARC
  5
375
330
1F
100
AcDbEntity
  8
0
  6
Continuous
 62
     7
100
AcDbCircle
 10
292.6773946481
 20
-26.41996522
 30
0.0
 40
4.579517461815007
100
AcDbArc
 50
244.7750575476
 51
262.9868270754
  0
ARC
  5
376
330
1F
100
AcDbEntity
  8
0
  6
Continuous
 62
     7
100
AcDbCircle
 10
293.6206554833
 20
-29.6928027137
 30
0.0
 40
1.321323240218079
100
AcDbArc
 50
239.1178267116
 51
254.3625413821
  0
ARC
  5
377
330
1F
100
AcDbEntity
  8
0
  6
Continuous
 62
     7
100
AcDbCircle
 10
292.6742114369
 20
-26.1245959175
 30
0.0
 40
4.876480994454046
100
AcDbArc
 50
276.9525162699
 51
282.7569535491
  0
ARC
  5
378
330
1F
100
AcDbEntity
  8
0
  6
Continuous
 62
     7
100
AcDbCircle
 10
293.2046949607
 20
-26.4057430627
 30
0.0
 40
4.593977520981781
100
AcDbArc
 50
277.0264103492
 51
285.7704749732
  0
ARC
  5
379
330
1F
100
AcDbEntity
  8
0
  6
Continuous
 62
     7
100
AcDbCircle
 10
293.4007969857
 20
-29.8463144912
 30
0.0
 40
1.177202105270787
100
AcDbArc
 50
288.1069533182
 51
322.509964994
  0
LINE
  5
37A
330
1F
100
AcDbEntity
  8
0
  6
Continuous
 62
     7
100
AcDbLine
 10
293.2922227212
 20
-30.562787284
 30
0.0
 11
294.3348588326
 21
-30.562787284
 31
0.0
  0
ARC
  5
37B
330
1F
100
AcDbEntity
  8
0
  6
Continuous
 62
     7
100
AcDbCircle
 10
292.1294323682
 20
-29.383623963
 30
0.0
 40
1.656051793463955
100
AcDbArc
 50
287.2461769469
 51
314.599442682
  0
LINE
  5
37C
330
1F
100
AcDbEntity
  8
0
  6
Continuous
 62
     7
100
AcDbLine
 10
293.7666617238
 20
-30.9652192191
 30
0.0
 11
293.6921605744
 21
-30.562787284
 31
0.0
  0
LINE
  5
37D
330
1F
100
AcDbEntity
  8
0
  6
Continuous
 62
     7
100
AcDbLine
 10
292.1182468437
 20
-30.9652192191
 30
0.0
 11
292.1338939943
 21
-30.8807035581
 31
0.0
  0
LINE
  5
37E
330
1F
100
AcDbEntity
  8
0
  6
Continuous
 62
     7
100
AcDbLine
 10
293.2644935228
 20
-30.9652192191
 30
0.0
 11
293.2388486244
 21
-30.6106833414
 31
0.0
  0
LWPOLYLINE
  5
37F
330
1F
100
AcDbEntity
  8
0
  6
Continuous
 62
     7
100
AcDbPolyline
 90
        3
 70
   128
 43
0.0
 10
391.7334109448
 20
194.5532011195
 10
391.7330682181
 20
194.466252844
 10
391.7324870728
 20
194.3364786311
  0
LINE
  5
380
330
1F
100
AcDbEntity
  8
0
  6
Continuous
 62
     7
100
AcDbLine
 10
391.7324870728
 20
194.3364786311
 30
0.0
 11
391.2895351552
 21
193.845500271
 31
0.0
  0
ARC
  5
381
330
1F
100
AcDbEntity
  8
0
  6
Continuous
 62
     7
100
AcDbCircle
 10
164.3377953913
 20
194.9197429534
 30
0.0
 40
117.3987187622036
100
AcDbArc
 50
359.475714629
 51
359.8211110442
  0
LINE
  5
382
330
1F
100
AcDbEntity
  8
0
  6
Continuous
 62
     7
100
AcDbLine
 10
281.7061407861
 20
191.3073705837
 30
0.0
 11
281.7315991872
 21
193.845500271
 31
0.0
  0
LWPOLYLINE
  5
383
330
1F
100
AcDbEntity
  8
0
  6
Continuous
 62
     7
100
AcDbPolyline
 90
        9
 70
   128
 43
0.0
 10
281.7061407861
 20
191.3073705837
 10
281.6978503854
 20
190.3866874381
 10
281.6902393844
 20
189.3464075729
 10
281.6833871786
 20
188.197364132
 10
281.6773647812
 20
186.9514929458
 10
281.67223494
 20
185.6217431232
 10
281.6680508569
 20
184.2219578429
 10
281.6648561877
 20
182.7666657373
 10
281.6626841106
 20
181.2710212871
  0
LINE
  5
384
330
1F
100
AcDbEntity
  8
0
  6
Continuous
 62
     7
100
AcDbLine
 10
281.6578244694
 20
176.8283443853
 30
0.0
 11
281.6626841106
 21
181.2710212871
 31
0.0
  0
LINE
  5
385
330
1F
100
AcDbEntity
  8
0
  6
Continuous
 62
     7
100
AcDbLine
 10
281.6511230214
 20
176.9874291822
 30
0.0
 11
281.6578244694
 21
176.8283443853
 31
0.0
  0
LINE
  5
386
330
1F
100
AcDbEntity
  8
0
  6
Continuous
 62
     7
100
AcDbLine
 10
281.6511230214
 20
176.9874291822
 30
0.0
 11
281.6559825462
 21
181.4301209851
 31
0.0
  0
LWPOLYLINE
  5
387
330
1F
100
AcDbEntity
  8
0
  6
Continuous
 62
     7
100
AcDbPolyline
 90
        9
 70
   128
 43
0.0
 10
281.7023364498
 20
192.1355473205
 10
281.6934933091
 20
191.153486292
 10
281.6853749702
 20
190.0438564225
 10
281.6780658342
 20
188.818206112
 10
281.6716420368
 20
187.4892758533
 10
281.6661701674
 20
186.0708790227
 10
281.6617071532
 20
184.5777677699
 10
281.6582994439
 20
183.0254691049
 10
281.6559825462
 20
181.4301209851
  0
LINE
  5
388
330
1F
100
AcDbEntity
  8
0
  6
Continuous
 62
     7
100
AcDbLine
 10
281.7023364498
 20
192.1355473205
 30
0.0
 11
281.7265864598
 21
194.5532011195
 31
0.0
  0
LINE
  5
389
330
1F
100
AcDbEntity
  8
0
  6
Continuous
 62
     7
100
AcDbLine
 10
387.5136405133
 20
191.3073705837
 30
0.0
 11
391.2895351552
 21
193.845500271
 31
0.0
  0
SPLINE
  5
38A
330
1F
100
AcDbEntity
  8
0
  6
Continuous
 62
     7
100
AcDbSpline
210
0.0
220
0.0
230
1.0
 70
     8
 71
     3
 72
    15
 73
    11
 74
     0
 42
0.000000001
 43
0.00000001
 40
0.0
 40
0.0
 40
0.0
 40
0.0
 40
0.0827583099437654
 40
0.1672977711795539
 40
0.2508708131135519
 40
0.4946353572441277
 40
0.6225433206456682
 40
0.7466877213883355
 40
0.8742967944170482
 40
0.9999999999999999
 40
0.9999999999999999
 40
0.9999999999999999
 40
0.9999999999999999
 10
380.641500642202
 20
181.2710212870811
 30
0.0
 10
380.718718784263
 20
181.64824151368
 30
0.0
 10
380.8748169823801
 20
182.4108006234145
 30
0.0
 10
381.2716546773281
 20
183.4876834614787
 30
0.0
 10
381.9581859098369
 20
185.1988065026046
 30
0.0
 10
382.9543951974371
 20
186.9003831310495
 30
0.0
 10
384.217481191682
 20
188.4815592051695
 30
0.0
 10
385.2664261812088
 20
189.5562166963794
 30
0.0
 10
386.3584240663517
 20
190.5086919856448
 30
0.0
 10
387.1305046875265
 20
191.0424830943886
 30
0.0
 10
387.5136405133225
 20
191.3073705836509
 30
0.0
  0
LINE
  5
38B
330
1F
100
AcDbEntity
  8
0
  6
Continuous
 62
     7
100
AcDbLine
 10
378.9676085018
 20
170.9532039567
 30
0.0
 11
380.6415006422
 21
181.2710212871
 31
0.0
  0
LINE
  5
38C
330
1F
100
AcDbEntity
  8
0
  6
Continuous
 62
     7
100
AcDbLine
 10
378.9676085018
 20
170.9532039567
 30
0.0
 11
369.955080738
 21
170.9532039567
 31
0.0
  0
ARC
  5
38D
330
1F
100
AcDbEntity
  8
0
  6
Continuous
 62
     7
100
AcDbCircle
 10
369.9355818082
 20
173.9303714086
 30
0.0
 40
2.977231305179283
100
AcDbArc
 50
180.2957521482
 51
270.375252794
  0
LINE
  5
38E
330
1F
100
AcDbEntity
  8
0
  6
Continuous
 62
     7
100
AcDbLine
 10
366.9615790152
 20
176.8283443853
 30
0.0
 11
366.9583901667
 21
173.9150034591
 31
0.0
  0
LINE
  5
38F
330
1F
100
AcDbEntity
  8
0
  6
Continuous
 62
     7
100
AcDbLine
 10
366.9615790152
 20
176.8283443853
 30
0.0
 11
281.6578244694
 21
176.8283443853
 31
0.0
  0
LINE
  5
390
330
1F
100
AcDbEntity
  8
0
  6
Continuous
 62
     7
100
AcDbLine
 10
366.9547021293
 20
176.8283443853
 30
0.0
 11
366.9516846441
 21
174.074088256
 31
0.0
  0
LINE
  5
391
330
1F
100
AcDbEntity
  8
0
  6
Continuous
 62
     7
100
AcDbLine
 10
366.9516846441
 20
174.074088256
 30
0.0
 11
366.9542774462
 21
173.9478307172
 31
0.0
  0
LINE
  5
392
330
1F
100
AcDbEntity
  8
0
  6
Continuous
 62
     7
100
AcDbLine
 10
391.76337718
 20
193.845500271
 30
0.0
 11
391.5600508355
 21
194.145937483
 31
0.0
  0
LINE
  5
393
330
1F
100
AcDbEntity
  8
0
  6
Continuous
 62
     7
100
AcDbLine
 10
391.9655635857
 20
194.5532011195
 30
0.0
 11
392.2678410911
 21
194.3364786311
 31
0.0
  0
LINE
  5
394
330
1F
100
AcDbEntity
  8
0
  6
Continuous
 62
     7
100
AcDbLine
 10
391.76337718
 20
193.845500271
 30
0.0
 11
392.2678410911
 21
194.3364786311
 31
0.0
  0
LWPOLYLINE
  5
395
330
1F
100
AcDbEntity
  8
0
  6
Continuous
 62
     7
100
AcDbPolyline
 90
        3
 70
   128
 43
0.0
 10
392.2678410911
 20
194.3364786311
 10
392.3534557127
 20
194.466252844
 10
392.4031585359
 20
194.5532011195
  0
LINE
  5
396
330
1F
100
AcDbEntity
  8
0
  6
Continuous
 62
     7
100
AcDbLine
 10
388.0128517651
 20
191.3073705837
 30
0.0
 11
391.76337718
 21
193.845500271
 31
0.0
  0
LINE
  5
397
330
1F
100
AcDbEntity
  8
0
  6
Continuous
 62
     7
100
AcDbLine
 10
388.0128517651
 20
191.3073705837
 30
0.0
 11
387.8567621016
 21
191.5380107566
 31
0.0
  0
SPLINE
  5
398
330
1F
100
AcDbEntity
  8
0
  6
Continuous
 62
     7
100
AcDbSpline
210
0.0
220
0.0
230
1.0
 70
     8
 71
     3
 72
    15
 73
    11
 74
     0
 42
0.000000001
 43
0.00000001
 40
0.0
 40
0.0
 40
0.0
 40
0.0
 40
0.0827581341825456
 40
0.1672978008486583
 40
0.250870679884858
 40
0.4946354098482116
 40
0.6225432322094258
 40
0.746687496013897
 40
0.8742970782452028
 40
0.9999999999999999
 40
0.9999999999999999
 40
0.9999999999999999
 40
0.9999999999999999
 10
381.6108211778618
 20
181.2710212870811
 30
0.0
 10
381.6803876113088
 20
181.648242053313
 30
0.0
 10
381.8210180332431
 20
182.4108040086833
 30
0.0
 10
382.1300559896688
 20
183.4876801238654
 30
0.0
 10
382.7507334286734
 20
185.1988115246563
 30
0.0
 10
383.6724809809281
 20
186.9003804085121
 30
0.0
 10
384.859609715507
 20
188.4815590351329
 30
0.0
 10
385.8480550385894
 20
189.5562201550485
 30
0.0
 10
386.8961309118465
 20
190.5086883160073
 30
0.0
 10
387.6424840583643
 20
191.0424824345728
 30
0.0
 10
388.0128517650581
 20
191.3073705836509
 30
0.0
  0
LINE
  5
399
330
1F
100
AcDbEntity
  8
0
  6
Continuous
 62
     7
100
AcDbLine
 10
379.9481719636
 20
170.9532039567
 30
0.0
 11
381.6108211779
 21
181.2710212871
 31
0.0
  0
LINE
  5
39A
330
1F
100
AcDbEntity
  8
0
  6
Continuous
 62
     7
100
AcDbLine
 10
379.9481719636
 20
170.9532039567
 30
0.0
 11
378.9925902986
 21
171.1071925565
 31
0.0
  0
LINE
  5
39B
330
1F
100
AcDbEntity
  8
0
  6
Continuous
 62
     7
100
AcDbLine
 10
282.1424545275
 20
5.857587068
 30
0.0
 11
282.1424545275
 21
17.9061582639
 31
0.0
  0
LINE
  5
39C
330
1F
100
AcDbEntity
  8
0
  6
Continuous
 62
     7
100
AcDbLine
 10
341.1436334156
 20
17.9061582639
 30
0.0
 11
282.1424545275
 21
17.9061582639
 31
0.0
  0
LINE
  5
39D
330
1F
100
AcDbEntity
  8
0
  6
Continuous
 62
     7
100
AcDbLine
 10
341.1436334156
 20
18.8951744094
 30
0.0
 11
341.1436334156
 21
17.9061582639
 31
0.0
  0
ARC
  5
39E
330
1F
100
AcDbEntity
  8
0
  6
Continuous
 62
     7
100
AcDbCircle
 10
343.1327098118
 20
18.8841287003
 30
0.0
 40
1.989107065363844
100
AcDbArc
 50
89.6853370355
 51
179.6818292109
  0
LINE
  5
39F
330
1F
100
AcDbEntity
  8
0
  6
Continuous
 62
     7
100
AcDbLine
 10
353.643330922
 20
20.873205769
 30
0.0
 11
343.1436337434
 21
20.873205769
 31
0.0
  0
LINE
  5
3A0
330
1F
100
AcDbEntity
  8
0
  6
Continuous
 62
     7
100
AcDbLine
 10
353.643330922
 20
20.873205769
 30
0.0
 11
351.6895204686
 21
7.799975956
 31
0.0
  0
LINE
  5
3A1
330
1F
100
AcDbEntity
  8
0
  6
Continuous
 62
     7
100
AcDbLine
 10
349.7255623244
 20
5.857587068
 30
0.0
 11
351.6895204686
 21
7.799975956
 31
0.0
  0
LINE
  5
3A2
330
1F
100
AcDbEntity
  8
0
  6
Continuous
 62
     7
100
AcDbLine
 10
353.643330922
 20
21.0210150435
 30
0.0
 11
353.1215742134
 21
21.0210150435
 31
0.0
  0
LINE
  5
3A3
330
1F
100
AcDbEntity
  8
0
  6
Continuous
 62
     7
100
AcDbLine
 10
353.643330922
 20
21.0210150435
 30
0.0
 11
353.643330922
 21
20.873205769
 31
0.0
  0
ARC
  5
3A4
330
1F
100
AcDbEntity
  8
0
  6
Continuous
 62
     7
100
AcDbCircle
 10
343.1291607759
 20
19.0333907459
 30
0.0
 40
1.985550533976409
100
AcDbArc
 50
100.4531927035
 51
179.7231815617
  0
LINE
  5
3A5
330
1F
100
AcDbEntity
  8
0
  6
Continuous
 62
     7
100
AcDbLine
 10
341.1436334156
 20
19.0429836839
 30
0.0
 11
341.1436334156
 21
18.8951744094
 31
0.0
  0
LINE
  5
3A6
330
1F
100
AcDbEntity
  8
0
  6
Continuous
 62
     7
100
AcDbLine
 10
341.1436334156
 20
18.0539675384
 30
0.0
 11
282.1424545275
 21
18.0539675384
 31
0.0
  0
LINE
  5
3A7
330
1F
100
AcDbEntity
  8
0
  6
Continuous
 62
     7
100
AcDbLine
 10
282.1424545275
 20
18.0539675384
 30
0.0
 11
282.1424545275
 21
17.9061582639
 31
0.0
  0
LINE
  5
3A8
330
1F
100
AcDbEntity
  8
0
  6
Continuous
 62
     7
100
AcDbLine
 10
353.6534413599
 20
21.0210150435
 30
0.0
 11
354.6424537801
 21
20.873205769
 31
0.0
  0
LINE
  5
3A9
330
1F
100
AcDbEntity
  8
0
  6
Continuous
 62
     7
100
AcDbLine
 10
351.7113506698
 20
7.946033762
 30
0.0
 11
352.6886507772
 21
7.799975956
 31
0.0
  0
LINE
  5
3AA
330
1F
100
AcDbEntity
  8
0
  6
Continuous
 62
     7
100
AcDbLine
 10
352.6886507772
 20
7.799975956
 30
0.0
 11
354.6424537801
 21
20.873205769
 31
0.0
  0
LINE
  5
3AB
330
1F
100
AcDbEntity
  8
0
  6
Continuous
 62
     7
100
AcDbLine
 10
353.643330922
 20
20.9533768102
 30
0.0
 11
353.6534413599
 21
21.0210150435
 31
0.0
  0
LINE
  5
3AC
330
1F
100
AcDbEntity
  8
0
  6
Continuous
 62
     7
100
AcDbLine
 10
347.6619228624
 20
4.155384875
 30
0.0
 11
347.6619228624
 21
4.1548402842
 31
0.0
  0
LINE
  5
3AD
330
1F
100
AcDbEntity
  8
0
  6
Continuous
 62
     7
100
AcDbLine
 10
347.6619228624
 20
4.153205813
 30
0.0
 11
282.1424545275
 21
4.153205813
 31
0.0
  0
LINE
  5
3AE
330
1F
100
AcDbEntity
  8
0
  6
Continuous
 62
     7
100
AcDbLine
 10
282.1424545275
 20
5.857587068
 30
0.0
 11
282.1424545275
 21
4.153205813
 31
0.0
  0
SPLINE
  5
3AF
330
1F
100
AcDbEntity
  8
0
  6
Continuous
 62
     7
100
AcDbSpline
210
0.0
220
0.0
230
1.0
 70
     8
 71
     3
 72
    11
 73
     7
 74
     0
 42
0.000000001
 43
0.00000001
 40
0.0
 40
0.0
 40
0.0
 40
0.0
 40
0.2499986632883799
 40
0.499999357388184
 40
0.7499999383324905
 40
1.0
 40
1.0
 40
1.0
 40
1.0
 10
347.6619228624321
 20
4.155384875026799
 30
0.0
 10
347.8338927918192
 20
4.189017257679242
 30
0.0
 10
348.1778340475549
 20
4.256282296189698
 30
0.0
 10
348.6937358398538
 20
4.642668931730292
 30
0.0
 10
349.2096562967262
 20
5.186801644003161
 30
0.0
 10
349.5535937675919
 20
5.633992081478024
 30
0.0
 10
349.7255623244263
 20
5.857587068000145
 30
0.0
  0
LINE
  5
3B0
330
1F
100
AcDbEntity
  8
0
  6
Continuous
 62
     7
100
AcDbLine
 10
352.3983538054
 20
5.857587068
 30
0.0
 11
351.4093413853
 21
6.0053964589
 31
0.0
  0
LINE
  5
3B1
330
1F
100
AcDbEntity
  8
0
  6
Continuous
 62
     7
100
AcDbLine
 10
352.6886507772
 20
7.799975956
 30
0.0
 11
352.3983538054
 21
5.857587068
 31
0.0
  0
LINE
  5
3B2
330
1F
100
AcDbEntity
  8
0
  6
Continuous
 62
     7
100
AcDbLine
 10
351.675461223
 20
7.7860706115
 30
0.0
 11
351.5237003468
 21
6.7705835135
 31
0.0
  0
LINE
  5
3B3
330
1F
100
AcDbEntity
  8
0
  6
Continuous
 62
     7
100
AcDbLine
 10
348.392042508
 20
4.153205813
 30
0.0
 11
347.7319508695
 21
4.153205813
 31
0.0
  0
LINE
  5
3B4
330
1F
100
AcDbEntity
  8
0
  6
Continuous
 62
     7
100
AcDbLine
 10
347.7319508695
 20
4.153205813
 30
0.0
 11
347.6619228624
 21
4.153205813
 31
0.0
  0
SPLINE
  5
3B5
330
1F
100
AcDbEntity
  8
0
  6
Continuous
 62
     7
100
AcDbSpline
210
0.0
220
0.0
230
1.0
 70
     8
 71
     3
 72
    11
 73
     7
 74
     0
 42
0.000000001
 43
0.00000001
 40
0.0
 40
0.0
 40
0.0
 40
0.0
 40
0.332665393483939
 40
0.6653314779493873
 40
0.997996842761151
 40
1.0
 40
1.0
 40
1.0
 40
1.0
 10
352.3983538054443
 20
5.857587068000145
 30
0.0
 10
352.3421481828848
 20
5.632787722714527
 30
0.0
 10
352.2297368210208
 20
5.183188565211064
 30
0.0
 10
351.7796381953299
 20
4.657121743362024
 30
0.0
 10
351.4033006707595
 20
4.352851175637051
 30
0.0
 10
351.1791710215902
 20
4.303265795404632
 30
0.0
 10
351.1778294943787
 20
4.302969002289034
 30
0.0
  0
LINE
  5
3B6
330
1F
100
AcDbEntity
  8
0
  6
Continuous
 62
     7
100
AcDbLine
 10
367.9282396935
 20
171.7322068616
 30
0.0
 11
342.7921190762
 21
20.9697783321
 31
0.0
  0
LINE
  5
3B7
330
1F
100
AcDbEntity
  8
0
  6
Continuous
 62
     7
100
AcDbLine
 10
348.3702421092
 20
3.8671244729
 30
0.0
 11
349.5902299785
 21
3.6686600979
 31
0.0
  0
LINE
  5
3B8
330
1F
100
AcDbEntity
  8
0
  6
Continuous
 62
     7
100
AcDbLine
 10
348.4785362982
 20
4.516665158
 30
0.0
 11
348.3702421092
 21
3.8671244729
 31
0.0
  0
LINE
  5
3B9
330
1F
100
AcDbEntity
  8
0
  6
Continuous
 62
     7
100
AcDbLine
 10
367.9057687425
 20
171.7527853652
 30
0.0
 11
342.7689179682
 21
20.9859880015
 31
0.0
  0
ARC
  5
3BA
330
1F
100
AcDbEntity
  8
0
  6
Continuous
 62
     7
100
AcDbCircle
 10
350.3487381029
 20
6.079377015
 30
0.0
 40
2.527229833101043
100
AcDbArc
 50
252.5343358558
 51
286.586876245
  0
LINE
  5
3BB
330
1F
100
AcDbEntity
  8
0
  6
Continuous
 62
     7
100
AcDbLine
 10
378.9628773831
 20
170.9532039567
 30
0.0
 11
353.9575964116
 21
20.97555812
 31
0.0
  0
LINE
  5
3BC
330
1F
100
AcDbEntity
  8
0
  6
Continuous
 62
     7
100
AcDbLine
 10
351.5006333493
 20
6.239062237
 30
0.0
 11
351.0701835059
 21
3.6573103025
 31
0.0
  0
LINE
  5
3BD
330
1F
100
AcDbEntity
  8
0
  6
Continuous
 62
     7
100
AcDbLine
 10
348.3702421092
 20
3.8671244729
 30
0.0
 11
348.370406022
 21
4.0234451044
 31
0.0
  0
LINE
  5
3BE
330
1F
100
AcDbEntity
  8
0
  6
Continuous
 62
     7
100
AcDbLine
 10
348.44917356
 20
4.4958838589
 30
0.0
 11
348.370406022
 21
4.0234451044
 31
0.0
  0
LWPOLYLINE
  5
3BF
330
1F
100
AcDbEntity
  8
0
  6
Continuous
 62
     7
100
AcDbPolyline
 90
        7
 70
   128
 43
0.0
 10
283.9424545548
 20
-23.2385368691
 10
283.7202132234
 20
-23.2035638437
 10
283.5232156815
 20
-23.1560868815
 10
283.3615440197
 20
-23.0982349858
 10
283.2414111201
 20
-23.0322302923
 10
283.1674336359
 20
-22.960613449
 10
283.1424545022
 20
-22.88613372
  0
LINE
  5
3C0
330
1F
100
AcDbEntity
  8
0
  6
Continuous
 62
     7
100
AcDbLine
 10
283.1424545022
 20
4.153205813
 30
0.0
 11
283.1424545022
 21
-22.88613372
 31
0.0
  0
ARC
  5
3C1
330
1F
100
AcDbEntity
  8
0
  6
Continuous
 62
     7
100
AcDbCircle
 10
284.4424545073
 20
-22.8861339642
 30
0.0
 40
1.300000000000068
100
AcDbArc
 50
180.0
 51
247.380135052
  0
LINE
  5
3C2
330
1F
100
AcDbEntity
  8
0
  6
Continuous
 62
     7
100
AcDbLine
 10
293.9424544476
 20
18.0539675384
 30
0.0
 11
293.9424544476
 21
176.8283443853
 31
0.0
  0
LINE
  5
3C3
330
1F
100
AcDbEntity
  8
0
  6
Continuous
 62
     7
100
AcDbLine
 10
282.1424545275
 20
176.8283443853
 30
0.0
 11
282.1424545275
 21
18.0539675384
 31
0.0
  0
LINE
  5
3C4
330
1F
100
AcDbEntity
  8
0
  6
Continuous
 62
     7
100
AcDbLine
 10
279.6424545251
 20
138.8695435926
 30
0.0
 11
279.6424545251
 21
170.0368719503
 31
0.0
  0
LINE
  5
3C5
330
1F
100
AcDbEntity
  8
0
  6
Continuous
 62
     7
100
AcDbLine
 10
279.6424545251
 20
38.8695383772
 30
0.0
 11
279.6424545251
 21
70.0368779107
 31
0.0
  0
LINE
  5
3C6
330
1F
100
AcDbEntity
  8
0
  6
Continuous
 62
     8
370
    18
100
AcDbLine
 10
359.2441856765
 20
255.4789530441
 30
0.0
 11
280.6424544562
 21
255.4789530441
 31
0.0
  0
LINE
  5
3C7
330
1F
100
AcDbEntity
  8
0
  6
Continuous
 62
     8
370
    18
100
AcDbLine
 10
344.2312471472
 20
259.8379450246
 30
0.0
 11
280.6424544562
 21
259.8379450246
 31
0.0
  0
LINE
  5
3C8
330
1F
100
AcDbEntity
  8
0
  6
Continuous
 62
     8
370
    18
100
AcDbLine
 10
323.9307396018
 20
274.9754088327
 30
0.0
 11
280.6424544562
 21
274.9754088327
 31
0.0
  0
LINE
  5
3C9
330
1F
100
AcDbEntity
  8
0
  6
Continuous
 62
     8
370
    18
100
AcDbLine
 10
317.7547708057
 20
277.1218913003
 30
0.0
 11
280.6424544562
 21
277.1218913003
 31
0.0
  0
LINE
  5
3CA
330
1F
100
AcDbEntity
  8
0
  6
Continuous
 62
     8
370
    18
100
AcDbLine
 10
314.8200988673
 20
279.4215279027
 30
0.0
 11
280.6424544562
 21
279.4215279027
 31
0.0
  0
LINE
  5
3CB
330
1F
100
AcDbEntity
  8
0
  6
Continuous
 62
     8
370
    18
100
AcDbLine
 10
313.6404503041
 20
281.2380390569
 30
0.0
 11
280.6424544562
 21
281.2380390569
 31
0.0
  0
LINE
  5
3CC
330
1F
100
AcDbEntity
  8
0
  6
Continuous
 62
     8
370
    18
100
AcDbLine
 10
310.2955922388
 20
284.0507822438
 30
0.0
 11
280.6424544562
 21
284.0507822438
 31
0.0
  0
LINE
  5
3CD
330
1F
100
AcDbEntity
  8
0
  6
Continuous
 62
     8
370
    18
100
AcDbLine
 10
301.4530979001
 20
290.7288270398
 30
0.0
 11
280.6424544562
 21
290.7288270398
 31
0.0
  0
LINE
  5
3CE
330
1F
100
AcDbEntity
  8
0
  6
Continuous
 62
     8
370
    18
100
AcDbLine
 10
299.2308299892
 20
293.4731142923
 30
0.0
 11
280.6424544562
 21
293.4731142923
 31
0.0
  0
LINE
  5
3CF
330
1F
100
AcDbEntity
  8
0
  6
Continuous
 62
     8
370
    18
100
AcDbLine
 10
313.9497630202
 20
319.3586366578
 30
0.0
 11
280.6424544562
 21
319.3586366578
 31
0.0
  0
LINE
  5
3D0
330
1F
100
AcDbEntity
  8
0
  6
Continuous
 62
     8
370
    18
100
AcDbLine
 10
312.498237183
 20
321.3319974347
 30
0.0
 11
280.6424544562
 21
321.3319974347
 31
0.0
  0
LINE
  5
3D1
330
1F
100
AcDbEntity
  8
0
  6
Continuous
 62
     8
370
    18
100
AcDbLine
 10
307.778970515
 20
323.4654562875
 30
0.0
 11
280.6424544562
 21
323.4654562875
 31
0.0
  0
LINE
  5
3D2
330
1F
100
AcDbEntity
  8
0
  6
Continuous
 62
     8
370
    18
100
AcDbLine
 10
306.6457502448
 20
324.1737382814
 30
0.0
 11
280.6424544562
 21
324.1737382814
 31
0.0
  0
LINE
  5
3D3
330
1F
100
AcDbEntity
  8
0
  6
Continuous
 62
     8
370
    18
100
AcDbLine
 10
309.7057279103
 20
311.1956017419
 30
0.0
 11
280.6424544562
 21
311.1956017419
 31
0.0
  0
LINE
  5
3D4
330
1F
100
AcDbEntity
  8
0
  6
Continuous
 62
     8
370
    18
100
AcDbLine
 10
308.7758861386
 20
310.201664488
 30
0.0
 11
280.6424544562
 21
310.201664488
 31
0.0
  0
LINE
  5
3D5
330
1F
100
AcDbEntity
  8
0
  6
Continuous
 62
     8
370
    18
100
AcDbLine
 10
297.312468467
 20
297.5276010438
 30
0.0
 11
280.6424544562
 21
297.5276010438
 31
0.0
  0
LWPOLYLINE
  5
3D6
330
1F
100
AcDbEntity
  8
0
  6
Continuous
 62
     8
370
    18
100
AcDbPolyline
 90
       15
 70
   128
 43
0.0
 10
327.2344164454
 20
205.645416896
 10
326.9598252975
 20
205.43899111
 10
326.6496427261
 20
204.9599634811
 10
326.724930843
 20
204.4633822843
 10
327.1775275372
 20
204.0030258104
 10
327.958389362
 20
203.6288129493
 10
328.9829000734
 20
203.3812897607
 10
330.1400348448
 20
203.2872634336
 10
331.3044004046
 20
203.3569263622
 10
332.3498211705
 20
203.58275346
 10
333.1630073391
 20
203.9402472182
 10
333.6558408939
 20
204.3906795188
 10
333.7749123477
 20
204.8852341577
 10
333.507317295
 20
205.3703265592
 10
333.1844203078
 20
205.6265818282
  0
LWPOLYLINE
  5
3D7
330
1F
100
AcDbEntity
  8
0
  6
Continuous
 62
     8
370
    18
100
AcDbPolyline
 90
       12
 70
   128
 43
0.0
 10
326.3551250004
 20
204.2805599376
 10
326.4171212815
 20
203.9826261207
 10
326.815220704
 20
203.5011547013
 10
327.5451391839
 20
203.0943082973
 10
328.5354331039
 20
202.8019326135
 10
329.68916296
 20
202.6526378795
 10
330.8933965765
 20
202.6610570356
 10
332.0302471422
 20
202.8263407155
 10
332.9884402358
 20
203.1323211595
 10
333.6741767727
 20
203.5490470334
 10
334.0203344726
 20
204.0357338592
 10
334.0549573206
 20
204.2417424127
  0
LINE
  5
3D8
330
1F
100
AcDbEntity
  8
0
  6
Continuous
 62
     8
370
    18
100
AcDbLine
 10
281.4424544942
 20
-16.5861332462
 30
0.0
 11
281.4424544942
 21
-0.5861338832
 31
0.0
  0
LINE
  5
3D9
330
1F
100
AcDbEntity
  8
0
  6
Continuous
 62
     8
370
    18
100
AcDbLine
 10
270.442454321
 20
163.953204672
 30
0.0
 11
270.442454321
 21
162.9532026454
 31
0.0
  0
LINE
  5
3DA
330
1F
100
AcDbEntity
  8
0
  6
Continuous
 62
     8
370
    18
100
AcDbLine
 10
279.6424545251
 20
162.9532026454
 30
0.0
 11
270.442454321
 21
162.9532026454
 31
0.0
  0
LINE
  5
3DB
330
1F
100
AcDbEntity
  8
0
  6
Continuous
 62
     8
370
    18
100
AcDbLine
 10
269.4424541571
 20
162.9532026454
 30
0.0
 11
270.442454321
 21
162.9532026454
 31
0.0
  0
LINE
  5
3DC
330
1F
100
AcDbEntity
  8
0
  6
Continuous
 62
     8
370
    18
100
AcDbLine
 10
270.442454321
 20
162.9532026454
 30
0.0
 11
270.442454321
 21
145.9532128974
 31
0.0
  0
LINE
  5
3DD
330
1F
100
AcDbEntity
  8
0
  6
Continuous
 62
     8
370
    18
100
AcDbLine
 10
269.4424541571
 20
145.9532128974
 30
0.0
 11
270.442454321
 21
145.9532128974
 31
0.0
  0
LINE
  5
3DE
330
1F
100
AcDbEntity
  8
0
  6
Continuous
 62
     8
370
    18
100
AcDbLine
 10
270.442454321
 20
145.9532128974
 30
0.0
 11
279.6424545251
 21
145.9532128974
 31
0.0
  0
LINE
  5
3DF
330
1F
100
AcDbEntity
  8
0
  6
Continuous
 62
     8
370
    18
100
AcDbLine
 10
270.442454321
 20
145.9532128974
 30
0.0
 11
270.442454321
 21
144.9532108709
 31
0.0
  0
LINE
  5
3E0
330
1F
100
AcDbEntity
  8
0
  6
Continuous
 62
     8
370
    18
100
AcDbLine
 10
270.442454321
 20
45.953207682
 30
0.0
 11
279.6424545251
 21
45.953207682
 31
0.0
  0
LINE
  5
3E1
330
1F
100
AcDbEntity
  8
0
  6
Continuous
 62
     8
370
    18
100
AcDbLine
 10
270.442454321
 20
62.9532048806
 30
0.0
 11
270.442454321
 21
45.953207682
 31
0.0
  0
LINE
  5
3E2
330
1F
100
AcDbEntity
  8
0
  6
Continuous
 62
     8
370
    18
100
AcDbLine
 10
279.6424545251
 20
62.9532048806
 30
0.0
 11
270.442454321
 21
62.9532048806
 31
0.0
  0
LINE
  5
3E3
330
1F
100
AcDbEntity
  8
0
  6
Continuous
 62
     8
370
    18
100
AcDbLine
 10
270.442454321
 20
63.9532069072
 30
0.0
 11
270.442454321
 21
62.9532048806
 31
0.0
  0
LINE
  5
3E4
330
1F
100
AcDbEntity
  8
0
  6
Continuous
 62
     8
370
    18
100
AcDbLine
 10
270.442454321
 20
62.9532048806
 30
0.0
 11
269.4424541571
 21
62.9532048806
 31
0.0
  0
LINE
  5
3E5
330
1F
100
AcDbEntity
  8
0
  6
Continuous
 62
     8
370
    18
100
AcDbLine
 10
270.442454321
 20
45.953207682
 30
0.0
 11
269.4424541571
 21
45.953207682
 31
0.0
  0
LINE
  5
3E6
330
1F
100
AcDbEntity
  8
0
  6
Continuous
 62
     8
370
    18
100
AcDbLine
 10
270.442454321
 20
45.953207682
 30
0.0
 11
270.442454321
 21
44.9532056555
 31
0.0
  0
LINE
  5
3E7
330
1F
100
AcDbEntity
  8
0
  6
Continuous
 62
     8
370
    18
100
AcDbLine
 10
283.9424545548
 20
-26.1492421523
 30
0.0
 11
329.5827798449
 21
-26.1492421523
 31
0.0
  0
LINE
  5
3E8
330
1F
100
AcDbEntity
  8
0
  6
Continuous
 62
     8
370
    18
100
AcDbLine
 10
330.8104343616
 20
-25.491527249
 30
0.0
 11
329.8168621861
 21
-25.3783231274
 31
0.0
  0
LINE
  5
3E9
330
1F
100
AcDbEntity
  8
0
  6
Continuous
 62
     8
370
    18
100
AcDbLine
 10
283.9424545548
 20
-27.1945101813
 30
0.0
 11
329.414083799
 21
-27.1945101813
 31
0.0
  0
LINE
  5
3EA
330
1F
100
AcDbEntity
  8
0
  6
Continuous
 62
     8
370
    18
100
AcDbLine
 10
393.1353494429
 20
198.0665373012
 30
0.0
 11
393.1424572968
 21
198.0665373012
 31
0.0
  0
LINE
  5
3EB
330
1F
100
AcDbEntity
  8
0
  6
Continuous
 62
     8
370
    18
100
AcDbLine
 10
280.6424544562
 20
199.4961994096
 30
0.0
 11
392.6945283913
 21
199.4961994096
 31
0.0
  0
LINE
  5
3EC
330
1F
100
AcDbEntity
  8
0
  6
Continuous
 62
     8
370
    18
100
AcDbLine
 10
393.1353494429
 20
198.0665373012
 30
0.0
 11
280.6424544562
 21
198.0665373012
 31
0.0
  0
LINE
  5
3ED
330
1F
100
AcDbEntity
  8
0
  6
Continuous
 62
     8
370
    18
100
AcDbLine
 10
392.6945283913
 20
199.4961994096
 30
0.0
 11
372.0067471169
 21
209.8912345573
 31
0.0
  0
LINE
  5
3EE
330
1F
100
AcDbEntity
  8
0
  6
Continuous
 62
     8
370
    18
100
AcDbLine
 10
372.0067471169
 20
209.8912345573
 30
0.0
 11
280.6424544562
 21
209.8912345573
 31
0.0
  0
LINE
  5
3EF
330
1F
100
AcDbEntity
  8
0
  6
Continuous
 62
     8
370
    18
100
AcDbLine
 10
280.6424544562
 20
210.402046363
 30
0.0
 11
371.1780190371
 21
210.402046363
 31
0.0
  0
LINE
  5
3F0
330
1F
100
AcDbEntity
  8
0
  6
Continuous
 62
     8
370
    18
100
AcDbLine
 10
359.5843866371
 20
254.3612318441
 30
0.0
 11
371.1780190371
 21
210.402046363
 31
0.0
  0
LINE
  5
3F1
330
1F
100
AcDbEntity
  8
0
  6
Continuous
 62
     8
370
    18
100
AcDbLine
 10
358.2855492734
 20
254.3612318441
 30
0.0
 11
359.5843866371
 21
254.3612318441
 31
0.0
  0
SPLINE
  5
3F2
330
1F
100
AcDbEntity
  8
0
  6
Continuous
 62
     8
370
    18
100
AcDbSpline
210
0.0
220
0.0
230
1.0
 70
     8
 71
     3
 72
    12
 73
     8
 74
     0
 42
0.000000001
 43
0.00000001
 40
0.0
 40
0.0
 40
0.0
 40
0.0
 40
0.2160210179983146
 40
0.4094593072404765
 40
0.6036054519701107
 40
0.7842428281660002
 40
0.9999999999999999
 40
0.9999999999999999
 40
0.9999999999999999
 40
0.9999999999999999
 10
288.2429521434523
 20
243.199323336718
 30
0.0
 10
288.2608901362889
 20
243.4480622647607
 30
0.0
 10
288.2948908931977
 20
243.9195370782016
 30
0.0
 10
288.6119097502495
 20
244.559258182734
 30
0.0
 10
289.1032660790191
 20
245.0220873018631
 30
0.0
 10
289.7518345518996
 20
245.3139245781615
 30
0.0
 10
290.2239564409533
 20
245.3456559068484
 30
0.0
 10
290.4809319317854
 20
245.3629272385811
 30
0.0
  0
LINE
  5
3F3
330
1F
100
AcDbEntity
  8
0
  6
Continuous
 62
     8
370
    18
100
AcDbLine
 10
288.2429521435
 20
221.6177033588
 30
0.0
 11
288.2429521435
 21
243.1993233367
 31
0.0
  0
SPLINE
  5
3F4
330
1F
100
AcDbEntity
  8
0
  6
Continuous
 62
     8
370
    18
100
AcDbSpline
210
0.0
220
0.0
230
1.0
 70
     8
 71
     3
 72
    11
 73
     7
 74
     0
 42
0.000000001
 43
0.00000001
 40
0.0
 40
0.0
 40
0.0
 40
0.0
 40
0.3271530732694217
 40
0.6135377292047142
 40
0.8534206215662568
 40
1.0
 40
1.0
 40
1.0
 40
1.0
 10
290.2078313656665
 20
219.133486072657
 30
0.0
 10
289.8764001214746
 20
219.3025767563637
 30
0.0
 10
289.2548391777952
 20
219.6196867656764
 30
0.0
 10
288.6012252189537
 20
220.3380569465215
 30
0.0
 10
288.2836142180325
 20
221.0305093211646
 30
0.0
 10
288.2541336742509
 20
221.4562327922995
 30
0.0
 10
288.2429521434523
 20
221.6177033587669
 30
0.0
  0
SPLINE
  5
3F5
330
1F
100
AcDbEntity
  8
0
  6
Continuous
 62
     8
370
    18
100
AcDbSpline
210
0.0
220
0.0
230
1.0
 70
     8
 71
     3
 72
    10
 73
     6
 74
     0
 42
0.000000001
 43
0.00000001
 40
0.0
 40
0.0
 40
0.0
 40
0.0
 40
0.3067790647831877
 40
0.6135786007432242
 40
1.0
 40
1.0
 40
1.0
 40
1.0
 10
291.4194093920804
 20
218.8872145816063
 30
0.0
 10
291.2919821631531
 20
218.8918537144189
 30
0.0
 10
291.0371192021586
 20
218.9011322896107
 30
0.0
 10
290.6268168415136
 20
218.976877271504
 30
0.0
 10
290.3577930230371
 20
219.0774332576227
 30
0.0
 10
290.2078313656665
 20
219.133486072657
 30
0.0
  0
LINE
  5
3F6
330
1F
100
AcDbEntity
  8
0
  6
Continuous
 62
     8
370
    18
100
AcDbLine
 10
354.4433221125
 20
218.8872145816
 30
0.0
 11
291.4194093921
 21
218.8872145816
 31
0.0
  0
SPLINE
  5
3F7
330
1F
100
AcDbEntity
  8
0
  6
Continuous
 62
     8
370
    18
100
AcDbSpline
210
0.0
220
0.0
230
1.0
 70
     8
 71
     3
 72
    10
 73
     6
 74
     0
 42
0.000000001
 43
0.00000001
 40
0.0
 40
0.0
 40
0.0
 40
0.0
 40
0.3030747398449853
 40
0.6061452442819171
 40
1.0
 40
1.0
 40
1.0
 40
1.0
 10
355.6334927581764
 20
219.1237854167198
 30
0.0
 10
355.5182601521967
 20
219.0805502914423
 30
0.0
 10
355.2877965505895
 20
218.9940806450893
 30
0.0
 10
354.8881038313137
 20
218.9070209538906
 30
0.0
 10
354.6039222267631
 20
218.8943661922007
 30
0.0
 10
354.4433221124626
 20
218.8872145816063
 30
0.0
  0
SPLINE
  5
3F8
330
1F
100
AcDbEntity
  8
0
  6
Continuous
 62
     8
370
    18
100
AcDbSpline
210
0.0
220
0.0
230
1.0
 70
     8
 71
     3
 72
    12
 73
     8
 74
     0
 42
0.000000001
 43
0.00000001
 40
0.0
 40
0.0
 40
0.0
 40
0.0
 40
0.1930896770864594
 40
0.3859911556856794
 40
0.5885849341791066
 40
0.8917676054919476
 40
1.0
 40
1.0
 40
1.0
 40
1.0
 10
357.5939193271614
 20
222.0503585740303
 30
0.0
 10
357.6200910945832
 20
221.8067815869935
 30
0.0
 10
357.6724091206211
 20
221.3198650198138
 30
0.0
 10
357.4228015069381
 20
220.5994944959007
 30
0.0
 10
356.8966974293676
 20
219.8755906915342
 30
0.0
 10
356.2451858545801
 20
219.3990693281735
 30
0.0
 10
355.7608964569954
 20
219.1811216671218
 30
0.0
 10
355.6334927581764
 20
219.1237854167198
 30
0.0
  0
LINE
  5
3F9
330
1F
100
AcDbEntity
  8
0
  6
Continuous
 62
     8
370
    18
100
AcDbLine
 10
353.0379488968
 20
243.6319636508
 30
0.0
 11
357.5939193272
 21
222.050358574
 31
0.0
  0
SPLINE
  5
3FA
330
1F
100
AcDbEntity
  8
0
  6
Continuous
 62
     8
370
    18
100
AcDbSpline
210
0.0
220
0.0
230
1.0
 70
     8
 71
     3
 72
    12
 73
     8
 74
     0
 42
0.000000001
 43
0.00000001
 40
0.0
 40
0.0
 40
0.0
 40
0.0
 40
0.2588121420124467
 40
0.4827357549213207
 40
0.7069287737662984
 40
0.9285018080829571
 40
1.0
 40
1.0
 40
1.0
 40
1.0
 10
350.8451685213066
 20
245.3629272385811
 30
0.0
 10
351.1122909021642
 20
245.3420754607795
 30
0.0
 10
351.6105268936329
 20
245.3031827773829
 30
0.0
 10
352.2664139659362
 20
244.961617995416
 30
0.0
 10
352.7355683939047
 20
244.4617898858001
 30
0.0
 10
352.9544370531719
 20
243.9843661140974
 30
0.0
 10
353.0215708202814
 20
243.7010756983398
 30
0.0
 10
353.0379488967873
 20
243.6319636508201
 30
0.0
  0
LINE
  5
3FB
330
1F
100
AcDbEntity
  8
0
  6
Continuous
 62
     8
370
    18
100
AcDbLine
 10
290.4809319318
 20
245.3629272386
 30
0.0
 11
350.8451685213
 21
245.3629272386
 31
0.0
  0
LINE
  5
3FC
330
1F
100
AcDbEntity
  8
0
  6
Continuous
 62
     8
370
    18
100
AcDbLine
 10
371.6606676482
 20
210.2006571695
 30
0.0
 11
371.8507096075
 21
210.2518873616
 31
0.0
  0
LINE
  5
3FD
330
1F
100
AcDbEntity
  8
0
  6
Continuous
 62
     8
370
    18
100
AcDbLine
 10
371.8887969755
 20
210.1234542533
 30
0.0
 11
371.9157531761
 21
210.13072602
 31
0.0
  0
SPLINE
  5
3FE
330
1F
100
AcDbEntity
  8
0
  6
Continuous
 62
     8
370
    18
100
AcDbSpline
210
0.0
220
0.0
230
1.0
 70
     8
 71
     3
 72
    13
 73
     9
 74
     0
 42
0.000000001
 43
0.00000001
 40
0.0
 40
0.0
 40
0.0
 40
0.0
 40
0.6438710985562514
 40
0.869845708583212
 40
0.9375738580347692
 40
0.9878807066744457
 40
0.9935494549897357
 40
1.0
 40
1.0
 40
1.0
 40
1.0
 10
354.8098385237671
 20
221.2750064536308
 30
0.0
 10
355.0173586283498
 20
221.3773034071542
 30
0.0
 10
355.2977105075081
 20
221.515502755165
 30
0.0
 10
355.5120582613119
 20
221.7726564708342
 30
0.0
 10
355.5586555442724
 20
221.8833596231044
 30
0.0
 10
355.5620536546527
 20
221.9268619755365
 30
0.0
 10
355.5587155387981
 20
221.9481415451729
 30
0.0
 10
355.5578909979499
 20
221.9522422701122
 30
0.0
 10
355.5574521326042
 20
221.9544248982643
 30
0.0
  0
SPLINE
  5
3FF
330
1F
100
AcDbEntity
  8
0
  6
Continuous
 62
     8
370
    18
100
AcDbSpline
210
0.0
220
0.0
230
1.0
 70
     8
 71
     3
 72
     9
 73
     5
 74
     0
 42
0.000000001
 43
0.00000001
 40
0.0
 40
0.0
 40
0.0
 40
0.0
 40
0.5065583382513535
 40
1.0
 40
1.0
 40
1.0
 40
1.0
 10
354.4433221124626
 20
221.2029742404197
 30
0.0
 10
354.5071595170492
 20
221.2059239633507
 30
0.0
 10
354.6331813387546
 20
221.2117470299322
 30
0.0
 10
354.7514699800435
 20
221.2541051784417
 30
0.0
 10
354.8098385237671
 20
221.2750064536308
 30
0.0
  0
LINE
  5
400
330
1F
100
AcDbEntity
  8
0
  6
Continuous
 62
     8
370
    18
100
AcDbLine
 10
291.4194093921
 20
221.2029742404
 30
0.0
 11
354.4433221125
 21
221.2029742404
 31
0.0
  0
SPLINE
  5
401
330
1F
100
AcDbEntity
  8
0
  6
Continuous
 62
     8
370
    18
100
AcDbSpline
210
0.0
220
0.0
230
1.0
 70
     8
 71
     3
 72
     9
 73
     5
 74
     0
 42
0.000000001
 43
0.00000001
 40
0.0
 40
0.0
 40
0.0
 40
0.0
 40
0.4934220931526641
 40
1.0
 40
1.0
 40
1.0
 40
1.0
 10
291.0484626792885
 20
221.2775396510337
 30
0.0
 10
291.1074479101794
 20
221.255918031179
 30
0.0
 10
291.2269910593602
 20
221.2120983073468
 30
0.0
 10
291.3547098662308
 20
221.2060421539374
 30
0.0
 10
291.4194093920804
 20
221.2029742404197
 30
0.0
  0
SPLINE
  5
402
330
1F
100
AcDbEntity
  8
0
  6
Continuous
 62
     8
370
    18
100
AcDbSpline
210
0.0
220
0.0
230
1.0
 70
     8
 71
     3
 72
    12
 73
     8
 74
     0
 42
0.000000001
 43
0.00000001
 40
0.0
 40
0.0
 40
0.0
 40
0.0
 40
0.0746926808826011
 40
0.2363460060269325
 40
0.3594010162776594
 40
0.8283641273011332
 40
1.0
 40
1.0
 40
1.0
 40
1.0
 10
290.3214131385602
 20
221.923728506205
 30
0.0
 10
290.3253100585704
 20
221.8992743638013
 30
0.0
 10
290.3376408715678
 20
221.8218954450152
 30
0.0
 10
290.4094760766055
 20
221.7210787187528
 30
0.0
 10
290.5784192933171
 20
221.5359963105335
 30
0.0
 10
290.7986205471688
 20
221.3910055812964
 30
0.0
 10
290.9956677616063
 20
221.3015164895162
 30
0.0
 10
291.0484626792885
 20
221.2775396510337
 30
0.0
  0
LINE
  5
403
330
1F
100
AcDbEntity
  8
0
  6
Continuous
 62
     8
370
    18
100
AcDbLine
 10
290.3214131386
 20
243.505333583
 30
0.0
 11
290.3214131386
 21
221.9237285062
 31
0.0
  0
SPLINE
  5
404
330
1F
100
AcDbEntity
  8
0
  6
Continuous
 62
     8
370
    18
100
AcDbSpline
210
0.0
220
0.0
230
1.0
 70
     8
 71
     3
 72
     9
 73
     5
 74
     0
 42
0.000000001
 43
0.00000001
 40
0.0
 40
0.0
 40
0.0
 40
0.0
 40
0.3324544625694046
 40
1.0
 40
1.0
 40
1.0
 40
1.0
 10
290.3341657385744
 20
243.6468201085304
 30
0.0
 10
290.331362570741
 20
243.6312813833243
 30
0.0
 10
290.3229308360253
 20
243.5845419740047
 30
0.0
 10
290.3220206974827
 20
243.5370419872085
 30
0.0
 10
290.3214131385602
 20
243.5053335829948
 30
0.0
  0
LINE
  5
405
330
1F
100
AcDbEntity
  8
0
  6
Continuous
 62
     8
370
    18
100
AcDbLine
 10
290.4809323974
 20
243.6592029735
 30
0.0
 11
290.3341657386
 21
243.6468201085
 31
0.0
  0
LINE
  5
406
330
1F
100
AcDbEntity
  8
0
  6
Continuous
 62
     8
370
    18
100
AcDbLine
 10
350.8451685213
 20
243.6592029735
 30
0.0
 11
290.4809323974
 21
243.6592029735
 31
0.0
  0
SPLINE
  5
407
330
1F
100
AcDbEntity
  8
0
  6
Continuous
 62
     8
370
    18
100
AcDbSpline
210
0.0
220
0.0
230
1.0
 70
     8
 71
     3
 72
     9
 73
     5
 74
     0
 42
0.000000001
 43
0.00000001
 40
0.0
 40
0.0
 40
0.0
 40
0.0
 40
0.1775101731435151
 40
0.9999999999999999
 40
0.9999999999999999
 40
0.9999999999999999
 40
0.9999999999999999
 10
350.9650930665947
 20
243.6468350096916
 30
0.0
 10
350.9581407642372
 20
243.6484674880268
 30
0.0
 10
350.9189751083517
 20
243.657664021985
 30
0.0
 10
350.8784774408435
 20
243.6585084445298
 30
0.0
 10
350.8451685213066
 20
243.6592029734825
 30
0.0
  0
LINE
  5
408
330
1F
100
AcDbEntity
  8
0
  6
Continuous
 62
     8
370
    18
100
AcDbLine
 10
351.0014817022
 20
243.5360448762
 30
0.0
 11
350.9650930666
 21
243.6468350097
 31
0.0
  0
LINE
  5
409
330
1F
100
AcDbEntity
  8
0
  6
Continuous
 62
     8
370
    18
100
AcDbLine
 10
355.5574521326
 20
221.9544248983
 30
0.0
 11
351.0014817022
 21
243.5360448762
 31
0.0
  0
ARC
  5
40A
330
1F
100
AcDbEntity
  8
0
  6
Continuous
 62
     8
370
    18
100
AcDbCircle
 10
356.4016618701
 20
218.4755825461
 30
0.0
 40
3.579809239631794
100
AcDbArc
 50
81.753900093
 51
103.6402788315
  0
SPLINE
  5
40B
330
1F
100
AcDbEntity
  8
0
  6
Continuous
 62
     8
370
    18
100
AcDbSpline
210
0.0
220
0.0
230
1.0
 70
     8
 71
     3
 72
    12
 73
     8
 74
     0
 42
0.000000001
 43
0.00000001
 40
0.0
 40
0.0
 40
0.0
 40
0.0
 40
0.0187209019467858
 40
0.2177847722490901
 40
0.3524717743875148
 40
0.5865090129970806
 40
0.9999999999999999
 40
0.9999999999999999
 40
0.9999999999999999
 40
0.9999999999999999
 10
356.9150969289757
 20
222.0183806821083
 30
0.0
 10
356.9185839292627
 20
222.0009024659861
 30
0.0
 10
356.9591490454896
 20
221.7975741579643
 30
0.0
 10
356.9480184096606
 20
221.4516246439768
 30
0.0
 10
356.758324370585
 20
220.940495760331
 30
0.0
 10
356.2928486952969
 20
220.323445874459
 30
0.0
 10
355.7228939109889
 20
220.0289285303386
 30
0.0
 10
355.3589388631798
 20
219.8408590956901
 30
0.0
  0
ARC
  5
40C
330
1F
100
AcDbEntity
  8
0
  6
Continuous
 62
     8
370
    18
100
AcDbCircle
 10
343.1079246438
 20
215.9724343332
 30
0.0
 40
12.84725883395994
100
AcDbArc
 50
17.5242220788
 51
24.3770470468
  0
SPLINE
  5
40D
330
1F
100
AcDbEntity
  8
0
  6
Continuous
 62
     8
370
    18
100
AcDbSpline
210
0.0
220
0.0
230
1.0
 70
     8
 71
     3
 72
    11
 73
     7
 74
     0
 42
0.000000001
 43
0.00000001
 40
0.0
 40
0.0
 40
0.0
 40
0.0
 40
0.4454059113035069
 40
0.5619005037804243
 40
0.7845179657981919
 40
1.0
 40
1.0
 40
1.0
 40
1.0
 10
290.4880421139814
 20
219.8481755658363
 30
0.0
 10
290.1414532587855
 20
220.0293185676618
 30
0.0
 10
289.7042151184805
 20
220.2578389833075
 30
0.0
 10
289.2549738236783
 20
220.7572873056371
 30
0.0
 10
288.9979998475619
 20
221.1670424922852
 30
0.0
 10
288.9562886864753
 20
221.5375032295302
 30
0.0
 10
288.9357727855958
 20
221.7197167083
 30
0.0
  0
ARC
  5
40E
330
1F
100
AcDbEntity
  8
0
  6
Continuous
 62
     8
370
    18
100
AcDbCircle
 10
290.1802976442
 20
218.074565441
 30
0.0
 40
3.851748938549574
100
AcDbArc
 50
87.9003999937
 51
108.8508931799
  0
ARC
  5
40F
330
1F
100
AcDbEntity
  8
0
  6
Continuous
 62
     8
370
    18
100
AcDbCircle
 10
302.4596260152
 20
215.9789406901
 30
0.0
 40
12.58132741915284
100
AcDbArc
 50
155.0929228734
 51
162.0890852699
  0
LINE
  5
410
330
1F
100
AcDbEntity
  8
0
  6
Continuous
 62
     8
370
    18
100
AcDbLine
 10
354.4433221125
 20
219.6591394349
 30
0.0
 11
291.4194093921
 21
219.6591394349
 31
0.0
  0
LINE
  5
411
330
1F
100
AcDbEntity
  8
0
  6
Continuous
 62
     8
370
    18
100
AcDbLine
 10
291.4194093921
 20
219.6591394349
 30
0.0
 11
291.4194093921
 21
221.2029742404
 31
0.0
  0
LINE
  5
412
330
1F
100
AcDbEntity
  8
0
  6
Continuous
 62
     8
370
    18
100
AcDbLine
 10
354.4433221125
 20
221.2029742404
 30
0.0
 11
354.4433221125
 21
219.6591394349
 31
0.0
  0
SPLINE
  5
413
330
1F
100
AcDbEntity
  8
0
  6
Continuous
 62
     8
370
    18
100
AcDbSpline
210
0.0
220
0.0
230
1.0
 70
     8
 71
     3
 72
     9
 73
     5
 74
     0
 42
0.000000001
 43
0.00000001
 40
0.0
 40
0.0
 40
0.0
 40
0.0
 40
0.5005547280974388
 40
1.0
 40
1.0
 40
1.0
 40
1.0
 10
355.3589388631798
 20
219.8408590956901
 30
0.0
 10
355.210987772182
 20
219.7878146740689
 30
0.0
 10
354.9154135168752
 20
219.6818434013115
 30
0.0
 10
354.6005694787106
 20
219.6667018240857
 30
0.0
 10
354.4433221124626
 20
219.6591394349311
 30
0.0
  0
SPLINE
  5
414
330
1F
100
AcDbEntity
  8
0
  6
Continuous
 62
     8
370
    18
100
AcDbSpline
210
0.0
220
0.0
230
1.0
 70
     8
 71
     3
 72
     9
 73
     5
 74
     0
 42
0.000000001
 43
0.00000001
 40
0.0
 40
0.0
 40
0.0
 40
0.0
 40
0.4994902934029148
 40
0.9999999999999999
 40
0.9999999999999999
 40
0.9999999999999999
 40
0.9999999999999999
 10
291.4194093920804
 20
219.6591394349311
 30
0.0
 10
291.259222943712
 20
219.6670293951725
 30
0.0
 10
290.938523121345
 20
219.6828254183295
 30
0.0
 10
290.6383044653889
 20
219.7930214049198
 30
0.0
 10
290.4880421139814
 20
219.8481755658363
 30
0.0
  0
LINE
  5
415
330
1F
100
AcDbEntity
  8
0
  6
Continuous
 62
     8
370
    18
100
AcDbLine
 10
288.9357727856
 20
221.7197167083
 30
0.0
 11
288.9357727856
 21
243.3013217851
 31
0.0
  0
SPLINE
  5
416
330
1F
100
AcDbEntity
  8
0
  6
Continuous
 62
     8
370
    18
100
AcDbSpline
210
0.0
220
0.0
230
1.0
 70
     8
 71
     3
 72
    11
 73
     7
 74
     0
 42
0.000000001
 43
0.00000001
 40
0.0
 40
0.0
 40
0.0
 40
0.0
 40
0.2499988600496154
 40
0.499999083115557
 40
0.7500003067250971
 40
1.0
 40
1.0
 40
1.0
 40
1.0
 10
288.9357727855958
 20
243.3013217850898
 30
0.0
 10
289.0147755495381
 20
243.3308309890288
 30
0.0
 10
289.1727815081531
 20
243.3898495577935
 30
0.0
 10
289.5133601595339
 20
243.4542386636225
 30
0.0
 10
289.9022596885872
 20
243.4972530608688
 30
0.0
 10
290.1816956069889
 20
243.5026400811154
 30
0.0
 10
290.3214131385602
 20
243.5053335829948
 30
0.0
  0
SPLINE
  5
417
330
1F
100
AcDbEntity
  8
0
  6
Continuous
 62
     8
370
    18
100
AcDbSpline
210
0.0
220
0.0
230
1.0
 70
     8
 71
     3
 72
    11
 73
     7
 74
     0
 42
0.000000001
 43
0.00000001
 40
0.0
 40
0.0
 40
0.0
 40
0.0
 40
0.2499995000993193
 40
0.5000012805353823
 40
0.7499989842080514
 40
1.0
 40
1.0
 40
1.0
 40
1.0
 10
351.0014817022301
 20
243.5360448762153
 30
0.0
 10
351.1383764626518
 20
243.5603693558818
 30
0.0
 10
351.4121672321625
 20
243.6090185370871
 30
0.0
 10
351.7932082453784
 20
243.6412075180259
 30
0.0
 10
352.1269090242221
 20
243.6426984893315
 30
0.0
 10
352.2817203319718
 20
243.6142233985847
 30
0.0
 10
352.3591264986015
 20
243.5999857588981
 30
0.0
  0
LINE
  5
418
330
1F
100
AcDbEntity
  8
0
  6
Continuous
 62
     8
370
    18
100
AcDbLine
 10
352.3591264986
 20
243.5999857589
 30
0.0
 11
356.915096929
 21
222.0183806821
 31
0.0
  0
ARC
  5
419
330
1F
100
AcDbEntity
  8
0
  6
Continuous
 62
     8
370
    18
100
AcDbCircle
 10
361.4872679101
 20
221.7761823396
 30
0.0
 40
6.426654881514273
100
AcDbArc
 50
197.526090703
 51
204.3756976273
  0
ARC
  5
41A
330
1F
100
AcDbEntity
  8
0
  6
Continuous
 62
     8
370
    18
100
AcDbCircle
 10
357.1718321588
 20
223.7894040085
 30
0.0
 40
1.789535303078402
100
AcDbArc
 50
261.7516138068
 51
283.6425651177
  0
ARC
  5
41B
330
1F
100
AcDbEntity
  8
0
  6
Continuous
 62
     8
370
    18
100
AcDbCircle
 10
288.3135194886
 20
223.542089435
 30
0.0
 40
1.925679495858234
100
AcDbArc
 50
267.899901549
 51
288.8525866924
  0
ARC
  5
41C
330
1F
100
AcDbEntity
  8
0
  6
Continuous
 62
     8
370
    18
100
AcDbCircle
 10
284.5032337086
 20
221.7823834805
 30
0.0
 40
6.289601887737589
100
AcDbArc
 50
335.0924697852
 51
342.0898796143
  0
LINE
  5
41D
330
1F
100
AcDbEntity
  8
0
  6
Continuous
 62
     8
370
    18
100
AcDbLine
 10
291.4194093921
 20
219.6591394349
 30
0.0
 11
291.4194093921
 21
218.8872145816
 31
0.0
  0
LINE
  5
41E
330
1F
100
AcDbEntity
  8
0
  6
Continuous
 62
     8
370
    18
100
AcDbLine
 10
354.4433221125
 20
219.6591394349
 30
0.0
 11
354.4433221125
 21
218.8872145816
 31
0.0
  0
ARC
  5
41F
330
1F
100
AcDbEntity
  8
0
  6
Continuous
 62
     8
370
    18
100
AcDbCircle
 10
288.3135439878
 20
245.1238092387
 30
0.0
 40
1.925780152408147
100
AcDbArc
 50
267.8992819777
 51
288.8507939259
  0
ARC
  5
420
330
1F
100
AcDbEntity
  8
0
  6
Continuous
 62
     8
370
    18
100
AcDbCircle
 10
352.6158264305
 20
245.3717583855
 30
0.0
 40
1.790271793676436
100
AcDbArc
 50
261.756172161
 51
283.6380067635
  0
SPLINE
  5
421
330
1F
100
AcDbEntity
  8
0
  6
Continuous
 62
     8
370
    18
100
AcDbSpline
210
0.0
220
0.0
230
1.0
 70
     8
 71
     3
 72
     9
 73
     5
 74
     0
 42
0.000000001
 43
0.00000001
 40
0.0
 40
0.0
 40
0.0
 40
0.0
 40
0.6592648582467698
 40
1.0
 40
1.0
 40
1.0
 40
1.0
 10
288.9357727855958
 20
243.3013217850898
 30
0.0
 10
288.9379279862233
 20
243.3840536058605
 30
0.0
 10
288.9411970830068
 20
243.5095446277705
 30
0.0
 10
288.9622526772596
 20
243.6332831695949
 30
0.0
 10
288.9694270581521
 20
243.6754452391838
 30
0.0
  0
SPLINE
  5
422
330
1F
100
AcDbEntity
  8
0
  6
Continuous
 62
     8
370
    18
100
AcDbSpline
210
0.0
220
0.0
230
1.0
 70
     8
 71
     3
 72
    11
 73
     7
 74
     0
 42
0.000000001
 43
0.00000001
 40
0.0
 40
0.0
 40
0.0
 40
0.0
 40
0.2493200168181742
 40
0.4997102709619768
 40
0.7501075601319017
 40
1.0
 40
1.0
 40
1.0
 40
1.0
 10
288.9694270581521
 20
243.6754452391838
 30
0.0
 10
289.0470029533712
 20
243.6916564784518
 30
0.0
 10
289.2024877480334
 20
243.724148545758
 30
0.0
 10
289.537862179812
 20
243.7314305182155
 30
0.0
 10
289.921248970889
 20
243.7091339783778
 30
0.0
 10
290.1966194427329
 20
243.6675774200465
 30
0.0
 10
290.3341657385744
 20
243.6468201085304
 30
0.0
  0
SPLINE
  5
423
330
1F
100
AcDbEntity
  8
0
  6
Continuous
 62
     8
370
    18
100
AcDbSpline
210
0.0
220
0.0
230
1.0
 70
     8
 71
     3
 72
    11
 73
     7
 74
     0
 42
0.000000001
 43
0.00000001
 40
0.0
 40
0.0
 40
0.0
 40
0.0
 40
0.2498935333500221
 40
0.5002944468234024
 40
0.750680188711719
 40
1.0
 40
1.0
 40
1.0
 40
1.0
 10
350.9650930665947
 20
243.6468350096916
 30
0.0
 10
351.0928827812934
 20
243.6986820054144
 30
0.0
 10
351.3487216730322
 20
243.8024812662313
 30
0.0
 10
351.7049132003722
 20
243.9114334993677
 30
0.0
 10
352.0165105802213
 20
243.9799460853633
 30
0.0
 10
352.160961485372
 20
243.9826033033197
 30
0.0
 10
352.2330328725792
 20
243.9839290782188
 30
0.0
  0
LINE
  5
424
330
1F
100
AcDbEntity
  8
0
  6
Continuous
 62
     8
370
    18
100
AcDbLine
 10
352.2330328726
 20
243.9839290782
 30
0.0
 11
352.3591264986
 21
243.5999857589
 31
0.0
  0
LINE
  5
425
330
1F
100
AcDbEntity
  8
0
  6
Continuous
 62
     8
370
    18
100
AcDbLine
 10
290.0915059165
 20
244.7620528146
 30
0.0
 11
290.4809319318
 21
244.7950141832
 31
0.0
  0
SPLINE
  5
426
330
1F
100
AcDbEntity
  8
0
  6
Continuous
 62
     8
370
    18
100
AcDbSpline
210
0.0
220
0.0
230
1.0
 70
     8
 71
     3
 72
    11
 73
     7
 74
     0
 42
0.000000001
 43
0.00000001
 40
0.0
 40
0.0
 40
0.0
 40
0.0
 40
0.2499962348518389
 40
0.4999980606099474
 40
0.7499979070850759
 40
1.0
 40
1.0
 40
1.0
 40
1.0
 10
290.4809319317854
 20
244.7950141831611
 30
0.0
 10
290.4809319290137
 20
244.7481365361013
 30
0.0
 10
290.4809319234702
 20
244.6543801936118
 30
0.0
 10
290.4809319650468
 20
244.3894416183198
 30
0.0
 10
290.480931807056
 20
244.0564234484621
 30
0.0
 10
290.4809322006492
 20
243.7916101950655
 30
0.0
 10
290.4809323974467
 20
243.6592029734825
 30
0.0
  0
SPLINE
  5
427
330
1F
100
AcDbEntity
  8
0
  6
Continuous
 62
     8
370
    18
100
AcDbSpline
210
0.0
220
0.0
230
1.0
 70
     8
 71
     3
 72
    11
 73
     7
 74
     0
 42
0.000000001
 43
0.00000001
 40
0.0
 40
0.0
 40
0.0
 40
0.0
 40
0.2493173946161384
 40
0.4997101531846023
 40
0.7501095635790466
 40
1.0
 40
1.0
 40
1.0
 40
1.0
 10
290.091505916468
 20
244.7620528146003
 30
0.0
 10
290.1052995003452
 20
244.716497296808
 30
0.0
 10
290.1329461630372
 20
244.6251897696719
 30
0.0
 10
290.1925766084061
 20
244.3654309510083
 30
0.0
 10
290.2607449031018
 20
244.0378978612281
 30
0.0
 10
290.3097087313341
 20
243.7770909147353
 30
0.0
 10
290.3341657385744
 20
243.6468201085304
 30
0.0
  0
SPLINE
  5
428
330
1F
100
AcDbEntity
  8
0
  6
Continuous
 62
     8
370
    18
100
AcDbSpline
210
0.0
220
0.0
230
1.0
 70
    24
 71
     3
 72
    11
 73
     7
 74
     0
 42
0.000000001
 43
0.00000001
 40
0.0
 40
0.0
 40
0.0
 40
0.0
 40
0.2500020929148076
 40
0.500001939389975
 40
0.7500037651481222
 40
0.9999999999999999
 40
0.9999999999999999
 40
0.9999999999999999
 40
0.9999999999999999
 10
350.8451685213066
 20
243.6592029734825
 30
0.0
 10
350.8451685213066
 20
243.7916101950656
 30
0.0
 10
350.8451685213066
 20
244.0564234484625
 30
0.0
 10
350.8451685213066
 20
244.3894416183197
 30
0.0
 10
350.8451685213066
 20
244.6543801936118
 30
0.0
 10
350.8451685213066
 20
244.7481365361013
 30
0.0
 10
350.8451685213066
 20
244.7950141831611
 30
0.0
  0
SPLINE
  5
429
330
1F
100
AcDbEntity
  8
0
  6
Continuous
 62
     8
370
    18
100
AcDbSpline
210
0.0
220
0.0
230
1.0
 70
     8
 71
     3
 72
     9
 73
     5
 74
     0
 42
0.000000001
 43
0.00000001
 40
0.0
 40
0.0
 40
0.0
 40
0.0
 40
0.8597168311987179
 40
1.0
 40
1.0
 40
1.0
 40
1.0
 10
350.8451685213066
 20
244.7950141831611
 30
0.0
 10
350.9649931986407
 20
244.790266266573
 30
0.0
 10
351.1043701108818
 20
244.7847436149092
 30
0.0
 10
351.2402411704248
 20
244.7563763166385
 30
0.0
 10
351.259301593206
 20
244.7523968621467
 30
0.0
  0
SPLINE
  5
42A
330
1F
100
AcDbEntity
  8
0
  6
Continuous
 62
     8
370
    18
100
AcDbSpline
210
0.0
220
0.0
230
1.0
 70
     8
 71
     3
 72
    11
 73
     7
 74
     0
 42
0.000000001
 43
0.00000001
 40
0.0
 40
0.0
 40
0.0
 40
0.0
 40
0.2498897596009513
 40
0.5002874596206847
 40
0.750675440097681
 40
0.9999999999999999
 40
0.9999999999999999
 40
0.9999999999999999
 40
0.9999999999999999
 10
350.9650930665947
 20
243.6468350096916
 30
0.0
 10
350.9947534130832
 20
243.7761304788721
 30
0.0
 10
351.0541343954007
 20
244.0349842307028
 30
0.0
 10
351.1367898525481
 20
244.3597968877337
 30
0.0
 10
351.2090762933364
 20
244.6171984632578
 30
0.0
 10
351.2425835951506
 20
244.707394710331
 30
0.0
 10
351.259301593206
 20
244.7523968621467
 30
0.0
  0
SPLINE
  5
42B
330
1F
100
AcDbEntity
  8
0
  6
Continuous
 62
     8
370
    18
100
AcDbSpline
210
0.0
220
0.0
230
1.0
 70
     8
 71
     3
 72
    11
 73
     7
 74
     0
 42
0.000000001
 43
0.00000001
 40
0.0
 40
0.0
 40
0.0
 40
0.0
 40
0.2503820910619995
 40
0.5000032839135978
 40
0.7496236558896637
 40
1.0
 40
1.0
 40
1.0
 40
1.0
 10
288.9694270581521
 20
243.6754452391838
 30
0.0
 10
289.0196698475451
 20
243.8065261851063
 30
0.0
 10
289.1200027410957
 20
244.0682897287438
 30
0.0
 10
289.3721255919612
 20
244.4116396255926
 30
0.0
 10
289.7149596820583
 20
244.6445303615353
 30
0.0
 10
289.9658640530257
 20
244.7228391971211
 30
0.0
 10
290.091505916468
 20
244.7620528146003
 30
0.0
  0
SPLINE
  5
42C
330
1F
100
AcDbEntity
  8
0
  6
Continuous
 62
     8
370
    18
100
AcDbSpline
210
0.0
220
0.0
230
1.0
 70
     8
 71
     3
 72
    11
 73
     7
 74
     0
 42
0.000000001
 43
0.00000001
 40
0.0
 40
0.0
 40
0.0
 40
0.0
 40
0.2501150193215343
 40
0.5000302669251177
 40
0.749886913886046
 40
0.9999999999999999
 40
0.9999999999999999
 40
0.9999999999999999
 40
0.9999999999999999
 10
351.259301593206
 20
244.7523968621467
 30
0.0
 10
351.3579215818906
 20
244.7195728517142
 30
0.0
 10
351.5550827895618
 20
244.6539510480231
 30
0.0
 10
351.8261262236749
 20
244.4836701208145
 30
0.0
 10
352.0581063065438
 20
244.2569556094487
 30
0.0
 10
352.1747040825373
 20
244.0749690361674
 30
0.0
 10
352.2330328725792
 20
243.9839290782188
 30
0.0
  0
LINE
  5
42D
330
1F
100
AcDbEntity
  8
0
  6
Continuous
 62
     8
370
    18
100
AcDbLine
 10
290.4809319318
 20
244.7950141832
 30
0.0
 11
350.8451685213
 21
244.7950141832
 31
0.0
  0
LINE
  5
42E
330
1F
100
AcDbEntity
  8
0
  6
Continuous
 62
     8
370
    18
100
AcDbLine
 10
290.4809319318
 20
245.3629272386
 30
0.0
 11
290.4809319318
 21
244.7950141832
 31
0.0
  0
LINE
  5
42F
330
1F
100
AcDbEntity
  8
0
  6
Continuous
 62
     8
370
    18
100
AcDbLine
 10
350.8451685213
 20
245.3629272386
 30
0.0
 11
350.8451685213
 21
244.7950141832
 31
0.0
  0
LINE
  5
430
330
1F
100
AcDbEntity
  8
0
  6
Continuous
 62
     8
370
    18
100
AcDbLine
 10
393.8222408198
 20
198.0665373012
 30
0.0
 11
394.6222394608
 21
198.0665373012
 31
0.0
  0
ARC
  5
431
330
1F
100
AcDbEntity
  8
0
  6
Continuous
 62
     8
370
    18
100
AcDbCircle
 10
369.8574238163
 20
222.3173770817
 30
0.0
 40
0.5034353279935394
100
AcDbArc
 50
240.8057708009
 51
290.5296926454
  0
SPLINE
  5
432
330
1F
100
AcDbEntity
  8
0
  6
Continuous
 62
     8
370
    18
100
AcDbSpline
210
0.0
220
0.0
230
1.0
 70
     8
 71
     3
 72
    10
 73
     6
 74
     0
 42
0.000000001
 43
0.00000001
 40
0.0
 40
0.0
 40
0.0
 40
0.0
 40
0.3561679707478925
 40
0.7198003102034073
 40
1.0
 40
1.0
 40
1.0
 40
1.0
 10
370.5262571476914
 20
219.9793504878257
 30
0.0
 10
370.4778618290042
 20
220.1628476714946
 30
0.0
 10
370.3800569496652
 20
220.5336876699619
 30
0.0
 10
370.2004460126297
 20
221.214703639109
 30
0.0
 10
370.0844549606709
 20
221.6545087375596
 30
0.0
 10
370.0339749359108
 20
221.8459146424507
 30
0.0
  0
ARC
  5
433
330
1F
100
AcDbEntity
  8
0
  6
Continuous
 62
     8
370
    18
100
AcDbCircle
 10
370.8401945725
 20
219.4905192605
 30
0.0
 40
0.5809584111153621
100
AcDbArc
 50
122.7094075266
 51
189.9462685946
  0
ARC
  5
434
330
1F
100
AcDbEntity
  8
0
  6
Continuous
 62
     8
370
    18
100
AcDbCircle
 10
364.2043734149
 20
243.7519190897
 30
0.0
 40
0.503472812097333
100
AcDbArc
 50
240.8077474316
 51
290.5277160147
  0
LINE
  5
435
330
1F
100
AcDbEntity
  8
0
  6
Continuous
 62
     8
370
    18
100
AcDbLine
 10
370.0339749359
 20
221.8459146425
 30
0.0
 11
364.3809214138
 21
243.2804154559
 31
0.0
  0
ARC
  5
436
330
1F
100
AcDbEntity
  8
0
  6
Continuous
 62
     8
370
    18
100
AcDbCircle
 10
370.3870849531
 20
220.9030924344
 30
0.0
 40
1.006777234649621
100
AcDbArc
 50
60.8033071742
 51
110.5321562721
  0
ARC
  5
437
330
1F
100
AcDbEntity
  8
0
  6
Continuous
 62
     8
370
    18
100
AcDbCircle
 10
369.8983830992
 20
220.9570172898
 30
0.0
 40
1.161920047352573
100
AcDbArc
 50
302.7092584489
 51
9.9452770549
  0
ARC
  5
438
330
1F
100
AcDbEntity
  8
0
  6
Continuous
 62
     8
370
    18
100
AcDbCircle
 10
364.734049616
 20
242.3376857542
 30
0.0
 40
1.006696984066188
100
AcDbArc
 50
60.8024262547
 51
110.5349721134
  0
SPLINE
  5
439
330
1F
100
AcDbEntity
  8
0
  6
Continuous
 62
     8
370
    18
100
AcDbSpline
210
0.0
220
0.0
230
1.0
 70
     8
 71
     3
 72
    10
 73
     6
 74
     0
 42
0.000000001
 43
0.00000001
 40
0.0
 40
0.0
 40
0.0
 40
0.0
 40
0.4993496890333078
 40
0.9453247118020789
 40
0.9999999999999999
 40
0.9999999999999999
 40
0.9999999999999999
 40
0.9999999999999999
 10
370.6772580646492
 20
219.4068031712745
 30
0.0
 10
370.6696920519472
 20
219.4354931061543
 30
0.0
 10
370.6553687451865
 20
219.489806356002
 30
0.0
 10
370.5786253667133
 20
219.7807987125329
 30
0.0
 10
370.5314131273036
 20
219.9598018202465
 30
0.0
 10
370.5262571476914
 20
219.9793504878257
 30
0.0
  0
SPLINE
  5
43A
330
1F
100
AcDbEntity
  8
0
  6
Continuous
 62
     8
370
    18
100
AcDbSpline
210
0.0
220
0.0
230
1.0
 70
     8
 71
     3
 72
    12
 73
     8
 74
     0
 42
0.000000001
 43
0.00000001
 40
0.0
 40
0.0
 40
0.0
 40
0.0
 40
0.2469589224302748
 40
0.5158949019852145
 40
0.7094647233735661
 40
0.9247133164302216
 40
1.0
 40
1.0
 40
1.0
 40
1.0
 10
364.3809214138008
 20
243.2804154559349
 30
0.0
 10
364.3263297091353
 20
243.4874009129358
 30
0.0
 10
364.2122881436375
 20
243.9197916158147
 30
0.0
 10
364.0857955984333
 20
244.3994477538432
 30
0.0
 10
364.0091513756381
 20
244.6900469257076
 30
0.0
 10
363.9836886462698
 20
244.7865612006529
 30
0.0
 10
363.9819234124119
 20
244.7932745472492
 30
0.0
 10
363.9814659856773
 20
244.7950141831611
 30
0.0
  0
LINE
  5
43B
330
1F
100
AcDbEntity
  8
0
  6
Continuous
 62
     8
370
    18
100
AcDbLine
 10
296.7924542629
 20
-29.1435224608
 30
0.0
 11
289.0924543046
 21
-29.1435224608
 31
0.0
  0
LINE
  5
43C
330
1F
100
AcDbEntity
  8
0
  6
Continuous
 62
     8
370
    18
100
AcDbLine
 10
296.5179366895
 20
-29.732926716
 30
0.0
 11
289.3669728093
 21
-29.732926716
 31
0.0
  0
LINE
  5
43D
330
1F
100
AcDbEntity
  8
0
  6
Continuous
 62
     8
370
    18
100
AcDbLine
 10
281.7315991872
 20
193.845500271
 30
0.0
 11
391.2895351552
 21
193.845500271
 31
0.0
  0
LINE
  5
43E
330
1F
100
AcDbEntity
  8
0
  6
Continuous
 62
     8
370
    18
100
AcDbLine
 10
281.7061407861
 20
191.3073705837
 30
0.0
 11
387.5136405133
 21
191.3073705837
 31
0.0
  0
LINE
  5
43F
330
1F
100
AcDbEntity
  8
0
  6
Continuous
 62
     8
370
    18
100
AcDbLine
 10
281.6626841106
 20
181.2710212871
 30
0.0
 11
380.6415006422
 21
181.2710212871
 31
0.0
  0
LINE
  5
440
330
1F
100
AcDbEntity
  8
0
  6
Continuous
 62
     8
370
    18
100
AcDbLine
 10
366.9583901667
 20
173.9150034591
 30
0.0
 11
366.9516846441
 21
174.074088256
 31
0.0
  0
LINE
  5
441
330
1F
100
AcDbEntity
  8
0
  6
Continuous
 62
     8
370
    18
100
AcDbLine
 10
381.6108211779
 20
181.2710212871
 30
0.0
 11
380.6235521935
 21
181.4301209851
 31
0.0
  0
LINE
  5
442
330
1F
100
AcDbEntity
  8
0
  6
Continuous
 62
     8
370
    18
100
AcDbLine
 10
349.7255623244
 20
5.857587068
 30
0.0
 11
282.1424545275
 21
5.857587068
 31
0.0
  0
LINE
  5
443
330
1F
100
AcDbEntity
  8
0
  6
Continuous
 62
     8
370
    18
100
AcDbLine
 10
343.1436337434
 20
21.0005212902
 30
0.0
 11
343.1436337434
 21
20.873205769
 31
0.0
  0
LINE
  5
444
330
1F
100
AcDbEntity
  8
0
  6
Continuous
 62
     8
370
    18
100
AcDbLine
 10
377.4810314082
 20
170.9532039567
 30
0.0
 11
352.4798780583
 21
21.0002977728
 31
0.0
  0
LINE
  5
445
330
1F
100
AcDbEntity
  8
0
  6
Continuous
 62
     8
370
    18
100
AcDbLine
 10
350.0005260014
 20
6.1295297673
 30
0.0
 11
349.5902299785
 21
3.6686600979
 31
0.0
  0
LINE
  5
446
330
1F
100
AcDbEntity
  8
0
  6
Continuous
 62
     8
370
    18
100
AcDbLine
 10
283.1424545022
 20
18.0539675384
 30
0.0
 11
283.1424545022
 21
176.8283443853
 31
0.0
  0
LINE
  5
447
330
1F
100
AcDbEntity
  8
0
  6
Continuous
 62
     8
370
    18
100
AcDbLine
 10
281.1424545382
 20
137.0947109863
 30
0.0
 11
281.1424545382
 21
171.8117045566
 31
0.0
  0
LINE
  5
448
330
1F
100
AcDbEntity
  8
0
  6
Continuous
 62
     8
370
    18
100
AcDbLine
 10
281.1424545382
 20
37.0947132214
 30
0.0
 11
281.1424545382
 21
71.8116956159
 31
0.0
  0
ENDSEC
  0
SECTION
  2
OBJECTS
  0
DICTIONARY
  5
C
330
0
100
AcDbDictionary
281
     1
  3
ACAD_DETAILVIEWSTYLE
350
450
  3
ACAD_GROUP
350
D
  3
ACAD_LAYOUT
350
1A
  3
ACAD_MATERIAL
350
43
  3
ACAD_MLEADERSTYLE
350
6B
  3
ACAD_MLINESTYLE
350
17
  3
ACAD_PLOTSETTINGS
350
19
  3
ACAD_PLOTSTYLENAME
350
E
  3
ACAD_SCALELIST
350
47
  3
ACAD_SECTIONVIEWSTYLE
350
451
  3
ACAD_TABLESTYLE
350
69
  3
ACAD_VISUALSTYLE
350
2A
  3
ACDB_RECOMPOSE_DATA
350
44D
  3
AcDbVariableDictionary
350
449
  0
SUN
  5
6D
330
29
100
AcDbSun
 90
        1
290
     0
 63
     7
421
 16777215
 40
1.0
291
     1
 91
  2455826
 92
 54000000
292
     0
 70
     2
 71
   256
280
     1
  0
DICTIONARY
  5
450
102
{ACAD_REACTORS
330
C
102
}
330
C
100
AcDbDictionary
281
     1
  0
DICTIONARY
  5
D
102
{ACAD_REACTORS
330
C
102
}
330
C
100
AcDbDictionary
281
     1
  0
DICTIONARY
  5
1A
102
{ACAD_REACTORS
330
C
102
}
330
C
100
AcDbDictionary
281
     1
  3
Layout1
350
1E
  3
Layout2
350
26
  3
Model
350
22
  0
DICTIONARY
  5
43
102
{ACAD_REACTORS
330
C
102
}
330
C
100
AcDbDictionary
281
     1
  3
ByBlock
350
45
  3
ByLayer
350
44
  3
Global
350
46
  0
DICTIONARY
  5
6B
102
{ACAD_REACTORS
330
C
102
}
330
C
100
AcDbDictionary
281
     1
  3
Standard
350
6C
  0
DICTIONARY
  5
17
102
{ACAD_REACTORS
330
C
102
}
330
C
100
AcDbDictionary
281
     1
  3
Standard
350
18
  0
DICTIONARY
  5
19
102
{ACAD_REACTORS
330
C
102
}
330
C
100
AcDbDictionary
281
     1
  0
ACDBDICTIONARYWDFLT
  5
E
102
{ACAD_REACTORS
330
C
102
}
330
C
100
AcDbDictionary
281
     1
  3
Normal
350
F
100
AcDbDictionaryWithDefault
340
F
  0
DICTIONARY
  5
47
102
{ACAD_REACTORS
330
C
102
}
330
C
100
AcDbDictionary
281
     1
  3
A0
350
48
  3
A1
350
49
  3
A2
350
4A
  3
A3
350
4B
  3
A4
350
4C
  3
A5
350
4D
  3
A6
350
4E
  3
A7
350
4F
  3
A8
350
50
  3
A9
350
51
  3
B0
350
52
  3
B1
350
53
  3
B2
350
54
  3
B3
350
55
  3
B4
350
56
  3
B5
350
57
  3
B6
350
58
  3
B7
350
59
  3
B8
350
5A
  3
B9
350
5B
  3
C0
350
5C
  3
C1
350
5D
  3
C2
350
5E
  3
C3
350
5F
  3
C4
350
60
  3
C5
350
61
  3
C6
350
62
  3
C7
350
63
  3
C8
350
64
  3
C9
350
65
  3
D0
350
66
  3
D1
350
67
  3
D2
350
68
  0
DICTIONARY
  5
451
102
{ACAD_REACTORS
330
C
102
}
330
C
100
AcDbDictionary
281
     1
  0
DICTIONARY
  5
69
102
{ACAD_REACTORS
330
C
102
}
330
C
100
AcDbDictionary
281
     1
  3
Standard
350
6A
  0
DICTIONARY
  5
2A
102
{ACAD_REACTORS
330
C
102
}
330
C
100
AcDbDictionary
281
     1
  3
2dWireframe
350
2F
  3
Basic
350
32
  3
Brighten
350
36
  3
ColorChange
350
3A
  3
Conceptual
350
34
  3
Dim
350
35
  3
EdgeColorOff
350
3D
  3
Facepattern
350
39
  3
Flat
350
2B
  3
FlatWithEdges
350
2C
  3
Gouraud
350
2D
  3
GouraudWithEdges
350
2E
  3
Hidden
350
31
  3
JitterOff
350
3B
  3
Linepattern
350
38
  3
OverhangOff
350
3C
  3
Realistic
350
33
  3
Shaded
350
42
  3
Shaded with edges
350
41
  3
Shades of Gray
350
3E
  3
Sketchy
350
3F
  3
Thicken
350
37
  3
Wireframe
350
30
  3
X-Ray
350
40
  0
XRECORD
  5
44D
102
{ACAD_REACTORS
330
C
102
}
330
C
100
AcDbXrecord
280
     1
 90
        1
330
6A
  0
DICTIONARY
  5
449
102
{ACAD_REACTORS
330
C
102
}
330
C
100
AcDbDictionary
281
     1
  3
CANNOSCALE
350
44A
  3
CENTEREXE
350
452
  3
CENTERLTYPEFILE
350
453
  3
CMLEADERSTYLE
350
44F
  3
CTABLESTYLE
350
44E
  0
LAYOUT
  5
1E
102
{ACAD_REACTORS
330
1A
102
}
330
1A
100
AcDbPlotSettings
  1

  2
none_device
  4

  6

 40
0.0
 41
0.0
 42
0.0
 43
0.0
 44
0.0
 45
0.0
 46
0.0
 47
0.0
 48
0.0
 49
0.0
140
0.0
141
0.0
142
1.0
143
1.0
 70
   688
 72
     1
 73
     0
 74
     5
  7

 75
    16
 76
     0
 77
     2
 78
   300
147
1.0
148
0.0
149
0.0
100
AcDbLayout
  1
Layout1
 70
     1
 71
     1
 10
0.0
 20
0.0
 11
420.0
 21
297.0
 12
0.0
 22
0.0
 32
0.0
 14
1.0000000000E+20
 24
1.0000000000E+20
 34
1.0000000000E+20
 15
-1.0000000000E+20
 25
-1.0000000000E+20
 35
-1.0000000000E+20
146
0.0
 13
0.0
 23
0.0
 33
0.0
 16
1.0
 26
0.0
 36
0.0
 17
0.0
 27
1.0
 37
0.0
 76
     0
330
1B
  0
LAYOUT
  5
26
102
{ACAD_REACTORS
330
1A
102
}
330
1A
100
AcDbPlotSettings
  1

  2
none_device
  4

  6

 40
0.0
 41
0.0
 42
0.0
 43
0.0
 44
0.0
 45
0.0
 46
0.0
 47
0.0
 48
0.0
 49
0.0
140
0.0
141
0.0
142
1.0
143
1.0
 70
   688
 72
     1
 73
     0
 74
     5
  7

 75
    16
 76
     0
 77
     2
 78
   300
147
1.0
148
0.0
149
0.0
100
AcDbLayout
  1
Layout2
 70
     1
 71
     2
 10
0.0
 20
0.0
 11
0.0
 21
0.0
 12
0.0
 22
0.0
 32
0.0
 14
0.0
 24
0.0
 34
0.0
 15
0.0
 25
0.0
 35
0.0
146
0.0
 13
0.0
 23
0.0
 33
0.0
 16
1.0
 26
0.0
 36
0.0
 17
0.0
 27
1.0
 37
0.0
 76
     0
330
23
  0
LAYOUT
  5
22
102
{ACAD_REACTORS
330
1A
102
}
330
1A
100
AcDbPlotSettings
  1

  2
none_device
  4
Letter_(8.50_x_11.00_Inches)
  6

 40
6.35
 41
6.35
 42
6.35000508
 43
6.35000508
 44
215.9
 45
279.4
 46
0.0
 47
0.0
 48
0.0
 49
0.0
140
0.0
141
0.0
142
1.0
143
1.0
 70
  1712
 72
     1
 73
     0
 74
     0
  7

 75
     0
 76
     0
 77
     2
 78
   300
147
1.0
148
0.0
149
0.0
100
AcDbLayout
  1
Model
 70
     1
 71
     0
 10
0.0
 20
0.0
 11
420.0
 21
297.0
 12
0.0
 22
0.0
 32
0.0
 14
0.0
 24
0.0
 34
0.0
 15
420.0
 25
297.0
 35
0.0
146
0.0
 13
0.0
 23
0.0
 33
0.0
 16
1.0
 26
0.0
 36
0.0
 17
0.0
 27
1.0
 37
0.0
 76
     0
330
1F
331
29
  0
MATERIAL
  5
45
102
{ACAD_REACTORS
330
43
102
}
330
43
100
AcDbMaterial
  1
ByBlock
 72
     1
 94
      127
  0
MATERIAL
  5
44
102
{ACAD_REACTORS
330
43
102
}
330
43
100
AcDbMaterial
  1
ByLayer
 72
     1
 94
      127
  0
MATERIAL
  5
46
102
{ACAD_REACTORS
330
43
102
}
330
43
100
AcDbMaterial
  1
Global
 72
     1
 94
      127
  0
MLEADERSTYLE
  5
6C
102
{ACAD_REACTORS
330
6B
102
}
330
6B
100
AcDbMLeaderStyle
179
     2
170
     2
171
     1
172
     0
 90
        2
 40
0.0
 41
0.0
173
     1
 91
-1056964608
340
14
 92
       -2
290
     1
 42
2.0
291
     1
 43
8.0
  3
Standard
341
0
 44
4.0
300

342
11
174
     1
178
     6
175
     1
176
     0
 93
-1056964608
 45
4.0
292
     0
297
     0
 46
4.0
343
0
 94
-1056964608
 47
1.0
 49
1.0
140
1.0
293
     1
141
0.0
294
     1
177
     0
142
1.0
295
     0
296
     0
143
3.75
271
     0
272
     9
273
     9
  0
MLINESTYLE
  5
18
102
{ACAD_REACTORS
330
17
102
}
330
17
100
AcDbMlineStyle
  2
Standard
 70
     0
  3

 62
   256
 51
90.0
 52
90.0
 71
     2
 49
0.5
 62
   256
  6
BYLAYER
 49
-0.5
 62
   256
  6
BYLAYER
  0
ACDBPLACEHOLDER
  5
F
102
{ACAD_REACTORS
330
E
102
}
330
E
  0
SCALE
  5
48
102
{ACAD_REACTORS
330
47
102
}
330
47
100
AcDbScale
 70
     0
300
1:1
140
1.0
141
1.0
290
     1
  0
SCALE
  5
49
102
{ACAD_REACTORS
330
47
102
}
330
47
100
AcDbScale
 70
     0
300
1:2
140
1.0
141
2.0
290
     0
  0
SCALE
  5
4A
102
{ACAD_REACTORS
330
47
102
}
330
47
100
AcDbScale
 70
     0
300
1:4
140
1.0
141
4.0
290
     0
  0
SCALE
  5
4B
102
{ACAD_REACTORS
330
47
102
}
330
47
100
AcDbScale
 70
     0
300
1:5
140
1.0
141
5.0
290
     0
  0
SCALE
  5
4C
102
{ACAD_REACTORS
330
47
102
}
330
47
100
AcDbScale
 70
     0
300
1:8
140
1.0
141
8.0
290
     0
  0
SCALE
  5
4D
102
{ACAD_REACTORS
330
47
102
}
330
47
100
AcDbScale
 70
     0
300
1:10
140
1.0
141
10.0
290
     0
  0
SCALE
  5
4E
102
{ACAD_REACTORS
330
47
102
}
330
47
100
AcDbScale
 70
     0
300
1:16
140
1.0
141
16.0
290
     0
  0
SCALE
  5
4F
102
{ACAD_REACTORS
330
47
102
}
330
47
100
AcDbScale
 70
     0
300
1:20
140
1.0
141
20.0
290
     0
  0
SCALE
  5
50
102
{ACAD_REACTORS
330
47
102
}
330
47
100
AcDbScale
 70
     0
300
1:30
140
1.0
141
30.0
290
     0
  0
SCALE
  5
51
102
{ACAD_REACTORS
330
47
102
}
330
47
100
AcDbScale
 70
     0
300
1:40
140
1.0
141
40.0
290
     0
  0
SCALE
  5
52
102
{ACAD_REACTORS
330
47
102
}
330
47
100
AcDbScale
 70
     0
300
1:50
140
1.0
141
50.0
290
     0
  0
SCALE
  5
53
102
{ACAD_REACTORS
330
47
102
}
330
47
100
AcDbScale
 70
     0
300
1:100
140
1.0
141
100.0
290
     0
  0
SCALE
  5
54
102
{ACAD_REACTORS
330
47
102
}
330
47
100
AcDbScale
 70
     0
300
2:1
140
2.0
141
1.0
290
     0
  0
SCALE
  5
55
102
{ACAD_REACTORS
330
47
102
}
330
47
100
AcDbScale
 70
     0
300
4:1
140
4.0
141
1.0
290
     0
  0
SCALE
  5
56
102
{ACAD_REACTORS
330
47
102
}
330
47
100
AcDbScale
 70
     0
300
8:1
140
8.0
141
1.0
290
     0
  0
SCALE
  5
57
102
{ACAD_REACTORS
330
47
102
}
330
47
100
AcDbScale
 70
     0
300
10:1
140
10.0
141
1.0
290
     0
  0
SCALE
  5
58
102
{ACAD_REACTORS
330
47
102
}
330
47
100
AcDbScale
 70
     0
300
100:1
140
100.0
141
1.0
290
     0
  0
SCALE
  5
59
102
{ACAD_REACTORS
330
47
102
}
330
47
100
AcDbScale
 70
     0
300
1/128" = 1'-0"
140
0.0078125
141
12.0
290
     0
  0
SCALE
  5
5A
102
{ACAD_REACTORS
330
47
102
}
330
47
100
AcDbScale
 70
     0
300
1/64" = 1'-0"
140
0.015625
141
12.0
290
     0
  0
SCALE
  5
5B
102
{ACAD_REACTORS
330
47
102
}
330
47
100
AcDbScale
 70
     0
300
1/32" = 1'-0"
140
0.03125
141
12.0
290
     0
  0
SCALE
  5
5C
102
{ACAD_REACTORS
330
47
102
}
330
47
100
AcDbScale
 70
     0
300
1/16" = 1'-0"
140
0.0625
141
12.0
290
     0
  0
SCALE
  5
5D
102
{ACAD_REACTORS
330
47
102
}
330
47
100
AcDbScale
 70
     0
300
3/32" = 1'-0"
140
0.09375
141
12.0
290
     0
  0
SCALE
  5
5E
102
{ACAD_REACTORS
330
47
102
}
330
47
100
AcDbScale
 70
     0
300
1/8" = 1'-0"
140
0.125
141
12.0
290
     0
  0
SCALE
  5
5F
102
{ACAD_REACTORS
330
47
102
}
330
47
100
AcDbScale
 70
     0
300
3/16" = 1'-0"
140
0.1875
141
12.0
290
     0
  0
SCALE
  5
60
102
{ACAD_REACTORS
330
47
102
}
330
47
100
AcDbScale
 70
     0
300
1/4" = 1'-0"
140
0.25
141
12.0
290
     0
  0
SCALE
  5
61
102
{ACAD_REACTORS
330
47
102
}
330
47
100
AcDbScale
 70
     0
300
3/8" = 1'-0"
140
0.375
141
12.0
290
     0
  0
SCALE
  5
62
102
{ACAD_REACTORS
330
47
102
}
330
47
100
AcDbScale
 70
     0
300
1/2" = 1'-0"
140
0.5
141
12.0
290
     0
  0
SCALE
  5
63
102
{ACAD_REACTORS
330
47
102
}
330
47
100
AcDbScale
 70
     0
300
3/4" = 1'-0"
140
0.75
141
12.0
290
     0
  0
SCALE
  5
64
102
{ACAD_REACTORS
330
47
102
}
330
47
100
AcDbScale
 70
     0
300
1" = 1'-0"
140
1.0
141
12.0
290
     0
  0
SCALE
  5
65
102
{ACAD_REACTORS
330
47
102
}
330
47
100
AcDbScale
 70
     0
300
1-1/2" = 1'-0"
140
1.5
141
12.0
290
     0
  0
SCALE
  5
66
102
{ACAD_REACTORS
330
47
102
}
330
47
100
AcDbScale
 70
     0
300
3" = 1'-0"
140
3.0
141
12.0
290
     0
  0
SCALE
  5
67
102
{ACAD_REACTORS
330
47
102
}
330
47
100
AcDbScale
 70
     0
300
6" = 1'-0"
140
6.0
141
12.0
290
     0
  0
SCALE
  5
68
102
{ACAD_REACTORS
330
47
102
}
330
47
100
AcDbScale
 70
     0
300
1'-0" = 1'-0"
140
12.0
141
12.0
290
     0
  0
TABLESTYLE
  5
6A
102
{ACAD_REACTORS
330
69
102
}
102
{ACAD_XDICTIONARY
360
44B
102
}
330
69
100
AcDbTableStyle
  3
Standard
 70
     0
 71
     0
 40
0.06
 41
0.06
280
     0
281
     0
  7
Standard
140
4.5
170
     2
 62
     0
 63
   257
283
     0
 90
        4
 91
        0
  1

274
    -2
284
     1
 64
     0
275
    -2
285
     1
 65
     0
276
    -2
286
     1
 66
     0
277
    -2
287
     1
 67
     0
278
    -2
288
     1
 68
     0
279
    -2
289
     1
 69
     0
  7
Standard
140
6.0
170
     5
 62
     0
 63
   257
283
     0
 90
        4
 91
        0
  1

274
    -2
284
     1
 64
     0
275
    -2
285
     1
 65
     0
276
    -2
286
     1
 66
     0
277
    -2
287
     1
 67
     0
278
    -2
288
     1
 68
     0
279
    -2
289
     1
 69
     0
  7
Standard
140
4.5
170
     5
 62
     0
 63
   257
283
     0
 90
        4
 91
        0
  1

274
    -2
284
     1
 64
     0
275
    -2
285
     1
 65
     0
276
    -2
286
     1
 66
     0
277
    -2
287
     1
 67
     0
278
    -2
288
     1
 68
     0
279
    -2
289
     1
 69
     0
  0
VISUALSTYLE
  5
2F
102
{ACAD_REACTORS
330
2A
102
}
330
2A
100
AcDbVisualStyle
  2
2dWireframe
 70
     4
177
     2
291
     0
 71
     0
176
     1
 72
     2
176
     1
 73
     0
176
     1
 90
        0
176
     1
 40
0.6
176
     1
 41
30.0
176
     1
 62
     5
 63
     7
421
 16777215
176
     1
 74
     1
176
     1
 91
        4
176
     1
 64
     7
176
     1
 65
   257
176
     1
 75
     1
176
     1
175
     1
176
     1
 42
1.0
176
     1
 92
        0
176
     1
 66
   257
176
     1
 43
1.0
176
     1
 76
     1
176
     1
 77
     6
176
     1
 78
     2
176
     1
 67
     7
176
     1
 79
     5
176
     1
170
     0
176
     1
171
     0
176
     1
290
     0
176
     1
 93
        1
176
     1
 44
0.0
176
     1
173
     0
176
     1
  0
VISUALSTYLE
  5
32
102
{ACAD_REACTORS
330
2A
102
}
330
2A
100
AcDbVisualStyle
  2
Basic
 70
     7
177
     2
291
     1
 71
     1
176
     1
 72
     0
176
     1
 73
     1
176
     1
 90
        0
176
     1
 40
0.6
176
     1
 41
30.0
176
     1
 62
     5
 63
     7
421
 16777215
176
     1
 74
     0
176
     1
 91
        4
176
     1
 64
     7
176
     1
 65
   257
176
     1
 75
     1
176
     1
175
     1
176
     1
 42
1.0
176
     1
 92
        8
176
     1
 66
     7
176
     1
 43
1.0
176
     1
 76
     1
176
     1
 77
     6
176
     1
 78
     2
176
     1
 67
     7
176
     1
 79
     5
176
     1
170
     0
176
     1
171
     0
176
     1
290
     0
176
     1
 93
        1
176
     1
 44
0.0
176
     1
173
     0
176
     1
  0
VISUALSTYLE
  5
36
102
{ACAD_REACTORS
330
2A
102
}
330
2A
100
AcDbVisualStyle
  2
Brighten
 70
    12
177
     2
291
     1
 71
     2
176
     1
 72
     2
176
     1
 73
     0
176
     1
 90
        0
176
     1
 40
0.6
176
     1
 41
30.0
176
     1
 62
     5
 63
     7
421
 16777215
176
     1
 74
     1
176
     1
 91
        4
176
     1
 64
     7
176
     1
 65
   257
176
     1
 75
     1
176
     1
175
     1
176
     1
 42
1.0
176
     1
 92
        8
176
     1
 66
     7
176
     1
 43
1.0
176
     1
 76
     1
176
     1
 77
     6
176
     1
 78
     2
176
     1
 67
     7
176
     1
 79
     5
176
     1
170
     0
176
     1
171
     0
176
     1
290
     0
176
     1
 93
        1
176
     1
 44
50.0
176
     1
173
     0
176
     1
  0
VISUALSTYLE
  5
3A
102
{ACAD_REACTORS
330
2A
102
}
330
2A
100
AcDbVisualStyle
  2
ColorChange
 70
    16
177
     2
291
     1
 71
     2
176
     1
 72
     2
176
     1
 73
     3
176
     1
 90
        0
176
     1
 40
0.6
176
     1
 41
30.0
176
     1
 62
     5
 63
     8
421
  8421504
176
     1
 74
     1
176
     1
 91
        4
176
     1
 64
     7
176
     1
 65
   257
176
     1
 75
     1
176
     1
175
     1
176
     1
 42
1.0
176
     1
 92
        8
176
     1
 66
     8
424
  8421504
176
     1
 43
1.0
176
     1
 76
     1
176
     1
 77
     6
176
     1
 78
     2
176
     1
 67
     7
176
     1
 79
     5
176
     1
170
     0
176
     1
171
     0
176
     1
290
     0
176
     1
 93
        1
176
     1
 44
0.0
176
     1
173
     0
176
     1
  0
VISUALSTYLE
  5
34
102
{ACAD_REACTORS
330
2A
102
}
330
2A
100
AcDbVisualStyle
  2
Conceptual
 70
     9
177
     2
291
     0
 71
     3
176
     1
 72
     2
176
     1
 73
     0
176
     1
 90
        0
176
     1
 40
0.6
176
     1
 41
30.0
176
     1
 62
     5
 63
     7
421
 16777215
176
     1
 74
     2
176
     1
 91
        2
176
     1
 64
     7
176
     1
 65
   257
176
     1
 75
     1
176
     1
175
     1
176
     1
 42
179.0
176
     1
 92
        8
176
     1
 66
     7
176
     1
 43
1.0
176
     1
 76
     1
176
     1
 77
     6
176
     1
 78
     2
176
     1
 67
     7
176
     1
 79
     3
176
     1
170
     0
176
     1
171
     0
176
     1
290
     0
176
     1
 93
        1
176
     1
 44
0.0
176
     1
173
     0
176
     1
  0
VISUALSTYLE
  5
35
102
{ACAD_REACTORS
330
2A
102
}
330
2A
100
AcDbVisualStyle
  2
Dim
 70
    11
177
     2
291
     1
 71
     2
176
     1
 72
     2
176
     1
 73
     0
176
     1
 90
        0
176
     1
 40
0.6
176
     1
 41
30.0
176
     1
 62
     5
 63
     7
421
 16777215
176
     1
 74
     1
176
     1
 91
        4
176
     1
 64
     7
176
     1
 65
   257
176
     1
 75
     1
176
     1
175
     1
176
     1
 42
1.0
176
     1
 92
        8
176
     1
 66
     7
176
     1
 43
1.0
176
     1
 76
     1
176
     1
 77
     6
176
     1
 78
     2
176
     1
 67
     7
176
     1
 79
     5
176
     1
170
     0
176
     1
171
     0
176
     1
290
     0
176
     1
 93
        1
176
     1
 44
-50.0
176
     1
173
     0
176
     1
  0
VISUALSTYLE
  5
3D
102
{ACAD_REACTORS
330
2A
102
}
330
2A
100
AcDbVisualStyle
  2
EdgeColorOff
 70
    22
177
     2
291
     1
 71
     2
176
     0
 72
     2
176
     0
 73
     0
176
     0
 90
        0
176
     0
 40
0.6
176
     0
 41
30.0
176
     0
 62
     5
 63
     7
421
 16777215
176
     0
 74
     1
176
     0
 91
        4
176
     0
 64
     7
176
     0
 65
   257
176
     0
 75
     1
176
     0
175
     1
176
     0
 42
1.0
176
     0
 92
        8
176
     2
 66
     7
176
     0
 43
1.0
176
     0
 76
     1
176
     0
 77
     6
176
     0
 78
     2
176
     0
 67
     7
176
     0
 79
     5
176
     0
170
     0
176
     0
171
     0
176
     0
290
     0
176
     0
 93
        1
176
     0
 44
0.0
176
     0
173
     0
176
     0
  0
VISUALSTYLE
  5
39
102
{ACAD_REACTORS
330
2A
102
}
330
2A
100
AcDbVisualStyle
  2
Facepattern
 70
    15
177
     2
291
     1
 71
     2
176
     1
 72
     2
176
     1
 73
     0
176
     1
 90
        0
176
     1
 40
0.6
176
     1
 41
30.0
176
     1
 62
     5
 63
     7
421
 16777215
176
     1
 74
     1
176
     1
 91
        4
176
     1
 64
     7
176
     1
 65
   257
176
     1
 75
     1
176
     1
175
     1
176
     1
 42
1.0
176
     1
 92
        8
176
     1
 66
     7
176
     1
 43
1.0
176
     1
 76
     1
176
     1
 77
     6
176
     1
 78
     2
176
     1
 67
     7
176
     1
 79
     5
176
     1
170
     0
176
     1
171
     0
176
     1
290
     0
176
     1
 93
        1
176
     1
 44
0.0
176
     1
173
     0
176
     1
  0
VISUALSTYLE
  5
2B
102
{ACAD_REACTORS
330
2A
102
}
330
2A
100
AcDbVisualStyle
  2
Flat
 70
     0
177
     2
291
     1
 71
     2
176
     1
 72
     1
176
     1
 73
     1
176
     1
 90
        2
176
     1
 40
0.6
176
     1
 41
30.0
176
     1
 62
     5
 63
     7
421
 16777215
176
     1
 74
     0
176
     1
 91
        0
176
     1
 64
     7
176
     1
 65
   257
176
     1
 75
     1
176
     1
175
     1
176
     1
 42
1.0
176
     1
 92
        8
176
     1
 66
     7
176
     1
 43
1.0
176
     1
 76
     1
176
     1
 77
     6
176
     1
 78
     2
176
     1
 67
     7
176
     1
 79
     5
176
     1
170
     0
176
     1
171
     0
176
     1
290
     0
176
     1
 93
       13
176
     1
 44
0.0
176
     1
173
     0
176
     1
  0
VISUALSTYLE
  5
2C
102
{ACAD_REACTORS
330
2A
102
}
330
2A
100
AcDbVisualStyle
  2
FlatWithEdges
 70
     1
177
     2
291
     1
 71
     2
176
     1
 72
     1
176
     1
 73
     1
176
     1
 90
        2
176
     1
 40
0.6
176
     1
 41
30.0
176
     1
 62
     5
 63
     7
421
 16777215
176
     1
 74
     1
176
     1
 91
        0
176
     1
 64
     7
176
     1
 65
   257
176
     1
 75
     1
176
     1
175
     1
176
     1
 42
1.0
176
     1
 92
        0
176
     1
 66
   257
176
     1
 43
1.0
176
     1
 76
     1
176
     1
 77
     6
176
     1
 78
     2
176
     1
 67
     7
176
     1
 79
     5
176
     1
170
     0
176
     1
171
     0
176
     1
290
     0
176
     1
 93
       13
176
     1
 44
0.0
176
     1
173
     0
176
     1
  0
VISUALSTYLE
  5
2D
102
{ACAD_REACTORS
330
2A
102
}
330
2A
100
AcDbVisualStyle
  2
Gouraud
 70
     2
177
     2
291
     1
 71
     2
176
     1
 72
     2
176
     1
 73
     1
176
     1
 90
        2
176
     1
 40
0.6
176
     1
 41
30.0
176
     1
 62
     5
 63
     7
421
 16777215
176
     1
 74
     0
176
     1
 91
        0
176
     1
 64
     7
176
     1
 65
   257
176
     1
 75
     1
176
     1
175
     1
176
     1
 42
1.0
176
     1
 92
        0
176
     1
 66
     7
176
     1
 43
1.0
176
     1
 76
     1
176
     1
 77
     6
176
     1
 78
     2
176
     1
 67
     7
176
     1
 79
     5
176
     1
170
     0
176
     1
171
     0
176
     1
290
     0
176
     1
 93
       13
176
     1
 44
0.0
176
     1
173
     0
176
     1
  0
VISUALSTYLE
  5
2E
102
{ACAD_REACTORS
330
2A
102
}
330
2A
100
AcDbVisualStyle
  2
GouraudWithEdges
 70
     3
177
     2
291
     1
 71
     2
176
     1
 72
     2
176
     1
 73
     1
176
     1
 90
        2
176
     1
 40
0.6
176
     1
 41
30.0
176
     1
 62
     5
 63
     7
421
 16777215
176
     1
 74
     1
176
     1
 91
        0
176
     1
 64
     7
176
     1
 65
   257
176
     1
 75
     1
176
     1
175
     1
176
     1
 42
1.0
176
     1
 92
        0
176
     1
 66
   257
176
     1
 43
1.0
176
     1
 76
     1
176
     1
 77
     6
176
     1
 78
     2
176
     1
 67
     7
176
     1
 79
     5
176
     1
170
     0
176
     1
171
     0
176
     1
290
     0
176
     1
 93
       13
176
     1
 44
0.0
176
     1
173
     0
176
     1
  0
VISUALSTYLE
  5
31
102
{ACAD_REACTORS
330
2A
102
}
330
2A
100
AcDbVisualStyle
  2
Hidden
 70
     6
177
     2
291
     0
 71
     1
176
     1
 72
     2
176
     1
 73
     2
176
     1
 90
        0
176
     1
 40
0.6
176
     1
 41
30.0
176
     1
 62
     5
 63
     7
421
 16777215
176
     1
 74
     2
176
     1
 91
        2
176
     1
 64
     7
176
     1
 65
   257
176
     1
 75
     2
176
     1
175
     1
176
     1
 42
40.0
176
     1
 92
        0
176
     1
 66
   257
176
     1
 43
1.0
176
     1
 76
     1
176
     1
 77
     6
176
     1
 78
     2
176
     1
 67
     7
176
     1
 79
     3
176
     1
170
     0
176
     1
171
     0
176
     1
290
     0
176
     1
 93
        1
176
     1
 44
0.0
176
     1
173
     0
176
     1
  0
VISUALSTYLE
  5
3B
102
{ACAD_REACTORS
330
2A
102
}
330
2A
100
AcDbVisualStyle
  2
JitterOff
 70
    20
177
     2
291
     1
 71
     2
176
     0
 72
     2
176
     0
 73
     0
176
     0
 90
        0
176
     0
 40
0.6
176
     0
 41
30.0
176
     0
 62
     5
 63
     7
421
 16777215
176
     0
 74
     1
176
     0
 91
        4
176
     0
 64
     7
176
     0
 65
   257
176
     0
 75
     1
176
     0
175
     1
176
     0
 42
1.0
176
     0
 92
       10
176
     2
 66
     7
176
     0
 43
1.0
176
     0
 76
     1
176
     0
 77
     6
176
     0
 78
     2
176
     0
 67
     7
176
     0
 79
     5
176
     0
170
     0
176
     0
171
     0
176
     0
290
     0
176
     0
 93
        1
176
     0
 44
0.0
176
     0
173
     0
176
     0
  0
VISUALSTYLE
  5
38
102
{ACAD_REACTORS
330
2A
102
}
330
2A
100
AcDbVisualStyle
  2
Linepattern
 70
    14
177
     2
291
     1
 71
     2
176
     1
 72
     2
176
     1
 73
     0
176
     1
 90
        0
176
     1
 40
0.6
176
     1
 41
30.0
176
     1
 62
     5
 63
     7
421
 16777215
176
     1
 74
     1
176
     1
 91
        4
176
     1
 64
     7
176
     1
 65
   257
176
     1
 75
     7
176
     1
175
     7
176
     1
 42
1.0
176
     1
 92
        8
176
     1
 66
     7
176
     1
 43
1.0
176
     1
 76
     1
176
     1
 77
     6
176
     1
 78
     2
176
     1
 67
     7
176
     1
 79
     5
176
     1
170
     0
176
     1
171
     0
176
     1
290
     0
176
     1
 93
        1
176
     1
 44
0.0
176
     1
173
     0
176
     1
  0
VISUALSTYLE
  5
3C
102
{ACAD_REACTORS
330
2A
102
}
330
2A
100
AcDbVisualStyle
  2
OverhangOff
 70
    21
177
     2
291
     1
 71
     2
176
     0
 72
     2
176
     0
 73
     0
176
     0
 90
        0
176
     0
 40
0.6
176
     0
 41
30.0
176
     0
 62
     5
 63
     7
421
 16777215
176
     0
 74
     1
176
     0
 91
        4
176
     0
 64
     7
176
     0
 65
   257
176
     0
 75
     1
176
     0
175
     1
176
     0
 42
1.0
176
     0
 92
        9
176
     2
 66
     7
176
     0
 43
1.0
176
     0
 76
     1
176
     0
 77
     6
176
     0
 78
     2
176
     0
 67
     7
176
     0
 79
     5
176
     0
170
     0
176
     0
171
     0
176
     0
290
     0
176
     0
 93
        1
176
     0
 44
0.0
176
     0
173
     0
176
     0
  0
VISUALSTYLE
  5
33
102
{ACAD_REACTORS
330
2A
102
}
330
2A
100
AcDbVisualStyle
  2
Realistic
 70
     8
177
     2
291
     0
 71
     2
176
     1
 72
     3
176
     1
 73
     0
176
     1
 90
        2
176
     1
 40
0.6
176
     1
 41
30.0
176
     1
 62
     5
 63
     7
421
 16777215
176
     1
 74
     0
176
     1
 91
        0
176
     1
 64
     7
176
     1
 65
   257
176
     1
 75
     1
176
     1
175
     1
176
     1
 42
1.0
176
     1
 92
        8
176
     1
 66
   257
176
     1
 43
1.0
176
     1
 76
     1
176
     1
 77
     6
176
     1
 78
     2
176
     1
 67
     7
176
     1
 79
     3
176
     1
170
     0
176
     1
171
     0
176
     1
290
     0
176
     1
 93
       13
176
     1
 44
0.0
176
     1
173
     0
176
     1
  0
VISUALSTYLE
  5
42
102
{ACAD_REACTORS
330
2A
102
}
330
2A
100
AcDbVisualStyle
  2
Shaded
 70
    27
177
     2
291
     0
 71
     2
176
     1
 72
     2
176
     1
 73
     1
176
     1
 90
        2
176
     1
 40
0.6
176
     1
 41
30.0
176
     1
 62
     5
 63
     7
421
 16777215
176
     1
 74
     0
176
     1
 91
        4
176
     1
 64
     7
176
     1
 65
   257
176
     1
 75
     1
176
     1
175
     1
176
     1
 42
1.0
176
     1
 92
        8
176
     1
 66
   257
176
     1
 43
1.0
176
     1
 76
     1
176
     1
 77
     6
176
     1
 78
     2
176
     1
 67
     8
425
  7895160
176
     1
 79
     3
176
     1
170
     0
176
     1
171
     0
176
     1
290
     0
176
     1
 93
        5
176
     1
 44
0.0
176
     1
173
     0
176
     1
  0
VISUALSTYLE
  5
41
102
{ACAD_REACTORS
330
2A
102
}
330
2A
100
AcDbVisualStyle
  2
Shaded with edges
 70
    26
177
     2
291
     0
 71
     2
176
     1
 72
     2
176
     1
 73
     1
176
     1
 90
        2
176
     1
 40
0.6
176
     1
 41
30.0
176
     1
 62
     5
 63
     7
421
 16777215
176
     1
 74
     1
176
     1
 91
       10
176
     1
 64
     7
176
     1
 65
   257
176
     1
 75
     2
176
     1
175
     1
176
     1
 42
1.0
176
     1
 92
        8
176
     1
 66
   257
176
     1
 43
1.0
176
     1
 76
     1
176
     1
 77
     6
176
     1
 78
     2
176
     1
 67
     7
176
     1
 79
     3
176
     1
170
     0
176
     1
171
     0
176
     1
290
     0
176
     1
 93
        5
176
     1
 44
0.0
176
     1
173
     0
176
     1
  0
VISUALSTYLE
  5
3E
102
{ACAD_REACTORS
330
2A
102
}
330
2A
100
AcDbVisualStyle
  2
Shades of Gray
 70
    23
177
     2
291
     0
 71
     2
176
     1
 72
     2
176
     1
 73
     3
176
     1
 90
        0
176
     1
 40
0.6
176
     1
 41
30.0
176
     1
 62
     5
 63
     7
421
 16777215
176
     1
 74
     2
176
     1
 91
        2
176
     1
 64
     7
176
     1
 65
     7
176
     1
 75
     1
176
     1
175
     1
176
     1
 42
40.0
176
     1
 92
        8
176
     1
 66
     7
176
     1
 43
1.0
176
     1
 76
     1
176
     1
 77
     6
176
     1
 78
     2
176
     1
 67
     7
176
     1
 79
     3
176
     1
170
     0
176
     1
171
     0
176
     1
290
     0
176
     1
 93
        1
176
     1
 44
0.0
176
     1
173
     0
176
     1
  0
VISUALSTYLE
  5
3F
102
{ACAD_REACTORS
330
2A
102
}
330
2A
100
AcDbVisualStyle
  2
Sketchy
 70
    24
177
     2
291
     0
 71
     1
176
     1
 72
     2
176
     1
 73
     2
176
     1
 90
        0
176
     1
 40
0.6
176
     1
 41
30.0
176
     1
 62
     5
 63
     7
421
 16777215
176
     1
 74
     2
176
     1
 91
        2
176
     1
 64
     7
176
     1
 65
     7
176
     1
 75
     1
176
     1
175
     1
176
     1
 42
40.0
176
     1
 92
       11
176
     1
 66
     7
176
     1
 43
1.0
176
     1
 76
     1
176
     1
 77
     6
176
     1
 78
     2
176
     1
 67
     7
176
     1
 79
     6
176
     1
170
     0
176
     1
171
     0
176
     1
290
     0
176
     1
 93
        1
176
     1
 44
0.0
176
     1
173
     0
176
     1
  0
VISUALSTYLE
  5
37
102
{ACAD_REACTORS
330
2A
102
}
330
2A
100
AcDbVisualStyle
  2
Thicken
 70
    13
177
     2
291
     1
 71
     2
176
     1
 72
     2
176
     1
 73
     0
176
     1
 90
        0
176
     1
 40
0.6
176
     1
 41
30.0
176
     1
 62
     5
 63
     7
421
 16777215
176
     1
 74
     1
176
     1
 91
        4
176
     1
 64
     7
176
     1
 65
   257
176
     1
 75
     1
176
     1
175
     1
176
     1
 42
1.0
176
     1
 92
       12
176
     1
 66
     7
176
     1
 43
1.0
176
     1
 76
     1
176
     1
 77
     6
176
     1
 78
     2
176
     1
 67
     7
176
     1
 79
     5
176
     1
170
     0
176
     1
171
     0
176
     1
290
     0
176
     1
 93
        1
176
     1
 44
0.0
176
     1
173
     0
176
     1
  0
VISUALSTYLE
  5
30
102
{ACAD_REACTORS
330
2A
102
}
330
2A
100
AcDbVisualStyle
  2
Wireframe
 70
     5
177
     2
291
     0
 71
     0
176
     1
 72
     2
176
     1
 73
     0
176
     1
 90
        0
176
     1
 40
0.6
176
     1
 41
30.0
176
     1
 62
     5
 63
     7
421
 16777215
176
     1
 74
     1
176
     1
 91
        4
176
     1
 64
     7
176
     1
 65
   257
176
     1
 75
     1
176
     1
175
     1
176
     1
 42
1.0
176
     1
 92
        0
176
     1
 66
   257
176
     1
 43
1.0
176
     1
 76
     1
176
     1
 77
     6
176
     1
 78
     2
176
     1
 67
     7
176
     1
 79
     3
176
     1
170
     0
176
     1
171
     0
176
     1
290
     0
176
     1
 93
        1
176
     1
 44
0.0
176
     1
173
     0
176
     1
  0
VISUALSTYLE
  5
40
102
{ACAD_REACTORS
330
2A
102
}
330
2A
100
AcDbVisualStyle
  2
X-Ray
 70
    25
177
     2
291
     0
 71
     2
176
     1
 72
     2
176
     1
 73
     1
176
     1
 90
        1
176
     1
 40
0.5
176
     1
 41
30.0
176
     1
 62
     5
 63
     7
421
 16777215
176
     1
 74
     1
176
     1
 91
        0
176
     1
 64
     7
176
     1
 65
   257
176
     1
 75
     1
176
     1
175
     1
176
     1
 42
1.0
176
     1
 92
        8
176
     1
 66
     7
176
     1
 43
1.0
176
     1
 76
     1
176
     1
 77
     6
176
     1
 78
     2
176
     1
 67
     7
176
     1
 79
     3
176
     1
170
     0
176
     1
171
     0
176
     1
290
     0
176
     1
 93
       13
176
     1
 44
0.0
176
     1
173
     0
176
     1
  0
DICTIONARYVAR
  5
44A
102
{ACAD_REACTORS
330
449
102
}
330
449
100
DictionaryVariables
280
     0
  1
1:1
  0
DICTIONARYVAR
  5
452
102
{ACAD_REACTORS
330
449
102
}
330
449
100
DictionaryVariables
280
     0
  1
3.500000
  0
DICTIONARYVAR
  5
453
102
{ACAD_REACTORS
330
449
102
}
330
449
100
DictionaryVariables
280
     0
  1
acadiso.lin
  0
DICTIONARYVAR
  5
44F
102
{ACAD_REACTORS
330
449
102
}
330
449
100
DictionaryVariables
280
     0
  1
Standard
  0
DICTIONARYVAR
  5
44E
102
{ACAD_REACTORS
330
449
102
}
330
449
100
DictionaryVariables
280
     0
  1
Standard
  0
DICTIONARY
  5
44B
330
6A
100
AcDbDictionary
280
     1
281
     1
  3
ACAD_ROUNDTRIP_2008_TABLESTYLE_CELLSTYLEMAP
360
44C
  0
CELLSTYLEMAP
  5
44C
102
{ACAD_REACTORS
330
44B
102
}
330
44B
100
AcDbCellStyleMap
 90
        3
300
CELLSTYLE
  1
TABLEFORMAT_BEGIN
 90
        5
170
     1
 91
        0
 92
    32768
 62
   257
 93
        1
300
CONTENTFORMAT
  1
CONTENTFORMAT_BEGIN
 90
        0
 91
        0
 92
        4
 93
        0
300

 40
0.0
140
1.0
 94
        5
 62
     0
340
11
144
6.0
309
CONTENTFORMAT_END
171
     1
301
MARGIN
  1
CELLMARGIN_BEGIN
 40
1.5
 40
1.5
 40
1.5
 40
1.5
 40
1.5
 40
1.5
309
CELLMARGIN_END
 94
        6
 95
        1
302
GRIDFORMAT
  1
GRIDFORMAT_BEGIN
 90
        0
 91
        1
 62
     0
 92
       -2
340
14
 93
        0
 40
0.045
309
GRIDFORMAT_END
 95
        2
302
GRIDFORMAT
  1
GRIDFORMAT_BEGIN
 90
        0
 91
        1
 62
     0
 92
       -2
340
14
 93
        0
 40
0.045
309
GRIDFORMAT_END
 95
        4
302
GRIDFORMAT
  1
GRIDFORMAT_BEGIN
 90
        0
 91
        1
 62
     0
 92
       -2
340
14
 93
        0
 40
0.045
309
GRIDFORMAT_END
 95
        8
302
GRIDFORMAT
  1
GRIDFORMAT_BEGIN
 90
        0
 91
        1
 62
     0
 92
       -2
340
14
 93
        0
 40
0.045
309
GRIDFORMAT_END
 95
       16
302
GRIDFORMAT
  1
GRIDFORMAT_BEGIN
 90
        0
 91
        1
 62
     0
 92
       -2
340
14
 93
        0
 40
0.045
309
GRIDFORMAT_END
 95
       32
302
GRIDFORMAT
  1
GRIDFORMAT_BEGIN
 90
        0
 91
        1
 62
     0
 92
       -2
340
14
 93
        0
 40
0.045
309
GRIDFORMAT_END
309
TABLEFORMAT_END
  1
CELLSTYLE_BEGIN
 90
        1
 91
        1
300
_TITLE
309
CELLSTYLE_END
300
CELLSTYLE
  1
TABLEFORMAT_BEGIN
 90
        5
170
     1
 91
        0
 92
        0
 62
   257
 93
        1
300
CONTENTFORMAT
  1
CONTENTFORMAT_BEGIN
 90
        0
 91
        0
 92
        4
 93
        0
300

 40
0.0
140
1.0
 94
        5
 62
     0
340
11
144
4.5
309
CONTENTFORMAT_END
171
     1
301
MARGIN
  1
CELLMARGIN_BEGIN
 40
1.5
 40
1.5
 40
1.5
 40
1.5
 40
1.5
 40
1.5
309
CELLMARGIN_END
 94
        6
 95
        1
302
GRIDFORMAT
  1
GRIDFORMAT_BEGIN
 90
        0
 91
        1
 62
     0
 92
       -2
340
14
 93
        0
 40
0.045
309
GRIDFORMAT_END
 95
        2
302
GRIDFORMAT
  1
GRIDFORMAT_BEGIN
 90
        0
 91
        1
 62
     0
 92
       -2
340
14
 93
        0
 40
0.045
309
GRIDFORMAT_END
 95
        4
302
GRIDFORMAT
  1
GRIDFORMAT_BEGIN
 90
        0
 91
        1
 62
     0
 92
       -2
340
14
 93
        0
 40
0.045
309
GRIDFORMAT_END
 95
        8
302
GRIDFORMAT
  1
GRIDFORMAT_BEGIN
 90
        0
 91
        1
 62
     0
 92
       -2
340
14
 93
        0
 40
0.045
309
GRIDFORMAT_END
 95
       16
302
GRIDFORMAT
  1
GRIDFORMAT_BEGIN
 90
        0
 91
        1
 62
     0
 92
       -2
340
14
 93
        0
 40
0.045
309
GRIDFORMAT_END
 95
       32
302
GRIDFORMAT
  1
GRIDFORMAT_BEGIN
 90
        0
 91
        1
 62
     0
 92
       -2
340
14
 93
        0
 40
0.045
309
GRIDFORMAT_END
309
TABLEFORMAT_END
  1
CELLSTYLE_BEGIN
 90
        2
 91
        1
300
_HEADER
309
CELLSTYLE_END
300
CELLSTYLE
  1
TABLEFORMAT_BEGIN
 90
        5
170
     1
 91
        0
 92
        0
 62
   257
 93
        1
300
CONTENTFORMAT
  1
CONTENTFORMAT_BEGIN
 90
        0
 91
        0
 92
        4
 93
        0
300

 40
0.0
140
1.0
 94
        2
 62
     0
340
11
144
4.5
309
CONTENTFORMAT_END
171
     1
301
MARGIN
  1
CELLMARGIN_BEGIN
 40
1.5
 40
1.5
 40
1.5
 40
1.5
 40
1.5
 40
1.5
309
CELLMARGIN_END
 94
        6
 95
        1
302
GRIDFORMAT
  1
GRIDFORMAT_BEGIN
 90
        0
 91
        1
 62
     0
 92
       -2
340
14
 93
        0
 40
0.045
309
GRIDFORMAT_END
 95
        2
302
GRIDFORMAT
  1
GRIDFORMAT_BEGIN
 90
        0
 91
        1
 62
     0
 92
       -2
340
14
 93
        0
 40
0.045
309
GRIDFORMAT_END
 95
        4
302
GRIDFORMAT
  1
GRIDFORMAT_BEGIN
 90
        0
 91
        1
 62
     0
 92
       -2
340
14
 93
        0
 40
0.045
309
GRIDFORMAT_END
 95
        8
302
GRIDFORMAT
  1
GRIDFORMAT_BEGIN
 90
        0
 91
        1
 62
     0
 92
       -2
340
14
 93
        0
 40
0.045
309
GRIDFORMAT_END
 95
       16
302
GRIDFORMAT
  1
GRIDFORMAT_BEGIN
 90
        0
 91
        1
 62
     0
 92
       -2
340
14
 93
        0
 40
0.045
309
GRIDFORMAT_END
 95
       32
302
GRIDFORMAT
  1
GRIDFORMAT_BEGIN
 90
        0
 91
        1
 62
     0
 92
       -2
340
14
 93
        0
 40
0.045
309
GRIDFORMAT_END
309
TABLEFORMAT_END
  1
CELLSTYLE_BEGIN
 90
        3
 91
        2
300
_DATA
309
CELLSTYLE_END
  0
ENDSEC
  0
EOF
