  0
SECTION
  2
HEADER
  9
$ACADVER
  1
AC1015
  9
$ACADMAINTVER
 70
    20
  9
$DWGCODEPAGE
  3
ANSI_1252
  9
$INSBASE
 10
0.0
 20
0.0
 30
0.0
  9
$EXTMIN
 10
-0.075
 20
-0.075
 30
0.0
  9
$EXTMAX
 10
22.075
 20
17.075
 30
0.0
  9
$LIMMIN
 10
0.0
 20
0.0
  9
$LIMMAX
 10
12.0
 20
9.0
  9
$ORTHOMODE
 70
     0
  9
$REGENMODE
 70
     1
  9
$FILLMODE
 70
     1
  9
$QTEXTMODE
 70
     0
  9
$MIRRTEXT
 70
     1
  9
$LTSCALE
 40
1.0
  9
$ATTMODE
 70
     1
  9
$TEXTSIZE
 40
0.125
  9
$TRACEWID
 40
0.05
  9
$TEXTSTYLE
  7
STANDARD
  9
$CLAYER
  8
0
  9
$CELTYPE
  6
BYLAYER
  9
$CECOLOR
 62
   256
  9
$CELTSCALE
 40
1.0
  9
$DISPSILH
 70
     0
  9
$DIMSCALE
 40
1.0
  9
$DIMASZ
 40
0.125
  9
$DIMEXO
 40
0.0625
  9
$DIMDLI
 40
0.38
  9
$DIMRND
 40
0.0
  9
$DIMDLE
 40
0.0
  9
$DIMEXE
 40
0.125
  9
$DIMTP
 40
0.0
  9
$DIMTM
 40
0.0
  9
$DIMTXT
 40
0.09
  9
$DIMCEN
 40
0.09
  9
$DIMTSZ
 40
0.0
  9
$DIMTOL
 70
     0
  9
$DIMLIM
 70
     0
  9
$DIMTIH
 70
     1
  9
$DIMTOH
 70
     1
  9
$DIMSE1
 70
     0
  9
$DIMSE2
 70
     0
  9
$DIMTAD
 70
     0
  9
$DIMZIN
 70
     0
  9
$DIMBLK
  1

  9
$DIMASO
 70
     1
  9
$DIMSHO
 70
     1
  9
$DIMPOST
  1

  9
$DIMAPOST
  1
mm
  9
$DIMALT
 70
     1
  9
$DIMALTD
 70
     1
  9
$DIMALTF
 40
25.4
  9
$DIMLFAC
 40
1.0
  9
$DIMTOFL
 70
     0
  9
$DIMTVP
 40
0.0
  9
$DIMTIX
 70
     0
  9
$DIMSOXD
 70
     0
  9
$DIMSAH
 70
     0
  9
$DIMBLK1
  1

  9
$DIMBLK2
  1

  9
$DIMSTYLE
  2
STANDARD
  9
$DIMCLRD
 70
     0
  9
$DIMCLRE
 70
     0
  9
$DIMCLRT
 70
     0
  9
$DIMTFAC
 40
1.0
  9
$DIMGAP
 40
0.09
  9
$DIMJUST
 70
     0
  9
$DIMSD1
 70
     0
  9
$DIMSD2
 70
     0
  9
$DIMTOLJ
 70
     1
  9
$DIMTZIN
 70
     0
  9
$DIMALTZ
 70
     0
  9
$DIMALTTZ
 70
     0
  9
$DIMUPT
 70
     0
  9
$DIMDEC
 70
     2
  9
$DIMTDEC
 70
     2
  9
$DIMALTU
 70
     2
  9
$DIMALTTD
 70
     1
  9
$DIMTXSTY
  7
STANDARD
  9
$DIMAUNIT
 70
     0
  9
$DIMADEC
 70
     0
  9
$DIMALTRND
 40
0.0
  9
$DIMAZIN
 70
     0
  9
$DIMDSEP
 70
    46
  9
$DIMATFIT
 70
     3
  9
$DIMFRAC
 70
     0
  9
$DIMLDRBLK
  1

  9
$DIMLUNIT
 70
     2
  9
$DIMLWD
 70
    -2
  9
$DIMLWE
 70
    -2
  9
$DIMTMOVE
 70
     0
  9
$LUNITS
 70
     2
  9
$LUPREC
 70
     2
  9
$SKETCHINC
 40
0.1
  9
$FILLETRAD
 40
0.5
  9
$AUNITS
 70
     0
  9
$AUPREC
 70
     0
  9
$MENU
  1
.
  9
$ELEVATION
 40
0.0
  9
$PELEVATION
 40
0.0
  9
$THICKNESS
 40
0.0
  9
$LIMCHECK
 70
     0
  9
$CHAMFERA
 40
0.5
  9
$CHAMFERB
 40
0.5
  9
$CHAMFERC
 40
1.0
  9
$CHAMFERD
 40
0.0
  9
$SKPOLY
 70
     0
  9
$TDCREATE
 40
2451681.555436007
  9
$TDUCREATE
 40
2451681.763769340
  9
$TDUPDATE
 40
2454294.563061783
  9
$TDUUPDATE
 40
2454294.771395116
  9
$TDINDWG
 40
0.2170743519
  9
$TDUSRTIMER
 40
0.2170743519
  9
$USRTIMER
 70
     1
  9
$ANGBASE
 50
0.0
  9
$ANGDIR
 70
     0
  9
$PDMODE
 70
     2
  9
$PDSIZE
 40
0.075
  9
$PLINEWID
 40
0.0
  9
$SPLFRAME
 70
     0
  9
$SPLINETYPE
 70
     6
  9
$SPLINESEGS
 70
     8
  9
$HANDSEED
  5
A91
  9
$SURFTAB1
 70
     6
  9
$SURFTAB2
 70
     6
  9
$SURFTYPE
 70
     6
  9
$SURFU
 70
     6
  9
$SURFV
 70
     6
  9
$UCSBASE
  2

  9
$UCSNAME
  2

  9
$UCSORG
 10
0.0
 20
0.0
 30
0.0
  9
$UCSXDIR
 10
1.0
 20
0.0
 30
0.0
  9
$UCSYDIR
 10
0.0
 20
1.0
 30
0.0
  9
$UCSORTHOREF
  2

  9
$UCSORTHOVIEW
 70
     0
  9
$UCSORGTOP
 10
0.0
 20
0.0
 30
0.0
  9
$UCSORGBOTTOM
 10
0.0
 20
0.0
 30
0.0
  9
$UCSORGLEFT
 10
0.0
 20
0.0
 30
0.0
  9
$UCSORGRIGHT
 10
0.0
 20
0.0
 30
0.0
  9
$UCSORGFRONT
 10
0.0
 20
0.0
 30
0.0
  9
$UCSORGBACK
 10
0.0
 20
0.0
 30
0.0
  9
$PUCSBASE
  2

  9
$PUCSNAME
  2

  9
$PUCSORG
 10
0.0
 20
0.0
 30
0.0
  9
$PUCSXDIR
 10
1.0
 20
0.0
 30
0.0
  9
$PUCSYDIR
 10
0.0
 20
1.0
 30
0.0
  9
$PUCSORTHOREF
  2

  9
$PUCSORTHOVIEW
 70
     0
  9
$PUCSORGTOP
 10
0.0
 20
0.0
 30
0.0
  9
$PUCSORGBOTTOM
 10
0.0
 20
0.0
 30
0.0
  9
$PUCSORGLEFT
 10
0.0
 20
0.0
 30
0.0
  9
$PUCSORGRIGHT
 10
0.0
 20
0.0
 30
0.0
  9
$PUCSORGFRONT
 10
0.0
 20
0.0
 30
0.0
  9
$PUCSORGBACK
 10
0.0
 20
0.0
 30
0.0
  9
$USERI1
 70
     0
  9
$USERI2
 70
     0
  9
$USERI3
 70
     0
  9
$USERI4
 70
     0
  9
$USERI5
 70
     0
  9
$USERR1
 40
0.0
  9
$USERR2
 40
0.0
  9
$USERR3
 40
0.0
  9
$USERR4
 40
0.0
  9
$USERR5
 40
0.0
  9
$WORLDVIEW
 70
     1
  9
$SHADEDGE
 70
     3
  9
$SHADEDIF
 70
    70
  9
$TILEMODE
 70
     1
  9
$MAXACTVP
 70
    48
  9
$PINSBASE
 10
0.0
 20
0.0
 30
0.0
  9
$PLIMCHECK
 70
     0
  9
$PEXTMIN
 10
1.000000000000000E+20
 20
1.000000000000000E+20
 30
1.000000000000000E+20
  9
$PEXTMAX
 10
-1.000000000000000E+20
 20
-1.000000000000000E+20
 30
-1.000000000000000E+20
  9
$PLIMMIN
 10
0.0
 20
0.0
  9
$PLIMMAX
 10
12.0
 20
9.0
  9
$UNITMODE
 70
     0
  9
$VISRETAIN
 70
     1
  9
$PLINEGEN
 70
     0
  9
$PSLTSCALE
 70
     1
  9
$TREEDEPTH
 70
  3020
  9
$CMLSTYLE
  2
STANDARD
  9
$CMLJUST
 70
     0
  9
$CMLSCALE
 40
1.0
  9
$PROXYGRAPHICS
 70
     1
  9
$MEASUREMENT
 70
     0
  9
$CELWEIGHT
370
    -1
  9
$ENDCAPS
280
     0
  9
$JOINSTYLE
280
     0
  9
$LWDISPLAY
290
     0
  9
$INSUNITS
 70
     0
  9
$HYPERLINKBASE
  1

  9
$STYLESHEET
  1

  9
$XEDIT
290
     1
  9
$CEPSNTYPE
380
     0
  9
$PSTYLEMODE
290
     1
  9
$FINGERPRINTGUID
  2
{71EC7F31-AA06-4ECF-8D30-7E7FC2EDBC33}
  9
$VERSIONGUID
  2
{B880C5C7-1421-426D-9647-F5F4AE2C0C4B}
  9
$EXTNAMES
290
     1
  9
$PSVPSCALE
 40
0.0
  9
$OLESTARTUP
290
     0
  0
ENDSEC
  0
SECTION
  2
CLASSES
  0
CLASS
  1
ACDBDICTIONARYWDFLT
  2
AcDbDictionaryWithDefault
  3
ObjectDBX Classes
 90
        0
280
     0
281
     0
  0
CLASS
  1
TABLESTYLE
  2
AcDbTableStyle
  3
ObjectDBX Classes
 90
     2047
280
     0
281
     0
  0
CLASS
  1
DICTIONARYVAR
  2
AcDbDictionaryVar
  3
ObjectDBX Classes
 90
        0
280
     0
281
     0
  0
CLASS
  1
ACDBPLACEHOLDER
  2
AcDbPlaceHolder
  3
ObjectDBX Classes
 90
        0
280
     0
281
     0
  0
CLASS
  1
LAYOUT
  2
AcDbLayout
  3
ObjectDBX Classes
 90
        0
280
     0
281
     0
  0
ENDSEC
  0
SECTION
  2
TABLES
  0
TABLE
  2
VPORT
  5
8
330
0
100
AcDbSymbolTable
 70
     2
  0
VPORT
  5
A8B
330
8
100
AcDbSymbolTableRecord
100
AcDbViewportTableRecord
  2
*Active
 70
     0
 10
0.0
 20
0.0
 11
1.0
 21
1.0
 12
11.00000010314714
 22
9.103929070580019
 13
0.0
 23
0.0
 14
0.5
 24
0.5
 15
0.5
 25
0.5
 16
0.0
 26
0.0
 36
1.0
 17
0.0
 27
0.0
 37
0.0
 40
18.4699008689387
 41
1.499364675984752
 42
50.0
 43
0.0
 44
0.0
 50
0.0
 51
0.0
 71
     0
 72
   100
 73
     1
 74
     1
 75
     0
 76
     0
 77
     0
 78
     0
281
     0
 65
     1
110
0.0
120
0.0
130
0.0
111
1.0
121
0.0
131
0.0
112
0.0
122
1.0
132
0.0
 79
     0
146
0.0
  0
ENDTAB
  0
TABLE
  2
LTYPE
  5
5
330
0
100
AcDbSymbolTable
 70
     1
  0
LTYPE
  5
12
330
5
100
AcDbSymbolTableRecord
100
AcDbLinetypeTableRecord
  2
BYBLOCK
 70
     0
  3

 72
    65
 73
     0
 40
0.0
  0
LTYPE
  5
13
330
5
100
AcDbSymbolTableRecord
100
AcDbLinetypeTableRecord
  2
BYLAYER
 70
     0
  3

 72
    65
 73
     0
 40
0.0
  0
LTYPE
  5
14
330
5
100
AcDbSymbolTableRecord
100
AcDbLinetypeTableRecord
  2
CONTINUOUS
 70
     0
  3
Solid line
 72
    65
 73
     0
 40
0.0
  0
ENDTAB
  0
TABLE
  2
LAYER
  5
2
102
{ACAD_XDICTIONARY
360
154
102
}
330
0
100
AcDbSymbolTable
 70
     6
  0
LAYER
  5
E
330
2
100
AcDbSymbolTableRecord
100
AcDbLayerTableRecord
  2
0
 70
     0
 62
     7
  6
CONTINUOUS
370
    -3
390
10B
  0
LAYER
  5
20
330
2
100
AcDbSymbolTableRecord
100
AcDbLayerTableRecord
  2
Title Block
 70
     0
 62
     3
  6
CONTINUOUS
370
    -3
390
10B
  0
LAYER
  5
21
330
2
100
AcDbSymbolTableRecord
100
AcDbLayerTableRecord
  2
Dimension
 70
     0
 62
     6
  6
CONTINUOUS
370
    -3
390
10B
  0
LAYER
  5
22
330
2
100
AcDbSymbolTableRecord
100
AcDbLayerTableRecord
  2
Text
 70
     0
 62
     1
  6
CONTINUOUS
370
    -3
390
10B
  0
LAYER
  5
23
330
2
100
AcDbSymbolTableRecord
100
AcDbLayerTableRecord
  2
Object
 70
     0
 62
     5
  6
CONTINUOUS
370
    -3
390
10B
  0
LAYER
  5
179
330
2
100
AcDbSymbolTableRecord
100
AcDbLayerTableRecord
  2
Defpoints
 70
     0
 62
     7
  6
CONTINUOUS
290
     0
370
    -3
390
10B
  0
ENDTAB
  0
TABLE
  2
STYLE
  5
3
330
0
100
AcDbSymbolTable
 70
     1
  0
STYLE
  5
F
330
3
100
AcDbSymbolTableRecord
100
AcDbTextStyleTableRecord
  2
STANDARD
 70
     0
 40
0.0
 41
1.0
 50
0.0
 71
     0
 42
0.125
  3
technic_.ttf
  4

1001
ACAD
1000
Technic
1071
      514
  0
ENDTAB
  0
TABLE
  2
VIEW
  5
6
330
0
100
AcDbSymbolTable
 70
     0
  0
ENDTAB
  0
TABLE
  2
UCS
  5
7
330
0
100
AcDbSymbolTable
 70
     0
  0
ENDTAB
  0
TABLE
  2
APPID
  5
9
330
0
100
AcDbSymbolTable
 70
     4
  0
APPID
  5
10
330
9
100
AcDbSymbolTableRecord
100
AcDbRegAppTableRecord
  2
ACAD
 70
     0
  0
APPID
  5
149
330
9
100
AcDbSymbolTableRecord
100
AcDbRegAppTableRecord
  2
DCO15
 70
     0
  0
APPID
  5
153
330
9
100
AcDbSymbolTableRecord
100
AcDbRegAppTableRecord
  2
AcAecLayerStandard
 70
     0
  0
APPID
  5
1A9
330
9
100
AcDbSymbolTableRecord
100
AcDbRegAppTableRecord
  2
ACAD_DSTYLE_DIMTEXT_FILL
 70
     0
  0
ENDTAB
  0
TABLE
  2
DIMSTYLE
  5
A
330
0
100
AcDbSymbolTable
 70
     1
100
AcDbDimStyleTable
 71
     1
340
1D
  0
DIMSTYLE
105
1D
102
{ACAD_REACTORS
330
A41
330
A4F
330
A5D
102
}
330
A
100
AcDbSymbolTableRecord
100
AcDbDimStyleTableRecord
  2
STANDARD
 70
     0
  4
mm
 41
0.125
 44
0.125
140
0.09
170
     1
171
     1
271
     2
272
     2
274
     1
340
F
  0
ENDTAB
  0
TABLE
  2
BLOCK_RECORD
  5
1
330
0
100
AcDbSymbolTable
 70
     3
  0
BLOCK_RECORD
  5
18
330
1
100
AcDbSymbolTableRecord
100
AcDbBlockTableRecord
  2
*MODEL_SPACE
340
112
  0
BLOCK_RECORD
  5
15
330
1
100
AcDbSymbolTableRecord
100
AcDbBlockTableRecord
  2
*PAPER_SPACE
340
113
  0
BLOCK_RECORD
  5
A42
330
1
100
AcDbSymbolTableRecord
100
AcDbBlockTableRecord
  2
*D0
340
0
  0
BLOCK_RECORD
  5
A50
330
1
100
AcDbSymbolTableRecord
100
AcDbBlockTableRecord
  2
*D1
340
0
  0
BLOCK_RECORD
  5
A5E
330
1
100
AcDbSymbolTableRecord
100
AcDbBlockTableRecord
  2
*D2
340
0
  0
ENDTAB
  0
ENDSEC
  0
SECTION
  2
BLOCKS
  0
BLOCK
  5
19
330
18
100
AcDbEntity
  8
0
100
AcDbBlockBegin
  2
*MODEL_SPACE
 70
     0
 10
0.0
 20
0.0
 30
0.0
  3
*MODEL_SPACE
  1

  0
ENDBLK
  5
1A
330
18
100
AcDbEntity
  8
0
100
AcDbBlockEnd
  0
BLOCK
  5
16
330
15
100
AcDbEntity
 67
     1
  8
0
100
AcDbBlockBegin
  2
*PAPER_SPACE
 70
     0
 10
0.0
 20
0.0
 30
0.0
  3
*PAPER_SPACE
  1

  0
ENDBLK
  5
17
330
15
100
AcDbEntity
 67
     1
  8
0
100
AcDbBlockEnd
  0
BLOCK
  5
A4D
330
A42
100
AcDbEntity
  8
0
100
AcDbBlockBegin
  2
*D0
 70
     1
 10
0.0
 20
0.0
 30
0.0
  3
*D0
  1

  0
LINE
  5
A43
330
A42
100
AcDbEntity
  8
Dimension
 62
     0
370
    -2
100
AcDbLine
 10
6.761499999999999
 20
15.59103296034573
 30
0.0
 11
8.003415325764478
 21
15.59103296034573
 31
0.0
  0
LINE
  5
A44
330
A42
100
AcDbEntity
  8
Dimension
 62
     0
370
    -2
100
AcDbLine
 10
6.761499999999998
 20
10.26103296034573
 30
0.0
 11
8.003415325764477
 21
10.26103296034573
 31
0.0
  0
LINE
  5
A45
330
A42
100
AcDbEntity
  8
Dimension
 62
     0
370
    -2
100
AcDbLine
 10
7.878415325764479
 20
15.46603296034573
 30
0.0
 11
7.878415325764478
 21
13.0790592761352
 31
0.0
  0
LINE
  5
A46
330
A42
100
AcDbEntity
  8
Dimension
 62
     0
370
    -2
100
AcDbLine
 10
7.878415325764478
 20
10.38603296034573
 30
0.0
 11
7.878415325764478
 21
12.77300664455625
 31
0.0
  0
SOLID
  5
A47
330
A42
100
AcDbEntity
  8
Dimension
 62
     0
100
AcDbTrace
 10
7.857581992431146
 20
15.46603296034573
 30
0.0
 11
7.899248659097812
 21
15.46603296034573
 31
0.0
 12
7.878415325764479
 22
15.59103296034573
 32
0.0
 13
7.878415325764479
 23
15.59103296034573
 33
0.0
  0
SOLID
  5
A48
330
A42
100
AcDbEntity
  8
Dimension
 62
     0
100
AcDbTrace
 10
7.857581992431145
 20
10.38603296034573
 30
0.0
 11
7.899248659097811
 21
10.38603296034573
 31
0.0
 12
7.878415325764478
 22
10.26103296034573
 32
0.0
 13
7.878415325764478
 23
10.26103296034573
 33
0.0
  0
MTEXT
  5
A49
330
A42
100
AcDbEntity
  8
Dimension
 62
     0
100
AcDbMText
 10
7.878415325764477
 20
12.92603296034573
 30
0.0
 40
0.09
 41
0.0
 71
     5
 72
     1
  1
\A1;5.33 [135.4mm]
 73
     1
 44
1.0
1001
ACAD
1000
MTEXTBEGIN
1070
    73
1070
     1
1070
    44
1040
1.0
1070
    74
1070
     0
1000
MTEXTEND
  0
POINT
  5
A4A
330
A42
100
AcDbEntity
  8
Defpoints
 62
     0
100
AcDbPoint
 10
6.698999999999999
 20
15.59103296034573
 30
0.0
  0
POINT
  5
A4B
330
A42
100
AcDbEntity
  8
Defpoints
 62
     0
100
AcDbPoint
 10
6.698999999999998
 20
10.26103296034573
 30
0.0
  0
POINT
  5
A4C
330
A42
100
AcDbEntity
  8
Defpoints
 62
     0
100
AcDbPoint
 10
7.878415325764478
 20
10.26103296034573
 30
0.0
  0
ENDBLK
  5
A4E
330
A42
100
AcDbEntity
  8
0
100
AcDbBlockEnd
  0
BLOCK
  5
A5B
330
A50
100
AcDbEntity
  8
0
100
AcDbBlockBegin
  2
*D1
 70
     1
 10
0.0
 20
0.0
 30
0.0
  3
*D1
  1

  0
LINE
  5
A6B
330
A50
100
AcDbEntity
  8
Dimension
 62
     0
370
    -2
100
AcDbLine
 10
3.671
 20
7.066532960345727
 30
0.0
 11
3.671
 21
7.879550625453283
 31
0.0
  0
LINE
  5
A6C
330
A50
100
AcDbEntity
  8
Dimension
 62
     0
370
    -2
100
AcDbLine
 10
6.796
 20
6.566532960345727
 30
0.0
 11
6.796
 21
7.879550625453283
 31
0.0
  0
LINE
  5
A6D
330
A50
100
AcDbEntity
  8
Dimension
 62
     0
370
    -2
100
AcDbLine
 10
3.796
 20
7.754550625453283
 30
0.0
 11
4.746921052631579
 21
7.754550625453283
 31
0.0
  0
LINE
  5
A6E
330
A50
100
AcDbEntity
  8
Dimension
 62
     0
370
    -2
100
AcDbLine
 10
6.671
 20
7.754550625453283
 30
0.0
 11
5.720078947368421
 21
7.754550625453283
 31
0.0
  0
SOLID
  5
A6F
330
A50
100
AcDbEntity
  8
Dimension
 62
     0
100
AcDbTrace
 10
3.796
 20
7.775383958786616
 30
0.0
 11
3.796
 21
7.73371729211995
 31
0.0
 12
3.671
 22
7.754550625453283
 32
0.0
 13
3.671
 23
7.754550625453283
 33
0.0
  0
SOLID
  5
A70
330
A50
100
AcDbEntity
  8
Dimension
 62
     0
100
AcDbTrace
 10
6.671
 20
7.775383958786616
 30
0.0
 11
6.671
 21
7.73371729211995
 31
0.0
 12
6.796
 22
7.754550625453283
 32
0.0
 13
6.796
 23
7.754550625453283
 33
0.0
  0
MTEXT
  5
A71
330
A50
100
AcDbEntity
  8
Dimension
 62
     0
100
AcDbMText
 10
5.2335
 20
7.754550625453283
 30
0.0
 40
0.09
 41
0.0
 71
     5
 72
     1
  1
\A1;3.12 [79.4mm]
 73
     1
 44
1.0
1001
ACAD
1000
MTEXTBEGIN
1070
    73
1070
     1
1070
    44
1040
1.0
1070
    74
1070
     0
1000
MTEXTEND
  0
POINT
  5
A72
330
A50
100
AcDbEntity
  8
Defpoints
 62
     0
100
AcDbPoint
 10
3.671
 20
7.004032960345727
 30
0.0
  0
POINT
  5
A73
330
A50
100
AcDbEntity
  8
Defpoints
 62
     0
100
AcDbPoint
 10
6.796
 20
6.504032960345727
 30
0.0
  0
POINT
  5
A74
330
A50
100
AcDbEntity
  8
Defpoints
 62
     0
100
AcDbPoint
 10
6.796
 20
7.754550625453283
 30
0.0
  0
ENDBLK
  5
A5C
330
A50
100
AcDbEntity
  8
0
100
AcDbBlockEnd
  0
BLOCK
  5
A69
330
A5E
100
AcDbEntity
  8
0
100
AcDbBlockBegin
  2
*D2
 70
     1
 10
0.0
 20
0.0
 30
0.0
  3
*D2
  1

  0
LINE
  5
A5F
330
A5E
100
AcDbEntity
  8
Dimension
 62
     0
370
    -2
100
AcDbLine
 10
14.1215
 20
7.004032960345727
 30
0.0
 11
12.4632727089748
 21
7.004032960345728
 31
0.0
  0
LINE
  5
A60
330
A5E
100
AcDbEntity
  8
Dimension
 62
     0
370
    -2
100
AcDbLine
 10
14.8625
 20
4.849032960345727
 30
0.0
 11
12.4632727089748
 21
4.849032960345728
 31
0.0
  0
LINE
  5
A61
330
A5E
100
AcDbEntity
  8
Dimension
 62
     0
370
    -2
100
AcDbLine
 10
12.5882727089748
 20
6.879032960345728
 30
0.0
 11
12.5882727089748
 21
6.079559276135202
 31
0.0
  0
LINE
  5
A62
330
A5E
100
AcDbEntity
  8
Dimension
 62
     0
370
    -2
100
AcDbLine
 10
12.5882727089748
 20
4.974032960345728
 30
0.0
 11
12.5882727089748
 21
5.773506644556255
 31
0.0
  0
SOLID
  5
A63
330
A5E
100
AcDbEntity
  8
Dimension
 62
     0
100
AcDbTrace
 10
12.56743937564146
 20
6.879032960345728
 30
0.0
 11
12.60910604230813
 21
6.879032960345728
 31
0.0
 12
12.5882727089748
 22
7.004032960345728
 32
0.0
 13
12.5882727089748
 23
7.004032960345728
 33
0.0
  0
SOLID
  5
A64
330
A5E
100
AcDbEntity
  8
Dimension
 62
     0
100
AcDbTrace
 10
12.56743937564146
 20
4.974032960345728
 30
0.0
 11
12.60910604230813
 21
4.974032960345728
 31
0.0
 12
12.5882727089748
 22
4.849032960345728
 32
0.0
 13
12.5882727089748
 23
4.849032960345728
 33
0.0
  0
MTEXT
  5
A65
330
A5E
100
AcDbEntity
  8
Dimension
 62
     0
100
AcDbMText
 10
12.58827270897479
 20
5.92653296034573
 30
0.0
 40
0.09
 41
0.0
 71
     5
 72
     1
  1
\A1;2.16 [54.7mm]
 73
     1
 44
1.0
1001
ACAD
1000
MTEXTBEGIN
1070
    73
1070
     1
1070
    44
1040
1.0
1070
    74
1070
     0
1000
MTEXTEND
  0
POINT
  5
A66
330
A5E
100
AcDbEntity
  8
Defpoints
 62
     0
100
AcDbPoint
 10
14.184
 20
7.004032960345727
 30
0.0
  0
POINT
  5
A67
330
A5E
100
AcDbEntity
  8
Defpoints
 62
     0
100
AcDbPoint
 10
14.925
 20
4.849032960345727
 30
0.0
  0
POINT
  5
A68
330
A5E
100
AcDbEntity
  8
Defpoints
 62
     0
100
AcDbPoint
 10
12.5882727089748
 20
4.849032960345728
 30
0.0
  0
ENDBLK
  5
A6A
330
A5E
100
AcDbEntity
  8
0
100
AcDbBlockEnd
  0
ENDSEC
  0
SECTION
  2
ENTITIES
  0
TEXT
  5
51
330
18
100
AcDbEntity
  8
Title Block
100
AcDbText
 10
17.77669501265554
 20
2.672489851525508
 30
0.0
 40
0.05
  1
FILENAME:
100
AcDbText
  0
TEXT
  5
52
330
18
100
AcDbEntity
  8
Title Block
100
AcDbText
 10
17.76928502872825
 20
2.076224967549325
 30
0.0
 40
0.35
  1
PANDUIT
100
AcDbText
  0
TEXT
  5
53
330
18
100
AcDbEntity
  8
Title Block
100
AcDbText
 10
19.72182039882138
 20
2.061410940562986
 30
0.0
 40
0.125
  1
CORP. TINLEY PARK, IL
100
AcDbText
  0
TEXT
  5
54
330
18
100
AcDbEntity
  8
Title Block
100
AcDbText
 10
17.78039997670861
 20
1.91697409709392
 30
0.0
 40
0.05
  1
TITLE:
100
AcDbText
  0
MTEXT
  5
57
330
18
100
AcDbEntity
  8
Title Block
100
AcDbMText
 10
19.0
 20
1.372215793536348
 30
0.0
 40
0.075
 41
2.5
 71
     5
 72
     5
  1
UNLESS OTHERWISE SPECIFIED,\PDIMENSIONAL TOLERANCES ARE:       
 73
     1
 44
1.0
1001
ACAD
1000
MTEXTBEGIN
1070
    73
1070
     1
1070
    44
1040
1.0
1070
    74
1070
     0
1000
MTEXTEND
  0
MTEXT
  5
58
330
18
100
AcDbEntity
  8
Title Block
100
AcDbMText
 10
18.39237986661001
 20
1.131487708483632
 30
0.0
 40
0.075
 41
2.5
 71
     5
 72
     5
  1
(.X)\P(.XX)
 73
     1
 44
1.0
1001
ACAD
1000
MTEXTBEGIN
1070
    73
1070
     1
1070
    44
1040
1.0
1070
    74
1070
     0
1000
MTEXTEND
  0
MTEXT
  5
59
330
18
100
AcDbEntity
  8
Title Block
100
AcDbMText
 10
19.40014005312411
 20
1.131487708483632
 30
0.0
 40
0.075
 41
2.5
 71
     5
 72
     5
  1
(.XXX)\PANGLES:
 73
     1
 44
1.0
1001
ACAD
1000
MTEXTBEGIN
1070
    73
1070
     1
1070
    44
1040
1.0
1070
    74
1070
     0
1000
MTEXTEND
  0
MTEXT
  5
5A
330
18
100
AcDbEntity
  8
Title Block
100
AcDbMText
 10
21.0
 20
1.25
 30
0.0
 40
0.06
 41
1.5
 71
     5
 72
     5
  1
UNLESS OTHERWISE SPECIFIED,\PALL DIMENSIONS ARE GIVEN IN INCHES, THIRD ANGLE PROJECTION
 73
     1
 44
1.0
1001
ACAD
1000
MTEXTBEGIN
1070
    73
1070
     1
1070
    44
1040
1.0
1070
    74
1070
     0
1000
MTEXTEND
  0
TEXT
  5
5E
330
18
100
AcDbEntity
  8
Title Block
100
AcDbText
 10
17.76076445430618
 20
0.9281373372752312
 30
0.0
 40
0.05
  1
DRAWN BY:
100
AcDbText
  0
TEXT
  5
5F
330
18
100
AcDbEntity
  8
Title Block
100
AcDbText
 10
17.76446947418043
 20
0.6811431865635028
 30
0.0
 40
0.05
  1
DATE:
100
AcDbText
  0
TEXT
  5
60
330
18
100
AcDbEntity
  8
Title Block
100
AcDbText
 10
17.76817443823349
 20
0.4304455338317968
 30
0.0
 40
0.05
  1
CHECKED BY:
100
AcDbText
  0
TEXT
  5
62
330
18
100
AcDbEntity
  8
Title Block
100
AcDbText
 10
18.52028959313306
 20
0.9281373372752312
 30
0.0
 40
0.05
  1
MATERIAL:
100
AcDbText
  0
TEXT
  5
63
330
18
100
AcDbEntity
  8
Title Block
100
AcDbText
 10
20.26534493878154
 20
0.9281373372752312
 30
0.0
 40
0.05
  1
SCALE:
100
AcDbText
  0
TEXT
  5
64
330
18
100
AcDbEntity
  8
Title Block
100
AcDbText
 10
20.26534493878154
 20
0.6725952630490007
 30
0.0
 40
0.05
  1
DRAWING NUMBER:
100
AcDbText
  0
TEXT
  5
65
330
18
100
AcDbEntity
  8
Title Block
100
AcDbText
 10
21.34942622928997
 20
0.6762987650689816
 30
0.0
 40
0.05
  1
DRAWING
100
AcDbText
  0
TEXT
  5
66
330
18
100
AcDbEntity
  8
Title Block
100
AcDbText
 10
21.42723125590085
 20
0.2811642688682026
 30
0.0
 40
0.05
  1
SIZE
100
AcDbText
  0
TEXT
  5
67
330
18
100
AcDbEntity
  8
Title Block
100
AcDbText
 10
21.39373130657865
 20
0.3826699445861052
 30
0.0
 40
0.25
  1
C
100
AcDbText
  0
MTEXT
  5
68
330
18
100
AcDbEntity
  8
Title Block
100
AcDbMText
 10
11.37499999999999
 20
0.375
 30
0.0
 40
0.05
 41
0.25
 71
     5
 72
     5
  1
REV
 73
     1
 44
1.0
1001
ACAD
1000
MTEXTBEGIN
1070
    73
1070
     1
1070
    44
1040
1.0
1070
    74
1070
     0
1000
MTEXTEND
  0
MTEXT
  5
69
330
18
100
AcDbEntity
  8
Title Block
100
AcDbMText
 10
11.74999999999999
 20
0.375
 30
0.0
 40
0.05
 41
0.5
 71
     5
 72
     5
  1
DATE
 73
     1
 44
1.0
1001
ACAD
1000
MTEXTBEGIN
1070
    73
1070
     1
1070
    44
1040
1.0
1070
    74
1070
     0
1000
MTEXTEND
  0
MTEXT
  5
6A
330
18
100
AcDbEntity
  8
Title Block
100
AcDbMText
 10
12.18999999999999
 20
0.375
 30
0.0
 40
0.05
 41
0.38
 71
     5
 72
     5
  1
BY
 73
     1
 44
1.0
1001
ACAD
1000
MTEXTBEGIN
1070
    73
1070
     1
1070
    44
1040
1.0
1070
    74
1070
     0
1000
MTEXTEND
  0
MTEXT
  5
6B
330
18
100
AcDbEntity
  8
Title Block
100
AcDbMText
 10
12.56499999999999
 20
0.375
 30
0.0
 40
0.05
 41
0.38
 71
     5
 72
     5
  1
CHK
 73
     1
 44
1.0
1001
ACAD
1000
MTEXTBEGIN
1070
    73
1070
     1
1070
    44
1040
1.0
1070
    74
1070
     0
1000
MTEXTEND
  0
MTEXT
  5
6C
330
18
100
AcDbEntity
  8
Title Block
100
AcDbMText
 10
14.12499999999999
 20
0.375
 30
0.0
 40
0.05
 41
2.75
 71
     5
 72
     5
  1
DESCRIPTION
 73
     1
 44
1.0
1001
ACAD
1000
MTEXTBEGIN
1070
    73
1070
     1
1070
    44
1040
1.0
1070
    74
1070
     0
1000
MTEXTEND
  0
MTEXT
  5
6D
330
18
100
AcDbEntity
  8
Title Block
100
AcDbMText
 10
16.065
 20
0.375
 30
0.0
 40
0.05
 41
1.129999999999999
 71
     5
 72
     5
  1
ECN   -   R
 73
     1
 44
1.0
1001
ACAD
1000
MTEXTBEGIN
1070
    73
1070
     1
1070
    44
1040
1.0
1070
    74
1070
     0
1000
MTEXTEND
  0
MTEXT
  5
6E
330
18
100
AcDbEntity
  8
Title Block
100
AcDbMText
 10
16.81499999999999
 20
0.375
 30
0.0
 40
0.05
 41
0.38
 71
     5
 72
     5
  1
CUST
 73
     1
 44
1.0
1001
ACAD
1000
MTEXTBEGIN
1070
    73
1070
     1
1070
    44
1040
1.0
1070
    74
1070
     0
1000
MTEXTEND
  0
MTEXT
  5
6F
330
18
100
AcDbEntity
  8
Title Block
100
AcDbMText
 10
17.19
 20
0.375
 30
0.0
 40
0.05
 41
0.38
 71
     5
 72
     5
  1
SUP
 73
     1
 44
1.0
1001
ACAD
1000
MTEXTBEGIN
1070
    73
1070
     1
1070
    44
1040
1.0
1070
    74
1070
     0
1000
MTEXTEND
  0
LINE
  5
A5
330
18
100
AcDbEntity
  8
Title Block
100
AcDbLine
 10
21.75
 20
2.749999999999999
 30
0.0
 11
11.25
 21
2.75
 31
0.0
  0
LINE
  5
A6
330
18
100
AcDbEntity
  8
Title Block
100
AcDbLine
 10
17.74999999999999
 20
2.75
 30
0.0
 11
17.74999999999999
 21
0.25
 31
0.0
  0
LINE
  5
A7
330
18
100
AcDbEntity
  8
Title Block
100
AcDbLine
 10
21.75
 20
2.499999999999999
 30
0.0
 11
11.25
 21
2.5
 31
0.0
  0
LINE
  5
A8
330
18
100
AcDbEntity
  8
Title Block
100
AcDbLine
 10
17.74999999999999
 20
2.25
 30
0.0
 11
11.25
 21
2.25
 31
0.0
  0
LINE
  5
A9
330
18
100
AcDbEntity
  8
Title Block
100
AcDbLine
 10
21.75
 20
1.999999999999999
 30
0.0
 11
11.25
 21
2.0
 31
0.0
  0
LINE
  5
AA
330
18
100
AcDbEntity
  8
Title Block
100
AcDbLine
 10
17.74999999999999
 20
1.75
 30
0.0
 11
11.25
 21
1.75
 31
0.0
  0
LINE
  5
AB
330
18
100
AcDbEntity
  8
Title Block
100
AcDbLine
 10
21.75
 20
1.499999999999999
 30
0.0
 11
11.25
 21
1.5
 31
0.0
  0
LINE
  5
AC
330
18
100
AcDbEntity
  8
Title Block
100
AcDbLine
 10
17.74999999999999
 20
1.25
 30
0.0
 11
11.25
 21
1.25
 31
0.0
  0
LINE
  5
AD
330
18
100
AcDbEntity
  8
Title Block
100
AcDbLine
 10
21.75
 20
0.9999999999999996
 30
0.0
 11
11.25
 21
1.0
 31
0.0
  0
LINE
  5
AE
330
18
100
AcDbEntity
  8
Title Block
100
AcDbLine
 10
18.49999999999999
 20
0.75
 30
0.0
 11
11.25
 21
0.7500000000000009
 31
0.0
  0
LINE
  5
AF
330
18
100
AcDbEntity
  8
Title Block
100
AcDbLine
 10
18.49999999999999
 20
0.5
 30
0.0
 11
11.25
 21
0.5000000000000009
 31
0.0
  0
LINE
  5
B6
330
18
100
AcDbEntity
  8
Title Block
100
AcDbLine
 10
11.25
 20
0.25
 30
0.0
 11
11.25
 21
2.75
 31
0.0
  0
LINE
  5
BC
330
18
100
AcDbEntity
  8
Title Block
100
AcDbLine
 10
11.49999999999999
 20
0.25
 30
0.0
 11
11.49999999999999
 21
2.750000000000001
 31
0.0
  0
LINE
  5
BD
330
18
100
AcDbEntity
  8
Title Block
100
AcDbLine
 10
11.99999999999999
 20
0.25
 30
0.0
 11
11.99999999999999
 21
2.750000000000001
 31
0.0
  0
LINE
  5
C0
330
18
100
AcDbEntity
  8
Title Block
100
AcDbLine
 10
12.375
 20
0.25
 30
0.0
 11
12.375
 21
2.750000000000001
 31
0.0
  0
LINE
  5
C1
330
18
100
AcDbEntity
  8
Title Block
100
AcDbLine
 10
12.74999999999999
 20
0.25
 30
0.0
 11
12.74999999999999
 21
2.750000000000001
 31
0.0
  0
LINE
  5
C2
330
18
100
AcDbEntity
  8
Title Block
100
AcDbLine
 10
17.375
 20
2.75
 30
0.0
 11
17.375
 21
0.25
 31
0.0
  0
LINE
  5
C3
330
18
100
AcDbEntity
  8
Title Block
100
AcDbLine
 10
17.0
 20
2.75
 30
0.0
 11
17.0
 21
0.25
 31
0.0
  0
LINE
  5
C4
330
18
100
AcDbEntity
  8
Title Block
100
AcDbLine
 10
16.62499999999999
 20
2.75
 30
0.0
 11
16.62499999999999
 21
0.25
 31
0.0
  0
LINE
  5
C5
330
18
100
AcDbEntity
  8
Title Block
100
AcDbLine
 10
16.25
 20
2.75
 30
0.0
 11
16.25
 21
0.5000000000000002
 31
0.0
  0
LINE
  5
C6
330
18
100
AcDbEntity
  8
Title Block
100
AcDbLine
 10
15.5
 20
2.75
 30
0.0
 11
15.5
 21
0.25
 31
0.0
  0
LINE
  5
C7
330
18
100
AcDbEntity
  8
Title Block
100
AcDbLine
 10
20.25
 20
0.75
 30
0.0
 11
20.25
 21
1.499999999999999
 31
0.0
  0
LINE
  5
C8
330
18
100
AcDbEntity
  8
Title Block
100
AcDbLine
 10
20.25
 20
0.75
 30
0.0
 11
20.25
 21
0.25
 31
0.0
  0
LINE
  5
C9
330
18
100
AcDbEntity
  8
Title Block
100
AcDbLine
 10
20.25
 20
0.75
 30
0.0
 11
21.75
 21
0.75
 31
0.0
  0
LINE
  5
CA
330
18
100
AcDbEntity
  8
Title Block
100
AcDbLine
 10
18.49999999999999
 20
0.5
 30
0.0
 11
18.49999999999999
 21
0.25
 31
0.0
  0
LINE
  5
CB
330
18
100
AcDbEntity
  8
Title Block
100
AcDbLine
 10
18.49999999999999
 20
0.5
 30
0.0
 11
18.49999999999999
 21
1.0
 31
0.0
  0
LINE
  5
CD
330
18
100
AcDbEntity
  8
Title Block
100
AcDbLine
 10
21.25
 20
0.75
 30
0.0
 11
21.25
 21
0.25
 31
0.0
  0
LWPOLYLINE
  5
F8
330
18
100
AcDbEntity
  8
Title Block
100
AcDbPolyline
 90
        4
 70
     1
 43
0.01
 10
21.75
 20
16.75
 10
21.75
 20
0.25
 10
0.25
 20
0.25
 10
0.250000000000001
 20
16.75
  0
POINT
  5
FC
330
18
100
AcDbEntity
  8
Title Block
100
AcDbPoint
 10
22.0
 20
0.0
 30
0.0
  0
POINT
  5
FF
330
18
100
AcDbEntity
  8
Title Block
100
AcDbPoint
 10
22.0
 20
17.0
 30
0.0
  0
POINT
  5
102
330
18
100
AcDbEntity
  8
Title Block
100
AcDbPoint
 10
0.000000000000001
 20
17.0
 30
0.0
  0
POINT
  5
105
330
18
100
AcDbEntity
  8
Title Block
100
AcDbPoint
 10
0.0
 20
0.0
 30
0.0
  0
MTEXT
  5
12C
330
18
100
AcDbEntity
  8
Text
100
AcDbMText
 10
11.37324893148254
 20
0.6275685908585027
 30
0.0
 40
0.09
 41
0.25
 71
     5
 72
     5
  1
R
 73
     1
 44
1.0
1001
ACAD
1000
MTEXTBEGIN
1070
    73
1070
     1
1070
    44
1040
1.0
1070
    74
1070
     0
1000
MTEXTEND
  0
MTEXT
  5
12D
330
18
100
AcDbEntity
  8
Text
100
AcDbMText
 10
11.74824893148254
 20
0.6275685908585027
 30
0.0
 40
0.07
 41
0.5
 71
     5
 72
     5
  1
7-5-07
 73
     1
 44
1.0
1001
ACAD
1000
MTEXTBEGIN
1070
    73
1070
     1
1070
    44
1040
1.0
1070
    74
1070
     0
1000
MTEXTEND
  0
MTEXT
  5
12E
330
18
100
AcDbEntity
  8
Text
100
AcDbMText
 10
12.18574893148254
 20
0.6275685908585027
 30
0.0
 40
0.09
 41
0.375
 71
     5
 72
     5
  1
DTP
 73
     1
 44
1.0
1001
ACAD
1000
MTEXTBEGIN
1070
    73
1070
     1
1070
    44
1040
1.0
1070
    74
1070
     0
1000
MTEXTEND
  0
MTEXT
  5
130
330
18
100
AcDbEntity
  8
Text
100
AcDbMText
 10
14.12324893148254
 20
0.6275685908585023
 30
0.0
 40
0.09
 41
2.75
 71
     5
 72
     5
  1
DRAWING RELEASED
 73
     1
 44
1.0
1001
ACAD
1000
MTEXTBEGIN
1070
    73
1070
     1
1070
    44
1040
1.0
1070
    74
1070
     0
1000
MTEXTEND
  0
MTEXT
  5
133
330
18
100
AcDbEntity
  8
Text
100
AcDbMText
 10
18.47324893148254
 20
0.8525685908585018
 30
0.0
 40
0.09
 41
0.75
 71
     6
 72
     5
  1
DTP
 73
     1
 44
1.0
1001
ACAD
1000
MTEXTBEGIN
1070
    73
1070
     1
1070
    44
1040
1.0
1070
    74
1070
     0
1000
MTEXTEND
  0
MTEXT
  5
134
330
18
100
AcDbEntity
  8
Text
100
AcDbMText
 10
18.47324893148254
 20
0.6025685908585017
 30
0.0
 40
0.09
 41
0.75
 71
     6
 72
     5
  1
7-5-07
 73
     1
 44
1.0
1001
ACAD
1000
MTEXTBEGIN
1070
    73
1070
     1
1070
    44
1040
1.0
1070
    74
1070
     0
1000
MTEXTEND
  0
MTEXT
  5
135
330
18
100
AcDbEntity
  8
Text
100
AcDbMText
 10
18.47324893148254
 20
0.3525685908585019
 30
0.0
 40
0.09
 41
0.75
 71
     6
 72
     5
  1
DJWA
 73
     1
 44
1.0
1001
ACAD
1000
MTEXTBEGIN
1070
    73
1070
     1
1070
    44
1040
1.0
1070
    74
1070
     0
1000
MTEXTEND
  0
MTEXT
  5
136
330
18
100
AcDbEntity
  8
Text
100
AcDbMText
 10
19.74824893148254
 20
2.627568590858501
 30
0.0
 40
0.09
 41
4.0
 71
     5
 72
     5
  1
FR1.5IDE.dwg
 73
     1
 44
1.0
1001
ACAD
1000
MTEXTBEGIN
1070
    73
1070
     1
1070
    44
1040
1.0
1070
    74
1070
     0
1000
MTEXTEND
  0
MTEXT
  5
137
330
18
100
AcDbEntity
  8
Text
100
AcDbMText
 10
19.74824893148254
 20
1.752568590858501
 30
0.0
 40
0.09
 41
4.0
 71
     5
 72
     5
  1
{\H0.7778x;FIBER-DUCT 4x4, FIBERRUNNER 4x4, 6x4 AND 12x4 1-PORT SIDE EXIT \PSPILL-OUT TO 1\H0.7x;\S1#2;\H1.429x;" I.D. CORRUGATED LOOM TUBING (FR1.5IDE) }\P{\H0.7778x;MARKETING DRAWING}
 73
     1
 44
1.0
1001
ACAD
1000
MTEXTBEGIN
1070
    73
1070
     1
1070
    44
1040
1.0
1070
    74
1070
     1
1000
MTEXTEND
  0
MTEXT
  5
138
330
18
100
AcDbEntity
  8
Text
100
AcDbMText
 10
20.99824893148254
 20
0.8775685908585016
 30
0.0
 40
0.12
 41
1.5
 71
     5
 72
     5
  1
FULL
 73
     1
 44
1.0
1001
ACAD
1000
MTEXTBEGIN
1070
    73
1070
     1
1070
    44
1040
1.0
1070
    74
1070
     0
1000
MTEXTEND
  0
MTEXT
  5
139
330
18
100
AcDbEntity
  8
Text
100
AcDbMText
 10
20.74824893148254
 20
0.5025685908585018
 30
0.0
 40
0.12
 41
1.0
 71
     5
 72
     5
  1
36897-1205
 73
     1
 44
1.0
1001
ACAD
1000
MTEXTBEGIN
1070
    73
1070
     1
1070
    44
1040
1.0
1070
    74
1070
     0
1000
MTEXTEND
  0
MTEXT
  5
2AA
330
18
100
AcDbEntity
  8
Text
100
AcDbMText
 10
16.24701775267034
 20
16.19051678843726
 30
0.0
 40
0.09
 41
4.681630267770938
 71
     1
 72
     5
  1
{\LNOTES:}\P\P1. THE FIBER-DUCT 4x4, FIBERRUNNER 4x4, 6x4 AND 12x4 1-PORT SIDE EXIT \P   SPILL-OUT TO 1{\H0.7x;\S1#2;}" I.D. CORRUGATED LOOM TUBING INCLUDES:\P   ONE (1) SPILL-OUT,\P   ONE (1) RETAINER,\P   ONE (1) DRILLING TEMPLATE.
 73
     1
 44
1.0
1001
ACAD
1000
MTEXTBEGIN
1070
    73
1070
     1
1070
    44
1040
1.0
1070
    74
1070
     1
1000
MTEXTEND
  0
TEXT
  5
2AB
330
18
100
AcDbEntity
  8
Text
100
AcDbText
 10
4.901488944413912
 20
9.803207801518965
 30
0.0
 40
0.125
  1
TOP VIEW
100
AcDbText
  0
TEXT
  5
2AC
330
18
100
AcDbEntity
  8
Text
100
AcDbText
 10
4.780904308817953
 20
4.453458335880831
 30
0.0
 40
0.125
  1
FRONT VIEW
100
AcDbText
  0
TEXT
  5
2AD
330
18
100
AcDbEntity
  8
Text
100
AcDbText
 10
15.29554860605758
 20
4.493239096015535
 30
0.0
 40
0.125
  1
RIGHT SIDE VIEW
100
AcDbText
  0
MTEXT
  5
2BE
330
18
100
AcDbEntity
  8
Text
100
AcDbMText
 10
12.5604002814227
 20
0.626249074032665
 30
0.0
 40
0.07
 41
0.375
 71
     5
 72
     5
  1
DJWA
 73
     1
 44
1.0
1001
ACAD
1000
MTEXTBEGIN
1070
    73
1070
     1
1070
    44
1040
1.0
1070
    74
1070
     0
1000
MTEXTEND
  0
LINE
  5
2CD
330
18
100
AcDbEntity
  8
Object
100
AcDbLine
 10
18.648
 20
6.504032960345727
 30
0.0
 11
18.645
 21
6.504032960345727
 31
0.0
  0
LINE
  5
2CE
330
18
100
AcDbEntity
  8
Object
100
AcDbLine
 10
18.645
 20
6.504032960345727
 30
0.0
 11
18.638
 21
6.504032960345727
 31
0.0
  0
LINE
  5
2CF
330
18
100
AcDbEntity
  8
Object
100
AcDbLine
 10
18.638
 20
6.504032960345727
 30
0.0
 11
18.627
 21
6.504032960345727
 31
0.0
  0
LINE
  5
2D0
330
18
100
AcDbEntity
  8
Object
100
AcDbLine
 10
18.627
 20
6.504032960345727
 30
0.0
 11
18.612
 21
6.504032960345727
 31
0.0
  0
LINE
  5
2D1
330
18
100
AcDbEntity
  8
Object
100
AcDbLine
 10
18.612
 20
6.504032960345727
 30
0.0
 11
18.575
 21
6.504032960345727
 31
0.0
  0
LINE
  5
2D2
330
18
100
AcDbEntity
  8
Object
100
AcDbLine
 10
18.575
 20
6.504032960345727
 30
0.0
 11
18.535
 21
6.504032960345727
 31
0.0
  0
LINE
  5
2D3
330
18
100
AcDbEntity
  8
Object
100
AcDbLine
 10
18.535
 20
6.504032960345727
 30
0.0
 11
13.431
 21
6.504032960345727
 31
0.0
  0
LINE
  5
2D4
330
18
100
AcDbEntity
  8
Object
100
AcDbLine
 10
13.431
 20
6.504032960345727
 30
0.0
 11
13.39
 21
6.504032960345727
 31
0.0
  0
LINE
  5
2D5
330
18
100
AcDbEntity
  8
Object
100
AcDbLine
 10
13.39
 20
6.504032960345727
 30
0.0
 11
13.354
 21
6.504032960345727
 31
0.0
  0
LINE
  5
2D6
330
18
100
AcDbEntity
  8
Object
100
AcDbLine
 10
13.354
 20
6.504032960345727
 30
0.0
 11
13.339
 21
6.504032960345727
 31
0.0
  0
LINE
  5
2D7
330
18
100
AcDbEntity
  8
Object
100
AcDbLine
 10
13.339
 20
6.504032960345727
 30
0.0
 11
13.327
 21
6.504032960345727
 31
0.0
  0
LINE
  5
2D8
330
18
100
AcDbEntity
  8
Object
100
AcDbLine
 10
13.327
 20
6.504032960345727
 30
0.0
 11
13.32
 21
6.504032960345727
 31
0.0
  0
LINE
  5
2D9
330
18
100
AcDbEntity
  8
Object
100
AcDbLine
 10
13.32
 20
6.504032960345727
 30
0.0
 11
13.318
 21
6.504032960345727
 31
0.0
  0
LINE
  5
2DA
330
18
100
AcDbEntity
  8
Object
100
AcDbLine
 10
18.157
 20
6.930032960345728
 30
0.0
 11
18.152
 21
6.933032960345728
 31
0.0
  0
LINE
  5
2DB
330
18
100
AcDbEntity
  8
Object
100
AcDbLine
 10
18.262
 20
6.880032960345728
 30
0.0
 11
18.266
 21
6.879032960345727
 31
0.0
  0
LINE
  5
2DC
330
18
100
AcDbEntity
  8
Object
100
AcDbLine
 10
18.266
 20
6.879032960345727
 30
0.0
 11
18.265
 21
6.879032960345727
 31
0.0
  0
LINE
  5
2DD
330
18
100
AcDbEntity
  8
Object
100
AcDbLine
 10
18.028
 20
6.972032960345727
 30
0.0
 11
18.037
 21
6.972032960345727
 31
0.0
  0
LINE
  5
2DE
330
18
100
AcDbEntity
  8
Object
100
AcDbLine
 10
18.152
 20
6.933032960345728
 30
0.0
 11
18.14
 21
6.936032960345728
 31
0.0
  0
LINE
  5
2DF
330
18
100
AcDbEntity
  8
Object
100
AcDbLine
 10
17.916
 20
6.994032960345728
 30
0.0
 11
17.908
 21
6.996032960345727
 31
0.0
  0
LINE
  5
2E0
330
18
100
AcDbEntity
  8
Object
100
AcDbLine
 10
18.032
 20
6.972032960345727
 30
0.0
 11
18.029
 21
6.972032960345727
 31
0.0
  0
LINE
  5
2E1
330
18
100
AcDbEntity
  8
Object
100
AcDbLine
 10
17.908
 20
6.996032960345727
 30
0.0
 11
17.899
 21
6.996032960345727
 31
0.0
  0
LINE
  5
2E2
330
18
100
AcDbEntity
  8
Object
100
AcDbLine
 10
14.064
 20
6.996032960345727
 30
0.0
 11
14.058
 21
6.996032960345727
 31
0.0
  0
LINE
  5
2E3
330
18
100
AcDbEntity
  8
Object
100
AcDbLine
 10
14.058
 20
6.996032960345727
 30
0.0
 11
14.053
 21
6.995032960345728
 31
0.0
  0
LINE
  5
2E4
330
18
100
AcDbEntity
  8
Object
100
AcDbLine
 10
13.825
 20
6.936032960345728
 30
0.0
 11
13.814
 21
6.933032960345728
 31
0.0
  0
LINE
  5
2E5
330
18
100
AcDbEntity
  8
Object
100
AcDbLine
 10
13.703
 20
6.880032960345728
 30
0.0
 11
13.7
 21
6.879032960345727
 31
0.0
  0
LINE
  5
2E6
330
18
100
AcDbEntity
  8
Object
100
AcDbLine
 10
13.814
 20
6.933032960345728
 30
0.0
 11
13.808
 21
6.930032960345728
 31
0.0
  0
LINE
  5
2E7
330
18
100
AcDbEntity
  8
Object
100
AcDbLine
 10
13.696
 20
6.879032960345727
 30
0.0
 11
13.705
 21
6.879032960345727
 31
0.0
  0
LINE
  5
2E8
330
18
100
AcDbEntity
  8
Object
100
AcDbLine
 10
13.626
 20
6.834032960345727
 30
0.0
 11
13.621
 21
6.831032960345727
 31
0.0
  0
LINE
  5
2E9
330
18
100
AcDbEntity
  8
Object
100
AcDbLine
 10
13.7
 20
6.879032960345727
 30
0.0
 11
13.697
 21
6.877032960345728
 31
0.0
  0
LINE
  5
2EA
330
18
100
AcDbEntity
  8
Object
100
AcDbLine
 10
13.558
 20
6.783032960345727
 30
0.0
 11
13.549
 21
6.776032960345728
 31
0.0
  0
LINE
  5
2EB
330
18
100
AcDbEntity
  8
Object
100
AcDbLine
 10
13.621
 20
6.831032960345727
 30
0.0
 11
13.6
 21
6.815032960345727
 31
0.0
  0
LINE
  5
2EC
330
18
100
AcDbEntity
  8
Object
100
AcDbLine
 10
13.485
 20
6.719032960345727
 30
0.0
 11
13.482
 21
6.716032960345728
 31
0.0
  0
LINE
  5
2ED
330
18
100
AcDbEntity
  8
Object
100
AcDbLine
 10
13.549
 20
6.776032960345728
 30
0.0
 11
13.542
 21
6.770032960345727
 31
0.0
  0
LINE
  5
2EE
330
18
100
AcDbEntity
  8
Object
100
AcDbLine
 10
13.462
 20
6.696032960345728
 30
0.0
 11
13.452
 21
6.685032960345727
 31
0.0
  0
LINE
  5
2EF
330
18
100
AcDbEntity
  8
Object
100
AcDbLine
 10
13.482
 20
6.716032960345728
 30
0.0
 11
13.48
 21
6.714032960345727
 31
0.0
  0
LINE
  5
2F0
330
18
100
AcDbEntity
  8
Object
100
AcDbLine
 10
13.452
 20
6.685032960345727
 30
0.0
 11
13.424
 21
6.655032960345728
 31
0.0
  0
LINE
  5
2F1
330
18
100
AcDbEntity
  8
Object
100
AcDbLine
 10
13.424
 20
6.655032960345728
 30
0.0
 11
13.4
 21
6.624032960345727
 31
0.0
  0
LINE
  5
2F2
330
18
100
AcDbEntity
  8
Object
100
AcDbLine
 10
13.385
 20
6.606032960345728
 30
0.0
 11
13.378
 21
6.596032960345728
 31
0.0
  0
LINE
  5
2F3
330
18
100
AcDbEntity
  8
Object
100
AcDbLine
 10
13.4
 20
6.624032960345727
 30
0.0
 11
13.394
 21
6.617032960345728
 31
0.0
  0
LINE
  5
2F4
330
18
100
AcDbEntity
  8
Object
100
AcDbLine
 10
13.378
 20
6.596032960345728
 30
0.0
 11
13.36
 21
6.570032960345728
 31
0.0
  0
LINE
  5
2F5
330
18
100
AcDbEntity
  8
Object
100
AcDbLine
 10
13.36
 20
6.570032960345728
 30
0.0
 11
13.344
 21
6.548032960345728
 31
0.0
  0
LINE
  5
2F6
330
18
100
AcDbEntity
  8
Object
100
AcDbLine
 10
13.344
 20
6.548032960345728
 30
0.0
 11
13.333
 21
6.529032960345728
 31
0.0
  0
LINE
  5
2F7
330
18
100
AcDbEntity
  8
Object
100
AcDbLine
 10
13.333
 20
6.529032960345728
 30
0.0
 11
13.324
 21
6.515032960345727
 31
0.0
  0
LINE
  5
2F8
330
18
100
AcDbEntity
  8
Object
100
AcDbLine
 10
13.324
 20
6.515032960345727
 30
0.0
 11
13.319
 21
6.507032960345727
 31
0.0
  0
LINE
  5
2F9
330
18
100
AcDbEntity
  8
Object
100
AcDbLine
 10
13.319
 20
6.507032960345727
 30
0.0
 11
13.318
 21
6.504032960345727
 31
0.0
  0
LINE
  5
2FA
330
18
100
AcDbEntity
  8
Object
100
AcDbLine
 10
18.64
 20
6.516032960345728
 30
0.0
 11
18.633
 21
6.529032960345728
 31
0.0
  0
LINE
  5
2FB
330
18
100
AcDbEntity
  8
Object
100
AcDbLine
 10
18.633
 20
6.529032960345728
 30
0.0
 11
18.624
 21
6.542032960345728
 31
0.0
  0
LINE
  5
2FC
330
18
100
AcDbEntity
  8
Object
100
AcDbLine
 10
18.606
 20
6.570032960345728
 30
0.0
 11
18.588
 21
6.596032960345728
 31
0.0
  0
LINE
  5
2FD
330
18
100
AcDbEntity
  8
Object
100
AcDbLine
 10
18.588
 20
6.596032960345728
 30
0.0
 11
18.584
 21
6.600032960345727
 31
0.0
  0
LINE
  5
2FE
330
18
100
AcDbEntity
  8
Object
100
AcDbLine
 10
18.525
 20
6.672032960345728
 30
0.0
 11
18.514
 21
6.685032960345727
 31
0.0
  0
LINE
  5
2FF
330
18
100
AcDbEntity
  8
Object
100
AcDbLine
 10
18.514
 20
6.685032960345727
 30
0.0
 11
18.484
 21
6.716032960345728
 31
0.0
  0
LINE
  5
300
330
18
100
AcDbEntity
  8
Object
100
AcDbLine
 10
18.432
 20
6.762032960345727
 30
0.0
 11
18.418
 21
6.776032960345728
 31
0.0
  0
LINE
  5
301
330
18
100
AcDbEntity
  8
Object
100
AcDbLine
 10
18.484
 20
6.716032960345728
 30
0.0
 11
18.464
 21
6.733032960345727
 31
0.0
  0
LINE
  5
302
330
18
100
AcDbEntity
  8
Object
100
AcDbLine
 10
18.357
 20
6.821032960345728
 30
0.0
 11
18.345
 21
6.830032960345728
 31
0.0
  0
LINE
  5
303
330
18
100
AcDbEntity
  8
Object
100
AcDbLine
 10
18.418
 20
6.776032960345728
 30
0.0
 11
18.404
 21
6.786032960345727
 31
0.0
  0
LINE
  5
304
330
18
100
AcDbEntity
  8
Object
100
AcDbLine
 10
18.268
 20
6.877032960345728
 30
0.0
 11
18.266
 21
6.879032960345727
 31
0.0
  0
LINE
  5
305
330
18
100
AcDbEntity
  8
Object
100
AcDbLine
 10
18.345
 20
6.830032960345728
 30
0.0
 11
18.341
 21
6.832032960345728
 31
0.0
  0
LINE
  5
306
330
18
100
AcDbEntity
  8
Object
100
AcDbLine
 10
17.999
 20
6.884032960345727
 30
0.0
 11
18.107
 21
6.850032960345727
 31
0.0
  0
LINE
  5
307
330
18
100
AcDbEntity
  8
Object
100
AcDbLine
 10
18.107
 20
6.850032960345727
 30
0.0
 11
18.21
 21
6.803032960345728
 31
0.0
  0
LINE
  5
308
330
18
100
AcDbEntity
  8
Object
100
AcDbLine
 10
18.21
 20
6.803032960345728
 30
0.0
 11
18.306
 21
6.742032960345728
 31
0.0
  0
LINE
  5
309
330
18
100
AcDbEntity
  8
Object
100
AcDbLine
 10
18.306
 20
6.742032960345728
 30
0.0
 11
18.393
 21
6.671032960345728
 31
0.0
  0
LINE
  5
30A
330
18
100
AcDbEntity
  8
Object
100
AcDbLine
 10
18.393
 20
6.671032960345728
 30
0.0
 11
18.47
 21
6.591032960345728
 31
0.0
  0
LINE
  5
30B
330
18
100
AcDbEntity
  8
Object
100
AcDbLine
 10
17.999
 20
6.884032960345727
 30
0.0
 11
17.89
 21
6.904032960345728
 31
0.0
  0
LINE
  5
30C
330
18
100
AcDbEntity
  8
Object
100
AcDbLine
 10
17.89
 20
6.904032960345728
 30
0.0
 11
17.782
 21
6.911032960345727
 31
0.0
  0
LINE
  5
30D
330
18
100
AcDbEntity
  8
Object
100
AcDbLine
 10
18.535
 20
6.504032960345727
 30
0.0
 11
18.47
 21
6.591032960345728
 31
0.0
  0
LINE
  5
30E
330
18
100
AcDbEntity
  8
Object
100
AcDbLine
 10
13.756
 20
6.803032960345728
 30
0.0
 11
13.859
 21
6.850032960345727
 31
0.0
  0
LINE
  5
30F
330
18
100
AcDbEntity
  8
Object
100
AcDbLine
 10
13.859
 20
6.850032960345727
 30
0.0
 11
13.966
 21
6.884032960345727
 31
0.0
  0
LINE
  5
310
330
18
100
AcDbEntity
  8
Object
100
AcDbLine
 10
13.756
 20
6.803032960345728
 30
0.0
 11
13.659
 21
6.742032960345728
 31
0.0
  0
LINE
  5
311
330
18
100
AcDbEntity
  8
Object
100
AcDbLine
 10
13.659
 20
6.742032960345728
 30
0.0
 11
13.572
 21
6.671032960345728
 31
0.0
  0
LINE
  5
312
330
18
100
AcDbEntity
  8
Object
100
AcDbLine
 10
13.966
 20
6.884032960345727
 30
0.0
 11
14.075
 21
6.904032960345728
 31
0.0
  0
LINE
  5
313
330
18
100
AcDbEntity
  8
Object
100
AcDbLine
 10
14.075
 20
6.904032960345728
 30
0.0
 11
14.184
 21
6.911032960345727
 31
0.0
  0
LINE
  5
314
330
18
100
AcDbEntity
  8
Object
100
AcDbLine
 10
13.572
 20
6.671032960345728
 30
0.0
 11
13.495
 21
6.591032960345728
 31
0.0
  0
LINE
  5
315
330
18
100
AcDbEntity
  8
Object
100
AcDbLine
 10
18.535
 20
6.504032960345727
 30
0.0
 11
13.431
 21
6.504032960345727
 31
0.0
  0
LINE
  5
316
330
18
100
AcDbEntity
  8
Object
100
AcDbLine
 10
13.431
 20
6.504032960345727
 30
0.0
 11
13.495
 21
6.591032960345728
 31
0.0
  0
LINE
  5
317
330
18
100
AcDbEntity
  8
Object
100
AcDbLine
 10
17.782
 20
6.911032960345727
 30
0.0
 11
14.184
 21
6.911032960345727
 31
0.0
  0
LINE
  5
318
330
18
100
AcDbEntity
  8
Object
100
AcDbLine
 10
18.615
 20
6.557032960345727
 30
0.0
 11
18.648
 21
6.504032960345727
 31
0.0
  0
LINE
  5
319
330
18
100
AcDbEntity
  8
Object
100
AcDbLine
 10
18.648
 20
6.504032960345727
 30
0.0
 11
18.645
 21
6.504032960345727
 31
0.0
  0
LINE
  5
31A
330
18
100
AcDbEntity
  8
Object
100
AcDbLine
 10
18.615
 20
6.557032960345727
 30
0.0
 11
18.578
 21
6.609032960345728
 31
0.0
  0
LINE
  5
31B
330
18
100
AcDbEntity
  8
Object
100
AcDbLine
 10
18.645
 20
6.504032960345727
 30
0.0
 11
18.638
 21
6.504032960345727
 31
0.0
  0
LINE
  5
31C
330
18
100
AcDbEntity
  8
Object
100
AcDbLine
 10
18.638
 20
6.504032960345727
 30
0.0
 11
18.627
 21
6.504032960345727
 31
0.0
  0
LINE
  5
31D
330
18
100
AcDbEntity
  8
Object
100
AcDbLine
 10
18.627
 20
6.504032960345727
 30
0.0
 11
18.612
 21
6.504032960345727
 31
0.0
  0
LINE
  5
31E
330
18
100
AcDbEntity
  8
Object
100
AcDbLine
 10
18.578
 20
6.609032960345728
 30
0.0
 11
18.537
 21
6.660032960345728
 31
0.0
  0
LINE
  5
31F
330
18
100
AcDbEntity
  8
Object
100
AcDbLine
 10
18.612
 20
6.504032960345727
 30
0.0
 11
18.575
 21
6.504032960345727
 31
0.0
  0
LINE
  5
320
330
18
100
AcDbEntity
  8
Object
100
AcDbLine
 10
18.575
 20
6.504032960345727
 30
0.0
 11
18.535
 21
6.504032960345727
 31
0.0
  0
LINE
  5
321
330
18
100
AcDbEntity
  8
Object
100
AcDbLine
 10
18.537
 20
6.660032960345728
 30
0.0
 11
18.492
 21
6.708032960345728
 31
0.0
  0
LINE
  5
322
330
18
100
AcDbEntity
  8
Object
100
AcDbLine
 10
18.492
 20
6.708032960345728
 30
0.0
 11
18.444
 21
6.753032960345728
 31
0.0
  0
LINE
  5
323
330
18
100
AcDbEntity
  8
Object
100
AcDbLine
 10
18.444
 20
6.753032960345728
 30
0.0
 11
18.393
 21
6.795032960345728
 31
0.0
  0
LINE
  5
324
330
18
100
AcDbEntity
  8
Object
100
AcDbLine
 10
18.393
 20
6.795032960345728
 30
0.0
 11
18.339
 21
6.834032960345727
 31
0.0
  0
LINE
  5
325
330
18
100
AcDbEntity
  8
Object
100
AcDbLine
 10
18.339
 20
6.834032960345727
 30
0.0
 11
18.282
 21
6.870032960345728
 31
0.0
  0
LINE
  5
326
330
18
100
AcDbEntity
  8
Object
100
AcDbLine
 10
18.282
 20
6.870032960345728
 30
0.0
 11
18.223
 21
6.901032960345728
 31
0.0
  0
LINE
  5
327
330
18
100
AcDbEntity
  8
Object
100
AcDbLine
 10
18.223
 20
6.901032960345728
 30
0.0
 11
18.162
 21
6.929032960345728
 31
0.0
  0
LINE
  5
328
330
18
100
AcDbEntity
  8
Object
100
AcDbLine
 10
18.162
 20
6.929032960345728
 30
0.0
 11
18.1
 21
6.952032960345728
 31
0.0
  0
LINE
  5
329
330
18
100
AcDbEntity
  8
Object
100
AcDbLine
 10
18.1
 20
6.952032960345728
 30
0.0
 11
18.036
 21
6.971032960345728
 31
0.0
  0
LINE
  5
32A
330
18
100
AcDbEntity
  8
Object
100
AcDbLine
 10
18.036
 20
6.971032960345728
 30
0.0
 11
17.972
 21
6.986032960345728
 31
0.0
  0
LINE
  5
32B
330
18
100
AcDbEntity
  8
Object
100
AcDbLine
 10
17.972
 20
6.986032960345728
 30
0.0
 11
17.908
 21
6.996032960345727
 31
0.0
  0
LINE
  5
32C
330
18
100
AcDbEntity
  8
Object
100
AcDbLine
 10
17.908
 20
6.996032960345727
 30
0.0
 11
17.845
 21
7.002032960345728
 31
0.0
  0
LINE
  5
32D
330
18
100
AcDbEntity
  8
Object
100
AcDbLine
 10
17.845
 20
7.002032960345728
 30
0.0
 11
17.782
 21
7.004032960345727
 31
0.0
  0
LINE
  5
32E
330
18
100
AcDbEntity
  8
Object
100
AcDbLine
 10
14.121
 20
7.002032960345728
 30
0.0
 11
14.184
 21
7.004032960345727
 31
0.0
  0
LINE
  5
32F
330
18
100
AcDbEntity
  8
Object
100
AcDbLine
 10
14.184
 20
7.004032960345727
 30
0.0
 11
14.184
 21
6.997032960345728
 31
0.0
  0
LINE
  5
330
330
18
100
AcDbEntity
  8
Object
100
AcDbLine
 10
14.184
 20
6.911032960345727
 30
0.0
 11
14.184
 21
6.947032960345728
 31
0.0
  0
LINE
  5
331
330
18
100
AcDbEntity
  8
Object
100
AcDbLine
 10
14.184
 20
6.947032960345728
 30
0.0
 11
14.184
 21
6.977032960345727
 31
0.0
  0
LINE
  5
332
330
18
100
AcDbEntity
  8
Object
100
AcDbLine
 10
14.121
 20
7.002032960345728
 30
0.0
 11
14.057
 21
6.996032960345727
 31
0.0
  0
LINE
  5
333
330
18
100
AcDbEntity
  8
Object
100
AcDbLine
 10
14.184
 20
6.977032960345727
 30
0.0
 11
14.184
 21
6.997032960345728
 31
0.0
  0
LINE
  5
334
330
18
100
AcDbEntity
  8
Object
100
AcDbLine
 10
14.057
 20
6.996032960345727
 30
0.0
 11
13.993
 21
6.986032960345728
 31
0.0
  0
LINE
  5
335
330
18
100
AcDbEntity
  8
Object
100
AcDbLine
 10
13.993
 20
6.986032960345728
 30
0.0
 11
13.929
 21
6.971032960345728
 31
0.0
  0
LINE
  5
336
330
18
100
AcDbEntity
  8
Object
100
AcDbLine
 10
13.929
 20
6.971032960345728
 30
0.0
 11
13.866
 21
6.952032960345728
 31
0.0
  0
LINE
  5
337
330
18
100
AcDbEntity
  8
Object
100
AcDbLine
 10
13.866
 20
6.952032960345728
 30
0.0
 11
13.804
 21
6.929032960345728
 31
0.0
  0
LINE
  5
338
330
18
100
AcDbEntity
  8
Object
100
AcDbLine
 10
13.804
 20
6.929032960345728
 30
0.0
 11
13.743
 21
6.901032960345728
 31
0.0
  0
LINE
  5
339
330
18
100
AcDbEntity
  8
Object
100
AcDbLine
 10
13.743
 20
6.901032960345728
 30
0.0
 11
13.684
 21
6.870032960345728
 31
0.0
  0
LINE
  5
33A
330
18
100
AcDbEntity
  8
Object
100
AcDbLine
 10
13.684
 20
6.870032960345728
 30
0.0
 11
13.627
 21
6.834032960345727
 31
0.0
  0
LINE
  5
33B
330
18
100
AcDbEntity
  8
Object
100
AcDbLine
 10
13.627
 20
6.834032960345727
 30
0.0
 11
13.573
 21
6.795032960345728
 31
0.0
  0
LINE
  5
33C
330
18
100
AcDbEntity
  8
Object
100
AcDbLine
 10
13.573
 20
6.795032960345728
 30
0.0
 11
13.521
 21
6.753032960345728
 31
0.0
  0
LINE
  5
33D
330
18
100
AcDbEntity
  8
Object
100
AcDbLine
 10
13.521
 20
6.753032960345728
 30
0.0
 11
13.473
 21
6.708032960345728
 31
0.0
  0
LINE
  5
33E
330
18
100
AcDbEntity
  8
Object
100
AcDbLine
 10
13.473
 20
6.708032960345728
 30
0.0
 11
13.429
 21
6.660032960345728
 31
0.0
  0
LINE
  5
33F
330
18
100
AcDbEntity
  8
Object
100
AcDbLine
 10
13.39
 20
6.504032960345727
 30
0.0
 11
13.431
 21
6.504032960345727
 31
0.0
  0
LINE
  5
340
330
18
100
AcDbEntity
  8
Object
100
AcDbLine
 10
13.429
 20
6.660032960345728
 30
0.0
 11
13.388
 21
6.609032960345728
 31
0.0
  0
LINE
  5
341
330
18
100
AcDbEntity
  8
Object
100
AcDbLine
 10
13.354
 20
6.504032960345727
 30
0.0
 11
13.39
 21
6.504032960345727
 31
0.0
  0
LINE
  5
342
330
18
100
AcDbEntity
  8
Object
100
AcDbLine
 10
13.388
 20
6.609032960345728
 30
0.0
 11
13.351
 21
6.557032960345727
 31
0.0
  0
LINE
  5
343
330
18
100
AcDbEntity
  8
Object
100
AcDbLine
 10
13.354
 20
6.504032960345727
 30
0.0
 11
13.339
 21
6.504032960345727
 31
0.0
  0
LINE
  5
344
330
18
100
AcDbEntity
  8
Object
100
AcDbLine
 10
13.339
 20
6.504032960345727
 30
0.0
 11
13.327
 21
6.504032960345727
 31
0.0
  0
LINE
  5
345
330
18
100
AcDbEntity
  8
Object
100
AcDbLine
 10
13.327
 20
6.504032960345727
 30
0.0
 11
13.32
 21
6.504032960345727
 31
0.0
  0
LINE
  5
346
330
18
100
AcDbEntity
  8
Object
100
AcDbLine
 10
13.32
 20
6.504032960345727
 30
0.0
 11
13.318
 21
6.504032960345727
 31
0.0
  0
LINE
  5
347
330
18
100
AcDbEntity
  8
Object
100
AcDbLine
 10
13.318
 20
6.504032960345727
 30
0.0
 11
13.351
 21
6.557032960345727
 31
0.0
  0
LINE
  5
348
330
18
100
AcDbEntity
  8
Object
100
AcDbLine
 10
14.184
 20
7.004032960345727
 30
0.0
 11
14.121
 21
7.002032960345728
 31
0.0
  0
LINE
  5
349
330
18
100
AcDbEntity
  8
Object
100
AcDbLine
 10
14.121
 20
7.002032960345728
 30
0.0
 11
14.058
 21
6.996032960345727
 31
0.0
  0
LINE
  5
34A
330
18
100
AcDbEntity
  8
Object
100
AcDbLine
 10
14.058
 20
6.996032960345727
 30
0.0
 11
14.064
 21
6.996032960345727
 31
0.0
  0
LINE
  5
34B
330
18
100
AcDbEntity
  8
Object
100
AcDbLine
 10
14.058
 20
6.996032960345727
 30
0.0
 11
14.121
 21
7.002032960345728
 31
0.0
  0
LINE
  5
34C
330
18
100
AcDbEntity
  8
Object
100
AcDbLine
 10
14.121
 20
7.002032960345728
 30
0.0
 11
14.057
 21
6.996032960345727
 31
0.0
  0
LINE
  5
34D
330
18
100
AcDbEntity
  8
Object
100
AcDbLine
 10
14.057
 20
6.996032960345727
 30
0.0
 11
13.993
 21
6.986032960345728
 31
0.0
  0
LINE
  5
34E
330
18
100
AcDbEntity
  8
Object
100
AcDbLine
 10
13.993
 20
6.986032960345728
 30
0.0
 11
14.058
 21
6.996032960345727
 31
0.0
  0
LINE
  5
34F
330
18
100
AcDbEntity
  8
Object
100
AcDbLine
 10
14.058
 20
6.996032960345727
 30
0.0
 11
13.993
 21
6.986032960345728
 31
0.0
  0
LINE
  5
350
330
18
100
AcDbEntity
  8
Object
100
AcDbLine
 10
14.053
 20
6.995032960345728
 30
0.0
 11
14.058
 21
6.996032960345727
 31
0.0
  0
LINE
  5
351
330
18
100
AcDbEntity
  8
Object
100
AcDbLine
 10
13.993
 20
6.986032960345728
 30
0.0
 11
13.929
 21
6.971032960345728
 31
0.0
  0
LINE
  5
352
330
18
100
AcDbEntity
  8
Object
100
AcDbLine
 10
13.929
 20
6.971032960345728
 30
0.0
 11
13.866
 21
6.952032960345728
 31
0.0
  0
LINE
  5
353
330
18
100
AcDbEntity
  8
Object
100
AcDbLine
 10
13.866
 20
6.952032960345728
 30
0.0
 11
13.814
 21
6.933032960345728
 31
0.0
  0
LINE
  5
354
330
18
100
AcDbEntity
  8
Object
100
AcDbLine
 10
13.814
 20
6.933032960345728
 30
0.0
 11
13.825
 21
6.936032960345728
 31
0.0
  0
LINE
  5
355
330
18
100
AcDbEntity
  8
Object
100
AcDbLine
 10
13.866
 20
6.952032960345728
 30
0.0
 11
13.814
 21
6.933032960345728
 31
0.0
  0
LINE
  5
356
330
18
100
AcDbEntity
  8
Object
100
AcDbLine
 10
13.814
 20
6.933032960345728
 30
0.0
 11
13.804
 21
6.929032960345728
 31
0.0
  0
LINE
  5
357
330
18
100
AcDbEntity
  8
Object
100
AcDbLine
 10
13.804
 20
6.929032960345728
 30
0.0
 11
13.866
 21
6.952032960345728
 31
0.0
  0
LINE
  5
358
330
18
100
AcDbEntity
  8
Object
100
AcDbLine
 10
13.814
 20
6.933032960345728
 30
0.0
 11
13.804
 21
6.929032960345728
 31
0.0
  0
LINE
  5
359
330
18
100
AcDbEntity
  8
Object
100
AcDbLine
 10
13.804
 20
6.929032960345728
 30
0.0
 11
13.743
 21
6.901032960345728
 31
0.0
  0
LINE
  5
35A
330
18
100
AcDbEntity
  8
Object
100
AcDbLine
 10
13.805
 20
6.929032960345728
 30
0.0
 11
13.814
 21
6.933032960345728
 31
0.0
  0
LINE
  5
35B
330
18
100
AcDbEntity
  8
Object
100
AcDbLine
 10
13.814
 20
6.933032960345728
 30
0.0
 11
13.805
 21
6.929032960345728
 31
0.0
  0
LINE
  5
35C
330
18
100
AcDbEntity
  8
Object
100
AcDbLine
 10
13.743
 20
6.901032960345728
 30
0.0
 11
13.7
 21
6.879032960345727
 31
0.0
  0
LINE
  5
35D
330
18
100
AcDbEntity
  8
Object
100
AcDbLine
 10
13.808
 20
6.930032960345728
 30
0.0
 11
13.814
 21
6.933032960345728
 31
0.0
  0
LINE
  5
35E
330
18
100
AcDbEntity
  8
Object
100
AcDbLine
 10
13.703
 20
6.880032960345728
 30
0.0
 11
13.7
 21
6.879032960345727
 31
0.0
  0
LINE
  5
35F
330
18
100
AcDbEntity
  8
Object
100
AcDbLine
 10
13.7
 20
6.879032960345727
 30
0.0
 11
13.743
 21
6.901032960345728
 31
0.0
  0
LINE
  5
360
330
18
100
AcDbEntity
  8
Object
100
AcDbLine
 10
13.7
 20
6.879032960345727
 30
0.0
 11
13.684
 21
6.870032960345728
 31
0.0
  0
LINE
  5
361
330
18
100
AcDbEntity
  8
Object
100
AcDbLine
 10
13.684
 20
6.870032960345728
 30
0.0
 11
13.7
 21
6.879032960345727
 31
0.0
  0
LINE
  5
362
330
18
100
AcDbEntity
  8
Object
100
AcDbLine
 10
13.743
 20
6.901032960345728
 30
0.0
 11
13.684
 21
6.870032960345728
 31
0.0
  0
LINE
  5
363
330
18
100
AcDbEntity
  8
Object
100
AcDbLine
 10
13.684
 20
6.870032960345728
 30
0.0
 11
13.627
 21
6.834032960345727
 31
0.0
  0
LINE
  5
364
330
18
100
AcDbEntity
  8
Object
100
AcDbLine
 10
13.684
 20
6.870032960345728
 30
0.0
 11
13.621
 21
6.831032960345727
 31
0.0
  0
LINE
  5
365
330
18
100
AcDbEntity
  8
Object
100
AcDbLine
 10
13.621
 20
6.831032960345727
 30
0.0
 11
13.627
 21
6.834032960345727
 31
0.0
  0
LINE
  5
366
330
18
100
AcDbEntity
  8
Object
100
AcDbLine
 10
13.697
 20
6.877032960345728
 30
0.0
 11
13.7
 21
6.879032960345727
 31
0.0
  0
LINE
  5
367
330
18
100
AcDbEntity
  8
Object
100
AcDbLine
 10
13.626
 20
6.834032960345727
 30
0.0
 11
13.621
 21
6.831032960345727
 31
0.0
  0
LINE
  5
368
330
18
100
AcDbEntity
  8
Object
100
AcDbLine
 10
13.621
 20
6.831032960345727
 30
0.0
 11
13.684
 21
6.870032960345728
 31
0.0
  0
LINE
  5
369
330
18
100
AcDbEntity
  8
Object
100
AcDbLine
 10
13.621
 20
6.831032960345727
 30
0.0
 11
13.627
 21
6.834032960345727
 31
0.0
  0
LINE
  5
36A
330
18
100
AcDbEntity
  8
Object
100
AcDbLine
 10
13.627
 20
6.834032960345727
 30
0.0
 11
13.573
 21
6.795032960345728
 31
0.0
  0
LINE
  5
36B
330
18
100
AcDbEntity
  8
Object
100
AcDbLine
 10
13.573
 20
6.795032960345728
 30
0.0
 11
13.621
 21
6.831032960345727
 31
0.0
  0
LINE
  5
36C
330
18
100
AcDbEntity
  8
Object
100
AcDbLine
 10
13.621
 20
6.831032960345727
 30
0.0
 11
13.573
 21
6.795032960345728
 31
0.0
  0
LINE
  5
36D
330
18
100
AcDbEntity
  8
Object
100
AcDbLine
 10
13.573
 20
6.795032960345728
 30
0.0
 11
13.549
 21
6.776032960345728
 31
0.0
  0
LINE
  5
36E
330
18
100
AcDbEntity
  8
Object
100
AcDbLine
 10
13.6
 20
6.815032960345727
 30
0.0
 11
13.621
 21
6.831032960345727
 31
0.0
  0
LINE
  5
36F
330
18
100
AcDbEntity
  8
Object
100
AcDbLine
 10
13.558
 20
6.783032960345727
 30
0.0
 11
13.549
 21
6.776032960345728
 31
0.0
  0
LINE
  5
370
330
18
100
AcDbEntity
  8
Object
100
AcDbLine
 10
13.549
 20
6.776032960345728
 30
0.0
 11
13.573
 21
6.795032960345728
 31
0.0
  0
LINE
  5
371
330
18
100
AcDbEntity
  8
Object
100
AcDbLine
 10
13.549
 20
6.776032960345728
 30
0.0
 11
13.521
 21
6.753032960345728
 31
0.0
  0
LINE
  5
372
330
18
100
AcDbEntity
  8
Object
100
AcDbLine
 10
13.521
 20
6.753032960345728
 30
0.0
 11
13.549
 21
6.776032960345728
 31
0.0
  0
LINE
  5
373
330
18
100
AcDbEntity
  8
Object
100
AcDbLine
 10
13.573
 20
6.795032960345728
 30
0.0
 11
13.521
 21
6.753032960345728
 31
0.0
  0
LINE
  5
374
330
18
100
AcDbEntity
  8
Object
100
AcDbLine
 10
13.521
 20
6.753032960345728
 30
0.0
 11
13.482
 21
6.716032960345728
 31
0.0
  0
LINE
  5
375
330
18
100
AcDbEntity
  8
Object
100
AcDbLine
 10
13.542
 20
6.770032960345727
 30
0.0
 11
13.549
 21
6.776032960345728
 31
0.0
  0
LINE
  5
376
330
18
100
AcDbEntity
  8
Object
100
AcDbLine
 10
13.485
 20
6.719032960345727
 30
0.0
 11
13.482
 21
6.716032960345728
 31
0.0
  0
LINE
  5
377
330
18
100
AcDbEntity
  8
Object
100
AcDbLine
 10
13.482
 20
6.716032960345728
 30
0.0
 11
13.521
 21
6.753032960345728
 31
0.0
  0
LINE
  5
378
330
18
100
AcDbEntity
  8
Object
100
AcDbLine
 10
13.482
 20
6.716032960345728
 30
0.0
 11
13.473
 21
6.708032960345728
 31
0.0
  0
LINE
  5
379
330
18
100
AcDbEntity
  8
Object
100
AcDbLine
 10
13.473
 20
6.708032960345728
 30
0.0
 11
13.521
 21
6.753032960345728
 31
0.0
  0
LINE
  5
37A
330
18
100
AcDbEntity
  8
Object
100
AcDbLine
 10
13.482
 20
6.716032960345728
 30
0.0
 11
13.473
 21
6.708032960345728
 31
0.0
  0
LINE
  5
37B
330
18
100
AcDbEntity
  8
Object
100
AcDbLine
 10
13.473
 20
6.708032960345728
 30
0.0
 11
13.452
 21
6.685032960345727
 31
0.0
  0
LINE
  5
37C
330
18
100
AcDbEntity
  8
Object
100
AcDbLine
 10
13.48
 20
6.714032960345727
 30
0.0
 11
13.482
 21
6.716032960345728
 31
0.0
  0
LINE
  5
37D
330
18
100
AcDbEntity
  8
Object
100
AcDbLine
 10
13.462
 20
6.696032960345728
 30
0.0
 11
13.452
 21
6.685032960345727
 31
0.0
  0
LINE
  5
37E
330
18
100
AcDbEntity
  8
Object
100
AcDbLine
 10
13.452
 20
6.685032960345727
 30
0.0
 11
13.473
 21
6.708032960345728
 31
0.0
  0
LINE
  5
37F
330
18
100
AcDbEntity
  8
Object
100
AcDbLine
 10
13.452
 20
6.685032960345727
 30
0.0
 11
13.429
 21
6.660032960345728
 31
0.0
  0
LINE
  5
380
330
18
100
AcDbEntity
  8
Object
100
AcDbLine
 10
13.429
 20
6.660032960345728
 30
0.0
 11
13.452
 21
6.685032960345727
 31
0.0
  0
LINE
  5
381
330
18
100
AcDbEntity
  8
Object
100
AcDbLine
 10
13.473
 20
6.708032960345728
 30
0.0
 11
13.429
 21
6.660032960345728
 31
0.0
  0
LINE
  5
382
330
18
100
AcDbEntity
  8
Object
100
AcDbLine
 10
13.429
 20
6.660032960345728
 30
0.0
 11
13.424
 21
6.655032960345728
 31
0.0
  0
LINE
  5
383
330
18
100
AcDbEntity
  8
Object
100
AcDbLine
 10
13.424
 20
6.655032960345728
 30
0.0
 11
13.452
 21
6.685032960345727
 31
0.0
  0
LINE
  5
384
330
18
100
AcDbEntity
  8
Object
100
AcDbLine
 10
13.429
 20
6.660032960345728
 30
0.0
 11
13.424
 21
6.655032960345728
 31
0.0
  0
LINE
  5
385
330
18
100
AcDbEntity
  8
Object
100
AcDbLine
 10
13.424
 20
6.655032960345728
 30
0.0
 11
13.4
 21
6.624032960345727
 31
0.0
  0
LINE
  5
386
330
18
100
AcDbEntity
  8
Object
100
AcDbLine
 10
13.4
 20
6.624032960345727
 30
0.0
 11
13.429
 21
6.660032960345728
 31
0.0
  0
LINE
  5
387
330
18
100
AcDbEntity
  8
Object
100
AcDbLine
 10
13.429
 20
6.660032960345728
 30
0.0
 11
13.4
 21
6.624032960345727
 31
0.0
  0
LINE
  5
388
330
18
100
AcDbEntity
  8
Object
100
AcDbLine
 10
13.4
 20
6.624032960345727
 30
0.0
 11
13.388
 21
6.609032960345728
 31
0.0
  0
LINE
  5
389
330
18
100
AcDbEntity
  8
Object
100
AcDbLine
 10
13.388
 20
6.609032960345728
 30
0.0
 11
13.4
 21
6.624032960345727
 31
0.0
  0
LINE
  5
38A
330
18
100
AcDbEntity
  8
Object
100
AcDbLine
 10
13.429
 20
6.660032960345728
 30
0.0
 11
13.388
 21
6.609032960345728
 31
0.0
  0
LINE
  5
38B
330
18
100
AcDbEntity
  8
Object
100
AcDbLine
 10
13.388
 20
6.609032960345728
 30
0.0
 11
13.378
 21
6.596032960345728
 31
0.0
  0
LINE
  5
38C
330
18
100
AcDbEntity
  8
Object
100
AcDbLine
 10
13.394
 20
6.617032960345728
 30
0.0
 11
13.4
 21
6.624032960345727
 31
0.0
  0
LINE
  5
38D
330
18
100
AcDbEntity
  8
Object
100
AcDbLine
 10
13.385
 20
6.606032960345728
 30
0.0
 11
13.378
 21
6.596032960345728
 31
0.0
  0
LINE
  5
38E
330
18
100
AcDbEntity
  8
Object
100
AcDbLine
 10
13.378
 20
6.596032960345728
 30
0.0
 11
13.388
 21
6.609032960345728
 31
0.0
  0
LINE
  5
38F
330
18
100
AcDbEntity
  8
Object
100
AcDbLine
 10
13.378
 20
6.596032960345728
 30
0.0
 11
13.36
 21
6.570032960345728
 31
0.0
  0
LINE
  5
390
330
18
100
AcDbEntity
  8
Object
100
AcDbLine
 10
13.36
 20
6.570032960345728
 30
0.0
 11
13.388
 21
6.609032960345728
 31
0.0
  0
LINE
  5
391
330
18
100
AcDbEntity
  8
Object
100
AcDbLine
 10
13.388
 20
6.609032960345728
 30
0.0
 11
13.36
 21
6.570032960345728
 31
0.0
  0
LINE
  5
392
330
18
100
AcDbEntity
  8
Object
100
AcDbLine
 10
13.36
 20
6.570032960345728
 30
0.0
 11
13.351
 21
6.557032960345727
 31
0.0
  0
LINE
  5
393
330
18
100
AcDbEntity
  8
Object
100
AcDbLine
 10
13.351
 20
6.557032960345727
 30
0.0
 11
13.36
 21
6.570032960345728
 31
0.0
  0
LINE
  5
394
330
18
100
AcDbEntity
  8
Object
100
AcDbLine
 10
13.388
 20
6.609032960345728
 30
0.0
 11
13.351
 21
6.557032960345727
 31
0.0
  0
LINE
  5
395
330
18
100
AcDbEntity
  8
Object
100
AcDbLine
 10
13.351
 20
6.557032960345727
 30
0.0
 11
13.344
 21
6.548032960345728
 31
0.0
  0
LINE
  5
396
330
18
100
AcDbEntity
  8
Object
100
AcDbLine
 10
13.344
 20
6.548032960345728
 30
0.0
 11
13.36
 21
6.570032960345728
 31
0.0
  0
LINE
  5
397
330
18
100
AcDbEntity
  8
Object
100
AcDbLine
 10
13.351
 20
6.557032960345727
 30
0.0
 11
13.344
 21
6.548032960345728
 31
0.0
  0
LINE
  5
398
330
18
100
AcDbEntity
  8
Object
100
AcDbLine
 10
13.344
 20
6.548032960345728
 30
0.0
 11
13.333
 21
6.529032960345728
 31
0.0
  0
LINE
  5
399
330
18
100
AcDbEntity
  8
Object
100
AcDbLine
 10
13.333
 20
6.529032960345728
 30
0.0
 11
13.351
 21
6.557032960345727
 31
0.0
  0
LINE
  5
39A
330
18
100
AcDbEntity
  8
Object
100
AcDbLine
 10
13.351
 20
6.557032960345727
 30
0.0
 11
13.333
 21
6.529032960345728
 31
0.0
  0
LINE
  5
39B
330
18
100
AcDbEntity
  8
Object
100
AcDbLine
 10
13.333
 20
6.529032960345728
 30
0.0
 11
13.324
 21
6.515032960345727
 31
0.0
  0
LINE
  5
39C
330
18
100
AcDbEntity
  8
Object
100
AcDbLine
 10
13.324
 20
6.515032960345727
 30
0.0
 11
13.319
 21
6.507032960345727
 31
0.0
  0
LINE
  5
39D
330
18
100
AcDbEntity
  8
Object
100
AcDbLine
 10
13.324
 20
6.515032960345727
 30
0.0
 11
13.318
 21
6.504032960345727
 31
0.0
  0
LINE
  5
39E
330
18
100
AcDbEntity
  8
Object
100
AcDbLine
 10
13.318
 20
6.504032960345727
 30
0.0
 11
13.324
 21
6.515032960345727
 31
0.0
  0
LINE
  5
39F
330
18
100
AcDbEntity
  8
Object
100
AcDbLine
 10
13.324
 20
6.515032960345727
 30
0.0
 11
13.318
 21
6.504032960345727
 31
0.0
  0
LINE
  5
3A0
330
18
100
AcDbEntity
  8
Object
100
AcDbLine
 10
13.318
 20
6.504032960345727
 30
0.0
 11
13.333
 21
6.529032960345728
 31
0.0
  0
LINE
  5
3A1
330
18
100
AcDbEntity
  8
Object
100
AcDbLine
 10
13.333
 20
6.529032960345728
 30
0.0
 11
13.318
 21
6.504032960345727
 31
0.0
  0
LINE
  5
3A2
330
18
100
AcDbEntity
  8
Object
100
AcDbLine
 10
13.318
 20
6.504032960345727
 30
0.0
 11
13.351
 21
6.557032960345727
 31
0.0
  0
LINE
  5
3A3
330
18
100
AcDbEntity
  8
Object
100
AcDbLine
 10
13.319
 20
6.507032960345727
 30
0.0
 11
13.318
 21
6.504032960345727
 31
0.0
  0
LINE
  5
3A4
330
18
100
AcDbEntity
  8
Object
100
AcDbLine
 10
13.318
 20
6.504032960345727
 30
0.0
 11
13.324
 21
6.515032960345727
 31
0.0
  0
LINE
  5
3A5
330
18
100
AcDbEntity
  8
Object
100
AcDbLine
 10
18.648
 20
6.504032960345727
 30
0.0
 11
18.633
 21
6.529032960345728
 31
0.0
  0
LINE
  5
3A6
330
18
100
AcDbEntity
  8
Object
100
AcDbLine
 10
18.633
 20
6.529032960345728
 30
0.0
 11
18.64
 21
6.516032960345728
 31
0.0
  0
LINE
  5
3A7
330
18
100
AcDbEntity
  8
Object
100
AcDbLine
 10
18.648
 20
6.504032960345727
 30
0.0
 11
18.633
 21
6.529032960345728
 31
0.0
  0
LINE
  5
3A8
330
18
100
AcDbEntity
  8
Object
100
AcDbLine
 10
18.633
 20
6.529032960345728
 30
0.0
 11
18.624
 21
6.542032960345728
 31
0.0
  0
LINE
  5
3A9
330
18
100
AcDbEntity
  8
Object
100
AcDbLine
 10
18.633
 20
6.529032960345728
 30
0.0
 11
18.615
 21
6.557032960345727
 31
0.0
  0
LINE
  5
3AA
330
18
100
AcDbEntity
  8
Object
100
AcDbLine
 10
18.615
 20
6.557032960345727
 30
0.0
 11
18.633
 21
6.529032960345728
 31
0.0
  0
LINE
  5
3AB
330
18
100
AcDbEntity
  8
Object
100
AcDbLine
 10
18.648
 20
6.504032960345727
 30
0.0
 11
18.615
 21
6.557032960345727
 31
0.0
  0
LINE
  5
3AC
330
18
100
AcDbEntity
  8
Object
100
AcDbLine
 10
18.606
 20
6.570032960345728
 30
0.0
 11
18.615
 21
6.557032960345727
 31
0.0
  0
LINE
  5
3AD
330
18
100
AcDbEntity
  8
Object
100
AcDbLine
 10
18.615
 20
6.557032960345727
 30
0.0
 11
18.606
 21
6.570032960345728
 31
0.0
  0
LINE
  5
3AE
330
18
100
AcDbEntity
  8
Object
100
AcDbLine
 10
18.606
 20
6.570032960345728
 30
0.0
 11
18.588
 21
6.596032960345728
 31
0.0
  0
LINE
  5
3AF
330
18
100
AcDbEntity
  8
Object
100
AcDbLine
 10
18.588
 20
6.596032960345728
 30
0.0
 11
18.578
 21
6.609032960345728
 31
0.0
  0
LINE
  5
3B0
330
18
100
AcDbEntity
  8
Object
100
AcDbLine
 10
18.578
 20
6.609032960345728
 30
0.0
 11
18.588
 21
6.596032960345728
 31
0.0
  0
LINE
  5
3B1
330
18
100
AcDbEntity
  8
Object
100
AcDbLine
 10
18.606
 20
6.570032960345728
 30
0.0
 11
18.578
 21
6.609032960345728
 31
0.0
  0
LINE
  5
3B2
330
18
100
AcDbEntity
  8
Object
100
AcDbLine
 10
18.578
 20
6.609032960345728
 30
0.0
 11
18.606
 21
6.570032960345728
 31
0.0
  0
LINE
  5
3B3
330
18
100
AcDbEntity
  8
Object
100
AcDbLine
 10
18.615
 20
6.557032960345727
 30
0.0
 11
18.578
 21
6.609032960345728
 31
0.0
  0
LINE
  5
3B4
330
18
100
AcDbEntity
  8
Object
100
AcDbLine
 10
18.584
 20
6.600032960345727
 30
0.0
 11
18.588
 21
6.596032960345728
 31
0.0
  0
LINE
  5
3B5
330
18
100
AcDbEntity
  8
Object
100
AcDbLine
 10
18.578
 20
6.609032960345728
 30
0.0
 11
18.537
 21
6.660032960345728
 31
0.0
  0
LINE
  5
3B6
330
18
100
AcDbEntity
  8
Object
100
AcDbLine
 10
18.525
 20
6.672032960345728
 30
0.0
 11
18.514
 21
6.685032960345727
 31
0.0
  0
LINE
  5
3B7
330
18
100
AcDbEntity
  8
Object
100
AcDbLine
 10
18.514
 20
6.685032960345727
 30
0.0
 11
18.537
 21
6.660032960345728
 31
0.0
  0
LINE
  5
3B8
330
18
100
AcDbEntity
  8
Object
100
AcDbLine
 10
18.537
 20
6.660032960345728
 30
0.0
 11
18.514
 21
6.685032960345727
 31
0.0
  0
LINE
  5
3B9
330
18
100
AcDbEntity
  8
Object
100
AcDbLine
 10
18.514
 20
6.685032960345727
 30
0.0
 11
18.492
 21
6.708032960345728
 31
0.0
  0
LINE
  5
3BA
330
18
100
AcDbEntity
  8
Object
100
AcDbLine
 10
18.492
 20
6.708032960345728
 30
0.0
 11
18.514
 21
6.685032960345727
 31
0.0
  0
LINE
  5
3BB
330
18
100
AcDbEntity
  8
Object
100
AcDbLine
 10
18.537
 20
6.660032960345728
 30
0.0
 11
18.492
 21
6.708032960345728
 31
0.0
  0
LINE
  5
3BC
330
18
100
AcDbEntity
  8
Object
100
AcDbLine
 10
18.492
 20
6.708032960345728
 30
0.0
 11
18.484
 21
6.716032960345728
 31
0.0
  0
LINE
  5
3BD
330
18
100
AcDbEntity
  8
Object
100
AcDbLine
 10
18.484
 20
6.716032960345728
 30
0.0
 11
18.514
 21
6.685032960345727
 31
0.0
  0
LINE
  5
3BE
330
18
100
AcDbEntity
  8
Object
100
AcDbLine
 10
18.492
 20
6.708032960345728
 30
0.0
 11
18.484
 21
6.716032960345728
 31
0.0
  0
LINE
  5
3BF
330
18
100
AcDbEntity
  8
Object
100
AcDbLine
 10
18.484
 20
6.716032960345728
 30
0.0
 11
18.444
 21
6.753032960345728
 31
0.0
  0
LINE
  5
3C0
330
18
100
AcDbEntity
  8
Object
100
AcDbLine
 10
18.444
 20
6.753032960345728
 30
0.0
 11
18.492
 21
6.708032960345728
 31
0.0
  0
LINE
  5
3C1
330
18
100
AcDbEntity
  8
Object
100
AcDbLine
 10
18.484
 20
6.716032960345728
 30
0.0
 11
18.444
 21
6.753032960345728
 31
0.0
  0
LINE
  5
3C2
330
18
100
AcDbEntity
  8
Object
100
AcDbLine
 10
18.444
 20
6.753032960345728
 30
0.0
 11
18.418
 21
6.776032960345728
 31
0.0
  0
LINE
  5
3C3
330
18
100
AcDbEntity
  8
Object
100
AcDbLine
 10
18.464
 20
6.733032960345727
 30
0.0
 11
18.484
 21
6.716032960345728
 31
0.0
  0
LINE
  5
3C4
330
18
100
AcDbEntity
  8
Object
100
AcDbLine
 10
18.432
 20
6.762032960345727
 30
0.0
 11
18.418
 21
6.776032960345728
 31
0.0
  0
LINE
  5
3C5
330
18
100
AcDbEntity
  8
Object
100
AcDbLine
 10
18.418
 20
6.776032960345728
 30
0.0
 11
18.444
 21
6.753032960345728
 31
0.0
  0
LINE
  5
3C6
330
18
100
AcDbEntity
  8
Object
100
AcDbLine
 10
18.418
 20
6.776032960345728
 30
0.0
 11
18.393
 21
6.795032960345728
 31
0.0
  0
LINE
  5
3C7
330
18
100
AcDbEntity
  8
Object
100
AcDbLine
 10
18.393
 20
6.795032960345728
 30
0.0
 11
18.418
 21
6.776032960345728
 31
0.0
  0
LINE
  5
3C8
330
18
100
AcDbEntity
  8
Object
100
AcDbLine
 10
18.444
 20
6.753032960345728
 30
0.0
 11
18.393
 21
6.795032960345728
 31
0.0
  0
LINE
  5
3C9
330
18
100
AcDbEntity
  8
Object
100
AcDbLine
 10
18.393
 20
6.795032960345728
 30
0.0
 11
18.345
 21
6.830032960345728
 31
0.0
  0
LINE
  5
3CA
330
18
100
AcDbEntity
  8
Object
100
AcDbLine
 10
18.404
 20
6.786032960345727
 30
0.0
 11
18.418
 21
6.776032960345728
 31
0.0
  0
LINE
  5
3CB
330
18
100
AcDbEntity
  8
Object
100
AcDbLine
 10
18.357
 20
6.821032960345728
 30
0.0
 11
18.345
 21
6.830032960345728
 31
0.0
  0
LINE
  5
3CC
330
18
100
AcDbEntity
  8
Object
100
AcDbLine
 10
18.345
 20
6.830032960345728
 30
0.0
 11
18.393
 21
6.795032960345728
 31
0.0
  0
LINE
  5
3CD
330
18
100
AcDbEntity
  8
Object
100
AcDbLine
 10
18.345
 20
6.830032960345728
 30
0.0
 11
18.339
 21
6.834032960345727
 31
0.0
  0
LINE
  5
3CE
330
18
100
AcDbEntity
  8
Object
100
AcDbLine
 10
18.339
 20
6.834032960345727
 30
0.0
 11
18.393
 21
6.795032960345728
 31
0.0
  0
LINE
  5
3CF
330
18
100
AcDbEntity
  8
Object
100
AcDbLine
 10
18.345
 20
6.830032960345728
 30
0.0
 11
18.339
 21
6.834032960345727
 31
0.0
  0
LINE
  5
3D0
330
18
100
AcDbEntity
  8
Object
100
AcDbLine
 10
18.339
 20
6.834032960345727
 30
0.0
 11
18.282
 21
6.870032960345728
 31
0.0
  0
LINE
  5
3D1
330
18
100
AcDbEntity
  8
Object
100
AcDbLine
 10
18.341
 20
6.832032960345728
 30
0.0
 11
18.345
 21
6.830032960345728
 31
0.0
  0
LINE
  5
3D2
330
18
100
AcDbEntity
  8
Object
100
AcDbLine
 10
18.345
 20
6.830032960345728
 30
0.0
 11
18.341
 21
6.832032960345728
 31
0.0
  0
LINE
  5
3D3
330
18
100
AcDbEntity
  8
Object
100
AcDbLine
 10
18.282
 20
6.870032960345728
 30
0.0
 11
18.266
 21
6.879032960345727
 31
0.0
  0
LINE
  5
3D4
330
18
100
AcDbEntity
  8
Object
100
AcDbLine
 10
18.341
 20
6.832032960345728
 30
0.0
 11
18.345
 21
6.830032960345728
 31
0.0
  0
LINE
  5
3D5
330
18
100
AcDbEntity
  8
Object
100
AcDbLine
 10
18.268
 20
6.877032960345728
 30
0.0
 11
18.266
 21
6.879032960345727
 31
0.0
  0
LINE
  5
3D6
330
18
100
AcDbEntity
  8
Object
100
AcDbLine
 10
18.266
 20
6.879032960345727
 30
0.0
 11
18.282
 21
6.870032960345728
 31
0.0
  0
LINE
  5
3D7
330
18
100
AcDbEntity
  8
Object
100
AcDbLine
 10
18.266
 20
6.879032960345727
 30
0.0
 11
18.223
 21
6.901032960345728
 31
0.0
  0
LINE
  5
3D8
330
18
100
AcDbEntity
  8
Object
100
AcDbLine
 10
18.223
 20
6.901032960345728
 30
0.0
 11
18.266
 21
6.879032960345727
 31
0.0
  0
LINE
  5
3D9
330
18
100
AcDbEntity
  8
Object
100
AcDbLine
 10
18.282
 20
6.870032960345728
 30
0.0
 11
18.223
 21
6.901032960345728
 31
0.0
  0
LINE
  5
3DA
330
18
100
AcDbEntity
  8
Object
100
AcDbLine
 10
18.223
 20
6.901032960345728
 30
0.0
 11
18.162
 21
6.929032960345728
 31
0.0
  0
LINE
  5
3DB
330
18
100
AcDbEntity
  8
Object
100
AcDbLine
 10
18.162
 20
6.929032960345728
 30
0.0
 11
18.152
 21
6.933032960345728
 31
0.0
  0
LINE
  5
3DC
330
18
100
AcDbEntity
  8
Object
100
AcDbLine
 10
18.152
 20
6.933032960345728
 30
0.0
 11
18.16
 21
6.929032960345728
 31
0.0
  0
LINE
  5
3DD
330
18
100
AcDbEntity
  8
Object
100
AcDbLine
 10
18.262
 20
6.880032960345728
 30
0.0
 11
18.266
 21
6.879032960345727
 31
0.0
  0
LINE
  5
3DE
330
18
100
AcDbEntity
  8
Object
100
AcDbLine
 10
18.157
 20
6.930032960345728
 30
0.0
 11
18.152
 21
6.933032960345728
 31
0.0
  0
LINE
  5
3DF
330
18
100
AcDbEntity
  8
Object
100
AcDbLine
 10
18.152
 20
6.933032960345728
 30
0.0
 11
18.16
 21
6.929032960345728
 31
0.0
  0
LINE
  5
3E0
330
18
100
AcDbEntity
  8
Object
100
AcDbLine
 10
18.152
 20
6.933032960345728
 30
0.0
 11
18.162
 21
6.929032960345728
 31
0.0
  0
LINE
  5
3E1
330
18
100
AcDbEntity
  8
Object
100
AcDbLine
 10
18.162
 20
6.929032960345728
 30
0.0
 11
18.1
 21
6.952032960345728
 31
0.0
  0
LINE
  5
3E2
330
18
100
AcDbEntity
  8
Object
100
AcDbLine
 10
18.1
 20
6.952032960345728
 30
0.0
 11
18.152
 21
6.933032960345728
 31
0.0
  0
LINE
  5
3E3
330
18
100
AcDbEntity
  8
Object
100
AcDbLine
 10
18.152
 20
6.933032960345728
 30
0.0
 11
18.1
 21
6.952032960345728
 31
0.0
  0
LINE
  5
3E4
330
18
100
AcDbEntity
  8
Object
100
AcDbLine
 10
18.1
 20
6.952032960345728
 30
0.0
 11
18.036
 21
6.971032960345728
 31
0.0
  0
LINE
  5
3E5
330
18
100
AcDbEntity
  8
Object
100
AcDbLine
 10
18.033
 20
6.971032960345728
 30
0.0
 11
18.032
 21
6.972032960345727
 31
0.0
  0
LINE
  5
3E6
330
18
100
AcDbEntity
  8
Object
100
AcDbLine
 10
18.14
 20
6.936032960345728
 30
0.0
 11
18.152
 21
6.933032960345728
 31
0.0
  0
LINE
  5
3E7
330
18
100
AcDbEntity
  8
Object
100
AcDbLine
 10
18.032
 20
6.972032960345727
 30
0.0
 11
18.033
 21
6.971032960345728
 31
0.0
  0
LINE
  5
3E8
330
18
100
AcDbEntity
  8
Object
100
AcDbLine
 10
18.036
 20
6.971032960345728
 30
0.0
 11
18.032
 21
6.972032960345727
 31
0.0
  0
LINE
  5
3E9
330
18
100
AcDbEntity
  8
Object
100
AcDbLine
 10
18.032
 20
6.972032960345727
 30
0.0
 11
18.036
 21
6.971032960345728
 31
0.0
  0
LINE
  5
3EA
330
18
100
AcDbEntity
  8
Object
100
AcDbLine
 10
18.032
 20
6.972032960345727
 30
0.0
 11
17.972
 21
6.986032960345728
 31
0.0
  0
LINE
  5
3EB
330
18
100
AcDbEntity
  8
Object
100
AcDbLine
 10
17.972
 20
6.986032960345728
 30
0.0
 11
18.032
 21
6.972032960345727
 31
0.0
  0
LINE
  5
3EC
330
18
100
AcDbEntity
  8
Object
100
AcDbLine
 10
18.036
 20
6.971032960345728
 30
0.0
 11
17.972
 21
6.986032960345728
 31
0.0
  0
LINE
  5
3ED
330
18
100
AcDbEntity
  8
Object
100
AcDbLine
 10
17.972
 20
6.986032960345728
 30
0.0
 11
17.908
 21
6.996032960345727
 31
0.0
  0
LINE
  5
3EE
330
18
100
AcDbEntity
  8
Object
100
AcDbLine
 10
17.908
 20
6.996032960345727
 30
0.0
 11
17.972
 21
6.986032960345728
 31
0.0
  0
LINE
  5
3EF
330
18
100
AcDbEntity
  8
Object
100
AcDbLine
 10
18.029
 20
6.972032960345727
 30
0.0
 11
18.032
 21
6.972032960345727
 31
0.0
  0
LINE
  5
3F0
330
18
100
AcDbEntity
  8
Object
100
AcDbLine
 10
17.916
 20
6.994032960345728
 30
0.0
 11
17.908
 21
6.996032960345727
 31
0.0
  0
LINE
  5
3F1
330
18
100
AcDbEntity
  8
Object
100
AcDbLine
 10
17.908
 20
6.996032960345727
 30
0.0
 11
17.972
 21
6.986032960345728
 31
0.0
  0
LINE
  5
3F2
330
18
100
AcDbEntity
  8
Object
100
AcDbLine
 10
17.908
 20
6.996032960345727
 30
0.0
 11
17.845
 21
7.002032960345728
 31
0.0
  0
LINE
  5
3F3
330
18
100
AcDbEntity
  8
Object
100
AcDbLine
 10
17.845
 20
7.002032960345728
 30
0.0
 11
17.908
 21
6.996032960345727
 31
0.0
  0
LINE
  5
3F4
330
18
100
AcDbEntity
  8
Object
100
AcDbLine
 10
17.908
 20
6.996032960345727
 30
0.0
 11
17.845
 21
7.002032960345728
 31
0.0
  0
LINE
  5
3F5
330
18
100
AcDbEntity
  8
Object
100
AcDbLine
 10
17.899
 20
6.996032960345727
 30
0.0
 11
17.908
 21
6.996032960345727
 31
0.0
  0
LINE
  5
3F6
330
18
100
AcDbEntity
  8
Object
100
AcDbLine
 10
17.845
 20
7.002032960345728
 30
0.0
 11
17.782
 21
7.004032960345727
 31
0.0
  0
LINE
  5
3F7
330
18
100
AcDbEntity
  8
Object
100
AcDbLine
 10
17.782
 20
7.004032960345727
 30
0.0
 11
14.184
 21
7.004032960345727
 31
0.0
  0
LINE
  5
3F8
330
18
100
AcDbEntity
  8
Object
100
AcDbLine
 10
15.775
 20
6.486032960345728
 30
0.0
 11
15.843
 21
6.503032960345728
 31
0.0
  0
LINE
  5
3F9
330
18
100
AcDbEntity
  8
Object
100
AcDbLine
 10
16.931
 20
6.420032960345728
 30
0.0
 11
16.954
 21
6.467032960345727
 31
0.0
  0
LINE
  5
3FA
330
18
100
AcDbEntity
  8
Object
100
AcDbLine
 10
16.524
 20
6.504032960345727
 30
0.0
 11
16.523
 21
6.499032960345727
 31
0.0
  0
LINE
  5
3FB
330
18
100
AcDbEntity
  8
Object
100
AcDbLine
 10
16.523
 20
6.499032960345727
 30
0.0
 11
16.506
 21
6.419032960345727
 31
0.0
  0
LINE
  5
3FC
330
18
100
AcDbEntity
  8
Object
100
AcDbLine
 10
16.506
 20
6.419032960345727
 30
0.0
 11
16.503
 21
6.379032960345727
 31
0.0
  0
LINE
  5
3FD
330
18
100
AcDbEntity
  8
Object
100
AcDbLine
 10
16.322
 20
6.438032960345728
 30
0.0
 11
16.385
 21
6.407032960345728
 31
0.0
  0
LINE
  5
3FE
330
18
100
AcDbEntity
  8
Object
100
AcDbLine
 10
16.19
 20
6.486032960345728
 30
0.0
 11
16.257
 21
6.464032960345727
 31
0.0
  0
LINE
  5
3FF
330
18
100
AcDbEntity
  8
Object
100
AcDbLine
 10
16.119
 20
6.504032960345727
 30
0.0
 11
16.122
 21
6.503032960345728
 31
0.0
  0
LINE
  5
400
330
18
100
AcDbEntity
  8
Object
100
AcDbLine
 10
17.782
 20
6.947032960345728
 30
0.0
 11
17.782
 21
6.977032960345727
 31
0.0
  0
LINE
  5
401
330
18
100
AcDbEntity
  8
Object
100
AcDbLine
 10
14.184
 20
7.004032960345727
 30
0.0
 11
17.782
 21
7.004032960345727
 31
0.0
  0
LINE
  5
402
330
18
100
AcDbEntity
  8
Object
100
AcDbLine
 10
17.782
 20
7.004032960345727
 30
0.0
 11
17.782
 21
6.997032960345728
 31
0.0
  0
LINE
  5
403
330
18
100
AcDbEntity
  8
Object
100
AcDbLine
 10
17.782
 20
6.997032960345728
 30
0.0
 11
17.782
 21
6.977032960345727
 31
0.0
  0
LINE
  5
404
330
18
100
AcDbEntity
  8
Object
100
AcDbLine
 10
17.782
 20
6.911032960345727
 30
0.0
 11
17.782
 21
6.947032960345728
 31
0.0
  0
LINE
  5
405
330
18
100
AcDbEntity
  8
Object
100
AcDbLine
 10
15.195
 20
6.379032960345727
 30
0.0
 11
15.174
 21
6.437032960345728
 31
0.0
  0
LINE
  5
406
330
18
100
AcDbEntity
  8
Object
100
AcDbLine
 10
15.174
 20
6.437032960345728
 30
0.0
 11
15.167
 21
6.451032960345727
 31
0.0
  0
LINE
  5
407
330
18
100
AcDbEntity
  8
Object
100
AcDbLine
 10
16.822
 20
6.504032960345727
 30
0.0
 11
16.813
 21
6.486032960345728
 31
0.0
  0
LINE
  5
408
330
18
100
AcDbEntity
  8
Object
100
AcDbLine
 10
16.813
 20
6.486032960345728
 30
0.0
 11
16.786
 21
6.423032960345728
 31
0.0
  0
LINE
  5
409
330
18
100
AcDbEntity
  8
Object
100
AcDbLine
 10
16.786
 20
6.423032960345728
 30
0.0
 11
16.77
 21
6.379032960345727
 31
0.0
  0
LINE
  5
40A
330
18
100
AcDbEntity
  8
Object
100
AcDbLine
 10
15.462
 20
6.379032960345727
 30
0.0
 11
15.459
 21
6.419032960345727
 31
0.0
  0
LINE
  5
40B
330
18
100
AcDbEntity
  8
Object
100
AcDbLine
 10
15.441
 20
6.504032960345727
 30
0.0
 11
15.443
 21
6.499032960345727
 31
0.0
  0
LINE
  5
40C
330
18
100
AcDbEntity
  8
Object
100
AcDbLine
 10
15.443
 20
6.499032960345727
 30
0.0
 11
15.459
 21
6.419032960345727
 31
0.0
  0
LINE
  5
40D
330
18
100
AcDbEntity
  8
Object
100
AcDbLine
 10
15.087
 20
6.379032960345727
 30
0.0
 11
15.087
 21
6.504032960345727
 31
0.0
  0
LINE
  5
40E
330
18
100
AcDbEntity
  8
Object
100
AcDbLine
 10
14.967
 20
6.504032960345727
 30
0.0
 11
14.968
 21
6.379032960345727
 31
0.0
  0
LINE
  5
40F
330
18
100
AcDbEntity
  8
Object
100
AcDbLine
 10
16.435
 20
6.379032960345727
 30
0.0
 11
16.385
 21
6.407032960345728
 31
0.0
  0
LINE
  5
410
330
18
100
AcDbEntity
  8
Object
100
AcDbLine
 10
16.322
 20
6.438032960345728
 30
0.0
 11
16.257
 21
6.464032960345727
 31
0.0
  0
LINE
  5
411
330
18
100
AcDbEntity
  8
Object
100
AcDbLine
 10
16.19
 20
6.486032960345728
 30
0.0
 11
16.122
 21
6.503032960345728
 31
0.0
  0
LINE
  5
412
330
18
100
AcDbEntity
  8
Object
100
AcDbLine
 10
15.845
 20
6.504032960345727
 30
0.0
 11
15.843
 21
6.503032960345728
 31
0.0
  0
LINE
  5
413
330
18
100
AcDbEntity
  8
Object
100
AcDbLine
 10
15.775
 20
6.486032960345728
 30
0.0
 11
15.708
 21
6.464032960345727
 31
0.0
  0
LINE
  5
414
330
18
100
AcDbEntity
  8
Object
100
AcDbLine
 10
15.708
 20
6.464032960345727
 30
0.0
 11
15.643
 21
6.438032960345728
 31
0.0
  0
LINE
  5
415
330
18
100
AcDbEntity
  8
Object
100
AcDbLine
 10
15.643
 20
6.438032960345728
 30
0.0
 11
15.581
 21
6.407032960345728
 31
0.0
  0
LINE
  5
416
330
18
100
AcDbEntity
  8
Object
100
AcDbLine
 10
15.581
 20
6.407032960345728
 30
0.0
 11
15.53
 21
6.379032960345727
 31
0.0
  0
LINE
  5
417
330
18
100
AcDbEntity
  8
Object
100
AcDbLine
 10
15.174
 20
6.437032960345728
 30
0.0
 11
15.167
 21
6.451032960345727
 31
0.0
  0
LINE
  5
418
330
18
100
AcDbEntity
  8
Object
100
AcDbLine
 10
16.896
 20
6.453032960345727
 30
0.0
 11
16.923
 21
6.504032960345727
 31
0.0
  0
LINE
  5
419
330
18
100
AcDbEntity
  8
Object
100
AcDbLine
 10
16.871
 20
6.379032960345727
 30
0.0
 11
16.872
 21
6.399032960345728
 31
0.0
  0
LINE
  5
41A
330
18
100
AcDbEntity
  8
Object
100
AcDbLine
 10
16.872
 20
6.399032960345728
 30
0.0
 11
16.896
 21
6.453032960345727
 31
0.0
  0
LINE
  5
41B
330
18
100
AcDbEntity
  8
Object
100
AcDbLine
 10
16.933
 20
6.456032960345727
 30
0.0
 11
16.903
 21
6.425032960345728
 31
0.0
  0
LINE
  5
41C
330
18
100
AcDbEntity
  8
Object
100
AcDbLine
 10
16.903
 20
6.425032960345728
 30
0.0
 11
16.872
 21
6.399032960345728
 31
0.0
  0
LINE
  5
41D
330
18
100
AcDbEntity
  8
Object
100
AcDbLine
 10
16.93
 20
6.379032960345727
 30
0.0
 11
16.933
 21
6.456032960345727
 31
0.0
  0
LINE
  5
41E
330
18
100
AcDbEntity
  8
Object
100
AcDbLine
 10
16.639
 20
6.379032960345727
 30
0.0
 11
16.641
 21
6.504032960345727
 31
0.0
  0
LINE
  5
41F
330
18
100
AcDbEntity
  8
Object
100
AcDbLine
 10
17.028
 20
6.379032960345727
 30
0.0
 11
17.034
 21
6.504032960345727
 31
0.0
  0
LINE
  5
420
330
18
100
AcDbEntity
  8
Object
100
AcDbLine
 10
16.589
 20
6.379032960345727
 30
0.0
 11
16.591
 21
6.504032960345727
 31
0.0
  0
LINE
  5
421
330
18
100
AcDbEntity
  8
Object
100
AcDbLine
 10
15.325
 20
6.504032960345727
 30
0.0
 11
15.326
 21
6.379032960345727
 31
0.0
  0
LINE
  5
422
330
18
100
AcDbEntity
  8
Object
100
AcDbLine
 10
16.956
 20
6.504032960345727
 30
0.0
 11
16.95
 21
6.379032960345727
 31
0.0
  0
LINE
  5
423
330
18
100
AcDbEntity
  8
Object
100
AcDbLine
 10
15.376
 20
6.379032960345727
 30
0.0
 11
15.375
 21
6.504032960345727
 31
0.0
  0
LINE
  5
424
330
18
100
AcDbEntity
  8
Object
100
AcDbLine
 10
15.167
 20
6.379032960345727
 30
0.0
 11
15.167
 21
6.504032960345727
 31
0.0
  0
LINE
  5
425
330
18
100
AcDbEntity
  8
Object
100
AcDbLine
 10
17.109
 20
6.379032960345727
 30
0.0
 11
17.115
 21
6.504032960345727
 31
0.0
  0
LINE
  5
426
330
18
100
AcDbEntity
  8
Object
100
AcDbLine
 10
16.498
 20
6.175032960345728
 30
0.0
 11
16.496
 21
6.208032960345728
 31
0.0
  0
LINE
  5
427
330
18
100
AcDbEntity
  8
Object
100
AcDbLine
 10
16.496
 20
6.208032960345728
 30
0.0
 11
16.49
 21
6.239032960345728
 31
0.0
  0
LINE
  5
428
330
18
100
AcDbEntity
  8
Object
100
AcDbLine
 10
16.49
 20
6.239032960345728
 30
0.0
 11
16.394
 21
6.239032960345728
 31
0.0
  0
LINE
  5
429
330
18
100
AcDbEntity
  8
Object
100
AcDbLine
 10
16.495
 20
6.143032960345728
 30
0.0
 11
16.498
 21
6.175032960345728
 31
0.0
  0
LINE
  5
42A
330
18
100
AcDbEntity
  8
Object
100
AcDbLine
 10
16.394
 20
6.239032960345728
 30
0.0
 11
16.295
 21
6.239032960345728
 31
0.0
  0
LINE
  5
42B
330
18
100
AcDbEntity
  8
Object
100
AcDbLine
 10
16.295
 20
6.239032960345728
 30
0.0
 11
16.193
 21
6.239032960345728
 31
0.0
  0
LINE
  5
42C
330
18
100
AcDbEntity
  8
Object
100
AcDbLine
 10
16.193
 20
6.239032960345728
 30
0.0
 11
16.088
 21
6.239032960345728
 31
0.0
  0
LINE
  5
42D
330
18
100
AcDbEntity
  8
Object
100
AcDbLine
 10
16.088
 20
6.239032960345728
 30
0.0
 11
15.983
 21
6.239032960345728
 31
0.0
  0
LINE
  5
42E
330
18
100
AcDbEntity
  8
Object
100
AcDbLine
 10
15.983
 20
6.239032960345728
 30
0.0
 11
15.877
 21
6.239032960345728
 31
0.0
  0
LINE
  5
42F
330
18
100
AcDbEntity
  8
Object
100
AcDbLine
 10
15.877
 20
6.239032960345728
 30
0.0
 11
15.773
 21
6.239032960345728
 31
0.0
  0
LINE
  5
430
330
18
100
AcDbEntity
  8
Object
100
AcDbLine
 10
15.671
 20
6.239032960345728
 30
0.0
 11
15.571
 21
6.239032960345728
 31
0.0
  0
LINE
  5
431
330
18
100
AcDbEntity
  8
Object
100
AcDbLine
 10
15.477
 20
6.112032960345728
 30
0.0
 11
15.572
 21
6.112032960345728
 31
0.0
  0
LINE
  5
432
330
18
100
AcDbEntity
  8
Object
100
AcDbLine
 10
15.878
 20
6.112032960345728
 30
0.0
 11
15.983
 21
6.112032960345728
 31
0.0
  0
LINE
  5
433
330
18
100
AcDbEntity
  8
Object
100
AcDbLine
 10
15.983
 20
6.112032960345728
 30
0.0
 11
15.983
 21
4.849032960345727
 31
0.0
  0
LINE
  5
434
330
18
100
AcDbEntity
  8
Object
100
AcDbLine
 10
15.983
 20
4.849032960345727
 30
0.0
 11
15.854
 21
4.849032960345727
 31
0.0
  0
LINE
  5
435
330
18
100
AcDbEntity
  8
Object
100
AcDbLine
 10
15.878
 20
6.112032960345728
 30
0.0
 11
15.773
 21
6.112032960345728
 31
0.0
  0
LINE
  5
436
330
18
100
AcDbEntity
  8
Object
100
AcDbLine
 10
15.728
 20
4.849032960345727
 30
0.0
 11
15.854
 21
4.849032960345727
 31
0.0
  0
LINE
  5
437
330
18
100
AcDbEntity
  8
Object
100
AcDbLine
 10
15.773
 20
6.112032960345728
 30
0.0
 11
15.671
 21
6.112032960345728
 31
0.0
  0
LINE
  5
438
330
18
100
AcDbEntity
  8
Object
100
AcDbLine
 10
15.606
 20
4.849032960345727
 30
0.0
 11
15.728
 21
4.849032960345727
 31
0.0
  0
LINE
  5
439
330
18
100
AcDbEntity
  8
Object
100
AcDbLine
 10
15.671
 20
6.112032960345728
 30
0.0
 11
15.572
 21
6.112032960345728
 31
0.0
  0
LINE
  5
43A
330
18
100
AcDbEntity
  8
Object
100
AcDbLine
 10
15.489
 20
4.849032960345727
 30
0.0
 11
15.606
 21
4.849032960345727
 31
0.0
  0
LINE
  5
43B
330
18
100
AcDbEntity
  8
Object
100
AcDbLine
 10
16.517
 20
4.898032960345727
 30
0.0
 11
16.513
 21
4.879032960345728
 31
0.0
  0
LINE
  5
43C
330
18
100
AcDbEntity
  8
Object
100
AcDbLine
 10
16.513
 20
4.879032960345728
 30
0.0
 11
16.507
 21
4.863032960345728
 31
0.0
  0
LINE
  5
43D
330
18
100
AcDbEntity
  8
Object
100
AcDbLine
 10
16.507
 20
4.863032960345728
 30
0.0
 11
16.498
 21
4.852032960345727
 31
0.0
  0
LINE
  5
43E
330
18
100
AcDbEntity
  8
Object
100
AcDbLine
 10
16.596
 20
5.879032960345727
 30
0.0
 11
16.6
 21
6.279032960345728
 31
0.0
  0
LINE
  5
43F
330
18
100
AcDbEntity
  8
Object
100
AcDbLine
 10
16.495
 20
6.143032960345728
 30
0.0
 11
16.489
 21
6.112032960345728
 31
0.0
  0
LINE
  5
440
330
18
100
AcDbEntity
  8
Object
100
AcDbLine
 10
16.498
 20
4.852032960345727
 30
0.0
 11
16.488
 21
4.849032960345727
 31
0.0
  0
LINE
  5
441
330
18
100
AcDbEntity
  8
Object
100
AcDbLine
 10
16.488
 20
4.849032960345727
 30
0.0
 11
16.476
 21
4.849032960345727
 31
0.0
  0
LINE
  5
442
330
18
100
AcDbEntity
  8
Object
100
AcDbLine
 10
16.517
 20
4.898032960345727
 30
0.0
 11
16.596
 21
5.879032960345727
 31
0.0
  0
LINE
  5
443
330
18
100
AcDbEntity
  8
Object
100
AcDbLine
 10
15.468
 20
4.852032960345727
 30
0.0
 11
15.478
 21
4.849032960345727
 31
0.0
  0
LINE
  5
444
330
18
100
AcDbEntity
  8
Object
100
AcDbLine
 10
15.478
 20
4.849032960345727
 30
0.0
 11
15.489
 21
4.849032960345727
 31
0.0
  0
LINE
  5
445
330
18
100
AcDbEntity
  8
Object
100
AcDbLine
 10
15.47
 20
6.143032960345728
 30
0.0
 11
15.477
 21
6.112032960345728
 31
0.0
  0
LINE
  5
446
330
18
100
AcDbEntity
  8
Object
100
AcDbLine
 10
15.477
 20
6.112032960345728
 30
0.0
 11
15.489
 21
4.849032960345727
 31
0.0
  0
LINE
  5
447
330
18
100
AcDbEntity
  8
Object
100
AcDbLine
 10
15.469
 20
6.208032960345728
 30
0.0
 11
15.476
 21
6.239032960345728
 31
0.0
  0
LINE
  5
448
330
18
100
AcDbEntity
  8
Object
100
AcDbLine
 10
15.476
 20
6.239032960345728
 30
0.0
 11
15.475
 21
6.279032960345728
 31
0.0
  0
LINE
  5
449
330
18
100
AcDbEntity
  8
Object
100
AcDbLine
 10
15.469
 20
6.208032960345728
 30
0.0
 11
15.468
 21
6.175032960345728
 31
0.0
  0
LINE
  5
44A
330
18
100
AcDbEntity
  8
Object
100
AcDbLine
 10
15.468
 20
6.175032960345728
 30
0.0
 11
15.47
 21
6.143032960345728
 31
0.0
  0
LINE
  5
44B
330
18
100
AcDbEntity
  8
Object
100
AcDbLine
 10
15.983
 20
6.239032960345728
 30
0.0
 11
15.983
 21
6.279032960345728
 31
0.0
  0
LINE
  5
44C
330
18
100
AcDbEntity
  8
Object
100
AcDbLine
 10
15.671
 20
6.239032960345728
 30
0.0
 11
15.773
 21
6.239032960345728
 31
0.0
  0
LINE
  5
44D
330
18
100
AcDbEntity
  8
Object
100
AcDbLine
 10
15.476
 20
6.239032960345728
 30
0.0
 11
15.571
 21
6.239032960345728
 31
0.0
  0
LINE
  5
44E
330
18
100
AcDbEntity
  8
Object
100
AcDbLine
 10
16.49
 20
6.239032960345728
 30
0.0
 11
16.49
 21
6.279032960345728
 31
0.0
  0
LINE
  5
44F
330
18
100
AcDbEntity
  8
Object
100
AcDbLine
 10
16.393
 20
6.112032960345728
 30
0.0
 11
16.489
 21
6.112032960345728
 31
0.0
  0
LINE
  5
450
330
18
100
AcDbEntity
  8
Object
100
AcDbLine
 10
16.489
 20
6.112032960345728
 30
0.0
 11
16.476
 21
4.849032960345727
 31
0.0
  0
LINE
  5
451
330
18
100
AcDbEntity
  8
Object
100
AcDbLine
 10
16.476
 20
4.849032960345727
 30
0.0
 11
16.36
 21
4.849032960345727
 31
0.0
  0
LINE
  5
452
330
18
100
AcDbEntity
  8
Object
100
AcDbLine
 10
16.393
 20
6.112032960345728
 30
0.0
 11
16.294
 21
6.112032960345728
 31
0.0
  0
LINE
  5
453
330
18
100
AcDbEntity
  8
Object
100
AcDbLine
 10
16.237
 20
4.849032960345727
 30
0.0
 11
16.36
 21
4.849032960345727
 31
0.0
  0
LINE
  5
454
330
18
100
AcDbEntity
  8
Object
100
AcDbLine
 10
16.294
 20
6.112032960345728
 30
0.0
 11
16.192
 21
6.112032960345728
 31
0.0
  0
LINE
  5
455
330
18
100
AcDbEntity
  8
Object
100
AcDbLine
 10
16.111
 20
4.849032960345727
 30
0.0
 11
16.237
 21
4.849032960345727
 31
0.0
  0
LINE
  5
456
330
18
100
AcDbEntity
  8
Object
100
AcDbLine
 10
16.192
 20
6.112032960345728
 30
0.0
 11
16.088
 21
6.112032960345728
 31
0.0
  0
LINE
  5
457
330
18
100
AcDbEntity
  8
Object
100
AcDbLine
 10
15.983
 20
4.849032960345727
 30
0.0
 11
16.111
 21
4.849032960345727
 31
0.0
  0
LINE
  5
458
330
18
100
AcDbEntity
  8
Object
100
AcDbLine
 10
16.088
 20
6.112032960345728
 30
0.0
 11
15.983
 21
6.112032960345728
 31
0.0
  0
LINE
  5
459
330
18
100
AcDbEntity
  8
Object
100
AcDbLine
 10
17.041
 20
4.849032960345727
 30
0.0
 11
17.04
 21
4.849032960345727
 31
0.0
  0
LINE
  5
45A
330
18
100
AcDbEntity
  8
Object
100
AcDbLine
 10
17.04
 20
4.849032960345727
 30
0.0
 11
17.017
 21
4.849032960345727
 31
0.0
  0
LINE
  5
45B
330
18
100
AcDbEntity
  8
Object
100
AcDbLine
 10
17.017
 20
4.849032960345727
 30
0.0
 11
17.006
 21
4.849032960345727
 31
0.0
  0
LINE
  5
45C
330
18
100
AcDbEntity
  8
Object
100
AcDbLine
 10
17.006
 20
4.849032960345727
 30
0.0
 11
16.979
 21
4.849032960345727
 31
0.0
  0
LINE
  5
45D
330
18
100
AcDbEntity
  8
Object
100
AcDbLine
 10
16.979
 20
4.849032960345727
 30
0.0
 11
16.936
 21
4.849032960345727
 31
0.0
  0
LINE
  5
45E
330
18
100
AcDbEntity
  8
Object
100
AcDbLine
 10
16.936
 20
4.849032960345727
 30
0.0
 11
16.879
 21
4.849032960345727
 31
0.0
  0
LINE
  5
45F
330
18
100
AcDbEntity
  8
Object
100
AcDbLine
 10
16.879
 20
4.849032960345727
 30
0.0
 11
16.808
 21
4.849032960345727
 31
0.0
  0
LINE
  5
460
330
18
100
AcDbEntity
  8
Object
100
AcDbLine
 10
16.808
 20
4.849032960345727
 30
0.0
 11
16.724
 21
4.849032960345727
 31
0.0
  0
LINE
  5
461
330
18
100
AcDbEntity
  8
Object
100
AcDbLine
 10
16.724
 20
4.849032960345727
 30
0.0
 11
16.629
 21
4.849032960345727
 31
0.0
  0
LINE
  5
462
330
18
100
AcDbEntity
  8
Object
100
AcDbLine
 10
16.629
 20
4.849032960345727
 30
0.0
 11
16.535
 21
4.849032960345727
 31
0.0
  0
LINE
  5
463
330
18
100
AcDbEntity
  8
Object
100
AcDbLine
 10
16.535
 20
4.849032960345727
 30
0.0
 11
16.52
 21
4.849032960345727
 31
0.0
  0
LINE
  5
464
330
18
100
AcDbEntity
  8
Object
100
AcDbLine
 10
16.52
 20
4.849032960345727
 30
0.0
 11
16.504
 21
4.849032960345727
 31
0.0
  0
LINE
  5
465
330
18
100
AcDbEntity
  8
Object
100
AcDbLine
 10
16.504
 20
4.849032960345727
 30
0.0
 11
16.488
 21
4.849032960345727
 31
0.0
  0
LINE
  5
466
330
18
100
AcDbEntity
  8
Object
100
AcDbLine
 10
16.488
 20
4.849032960345727
 30
0.0
 11
16.476
 21
4.849032960345727
 31
0.0
  0
LINE
  5
467
330
18
100
AcDbEntity
  8
Object
100
AcDbLine
 10
16.476
 20
4.849032960345727
 30
0.0
 11
16.36
 21
4.849032960345727
 31
0.0
  0
LINE
  5
468
330
18
100
AcDbEntity
  8
Object
100
AcDbLine
 10
16.36
 20
4.849032960345727
 30
0.0
 11
16.237
 21
4.849032960345727
 31
0.0
  0
LINE
  5
469
330
18
100
AcDbEntity
  8
Object
100
AcDbLine
 10
16.237
 20
4.849032960345727
 30
0.0
 11
16.111
 21
4.849032960345727
 31
0.0
  0
LINE
  5
46A
330
18
100
AcDbEntity
  8
Object
100
AcDbLine
 10
16.111
 20
4.849032960345727
 30
0.0
 11
15.983
 21
4.849032960345727
 31
0.0
  0
LINE
  5
46B
330
18
100
AcDbEntity
  8
Object
100
AcDbLine
 10
15.983
 20
4.849032960345727
 30
0.0
 11
15.854
 21
4.849032960345727
 31
0.0
  0
LINE
  5
46C
330
18
100
AcDbEntity
  8
Object
100
AcDbLine
 10
15.854
 20
4.849032960345727
 30
0.0
 11
15.728
 21
4.849032960345727
 31
0.0
  0
LINE
  5
46D
330
18
100
AcDbEntity
  8
Object
100
AcDbLine
 10
15.728
 20
4.849032960345727
 30
0.0
 11
15.606
 21
4.849032960345727
 31
0.0
  0
LINE
  5
46E
330
18
100
AcDbEntity
  8
Object
100
AcDbLine
 10
15.606
 20
4.849032960345727
 30
0.0
 11
15.489
 21
4.849032960345727
 31
0.0
  0
LINE
  5
46F
330
18
100
AcDbEntity
  8
Object
100
AcDbLine
 10
15.489
 20
4.849032960345727
 30
0.0
 11
15.478
 21
4.849032960345727
 31
0.0
  0
LINE
  5
470
330
18
100
AcDbEntity
  8
Object
100
AcDbLine
 10
15.478
 20
4.849032960345727
 30
0.0
 11
15.462
 21
4.849032960345727
 31
0.0
  0
LINE
  5
471
330
18
100
AcDbEntity
  8
Object
100
AcDbLine
 10
15.462
 20
4.849032960345727
 30
0.0
 11
15.446
 21
4.849032960345727
 31
0.0
  0
LINE
  5
472
330
18
100
AcDbEntity
  8
Object
100
AcDbLine
 10
15.446
 20
4.849032960345727
 30
0.0
 11
15.43
 21
4.849032960345727
 31
0.0
  0
LINE
  5
473
330
18
100
AcDbEntity
  8
Object
100
AcDbLine
 10
15.43
 20
4.849032960345727
 30
0.0
 11
15.336
 21
4.849032960345727
 31
0.0
  0
LINE
  5
474
330
18
100
AcDbEntity
  8
Object
100
AcDbLine
 10
15.336
 20
4.849032960345727
 30
0.0
 11
15.241
 21
4.849032960345727
 31
0.0
  0
LINE
  5
475
330
18
100
AcDbEntity
  8
Object
100
AcDbLine
 10
15.241
 20
4.849032960345727
 30
0.0
 11
15.157
 21
4.849032960345727
 31
0.0
  0
LINE
  5
476
330
18
100
AcDbEntity
  8
Object
100
AcDbLine
 10
15.157
 20
4.849032960345727
 30
0.0
 11
15.086
 21
4.849032960345727
 31
0.0
  0
LINE
  5
477
330
18
100
AcDbEntity
  8
Object
100
AcDbLine
 10
15.086
 20
4.849032960345727
 30
0.0
 11
15.029
 21
4.849032960345727
 31
0.0
  0
LINE
  5
478
330
18
100
AcDbEntity
  8
Object
100
AcDbLine
 10
15.029
 20
4.849032960345727
 30
0.0
 11
14.987
 21
4.849032960345727
 31
0.0
  0
LINE
  5
479
330
18
100
AcDbEntity
  8
Object
100
AcDbLine
 10
14.987
 20
4.849032960345727
 30
0.0
 11
14.959
 21
4.849032960345727
 31
0.0
  0
LINE
  5
47A
330
18
100
AcDbEntity
  8
Object
100
AcDbLine
 10
14.959
 20
4.849032960345727
 30
0.0
 11
14.948
 21
4.849032960345727
 31
0.0
  0
LINE
  5
47B
330
18
100
AcDbEntity
  8
Object
100
AcDbLine
 10
14.925
 20
4.849032960345727
 30
0.0
 11
14.948
 21
4.849032960345727
 31
0.0
  0
LINE
  5
47C
330
18
100
AcDbEntity
  8
Object
100
AcDbLine
 10
16.565
 20
4.898032960345727
 30
0.0
 11
16.549
 21
4.898032960345727
 31
0.0
  0
LINE
  5
47D
330
18
100
AcDbEntity
  8
Object
100
AcDbLine
 10
16.549
 20
4.898032960345727
 30
0.0
 11
16.533
 21
4.898032960345727
 31
0.0
  0
LINE
  5
47E
330
18
100
AcDbEntity
  8
Object
100
AcDbLine
 10
16.546
 20
4.852032960345727
 30
0.0
 11
16.535
 21
4.849032960345727
 31
0.0
  0
LINE
  5
47F
330
18
100
AcDbEntity
  8
Object
100
AcDbLine
 10
16.535
 20
4.849032960345727
 30
0.0
 11
16.52
 21
4.849032960345727
 31
0.0
  0
LINE
  5
480
330
18
100
AcDbEntity
  8
Object
100
AcDbLine
 10
16.555
 20
4.863032960345728
 30
0.0
 11
16.562
 21
4.879032960345728
 31
0.0
  0
LINE
  5
481
330
18
100
AcDbEntity
  8
Object
100
AcDbLine
 10
16.533
 20
4.898032960345727
 30
0.0
 11
16.517
 21
4.898032960345727
 31
0.0
  0
LINE
  5
482
330
18
100
AcDbEntity
  8
Object
100
AcDbLine
 10
16.546
 20
4.852032960345727
 30
0.0
 11
16.555
 21
4.863032960345728
 31
0.0
  0
LINE
  5
483
330
18
100
AcDbEntity
  8
Object
100
AcDbLine
 10
16.52
 20
4.849032960345727
 30
0.0
 11
16.504
 21
4.849032960345727
 31
0.0
  0
LINE
  5
484
330
18
100
AcDbEntity
  8
Object
100
AcDbLine
 10
16.504
 20
4.849032960345727
 30
0.0
 11
16.488
 21
4.849032960345727
 31
0.0
  0
LINE
  5
485
330
18
100
AcDbEntity
  8
Object
100
AcDbLine
 10
17.288
 20
6.379032960345727
 30
0.0
 11
17.286
 21
6.279032960345728
 31
0.0
  0
LINE
  5
486
330
18
100
AcDbEntity
  8
Object
100
AcDbLine
 10
17.286
 20
6.279032960345728
 30
0.0
 11
17.273
 21
5.879032960345727
 31
0.0
  0
LINE
  5
487
330
18
100
AcDbEntity
  8
Object
100
AcDbLine
 10
17.288
 20
6.379032960345727
 30
0.0
 11
17.286
 21
6.279032960345728
 31
0.0
  0
LINE
  5
488
330
18
100
AcDbEntity
  8
Object
100
AcDbLine
 10
17.286
 20
6.279032960345728
 30
0.0
 11
17.273
 21
5.879032960345727
 31
0.0
  0
LINE
  5
489
330
18
100
AcDbEntity
  8
Object
100
AcDbLine
 10
17.288
 20
6.379032960345727
 30
0.0
 11
17.273
 21
6.379032960345727
 31
0.0
  0
LINE
  5
48A
330
18
100
AcDbEntity
  8
Object
100
AcDbLine
 10
17.272
 20
5.879032960345727
 30
0.0
 11
17.26
 21
5.879032960345727
 31
0.0
  0
LINE
  5
48B
330
18
100
AcDbEntity
  8
Object
100
AcDbLine
 10
17.26
 20
5.879032960345727
 30
0.0
 11
17.233
 21
5.879032960345727
 31
0.0
  0
LINE
  5
48C
330
18
100
AcDbEntity
  8
Object
100
AcDbLine
 10
17.273
 20
6.379032960345727
 30
0.0
 11
17.242
 21
6.379032960345727
 31
0.0
  0
LINE
  5
48D
330
18
100
AcDbEntity
  8
Object
100
AcDbLine
 10
17.242
 20
6.379032960345727
 30
0.0
 11
17.197
 21
6.379032960345727
 31
0.0
  0
LINE
  5
48E
330
18
100
AcDbEntity
  8
Object
100
AcDbLine
 10
17.233
 20
5.879032960345727
 30
0.0
 11
17.191
 21
5.879032960345727
 31
0.0
  0
LINE
  5
48F
330
18
100
AcDbEntity
  8
Object
100
AcDbLine
 10
17.191
 20
5.879032960345727
 30
0.0
 11
17.134
 21
5.879032960345727
 31
0.0
  0
LINE
  5
490
330
18
100
AcDbEntity
  8
Object
100
AcDbLine
 10
17.197
 20
6.379032960345727
 30
0.0
 11
17.138
 21
6.379032960345727
 31
0.0
  0
LINE
  5
491
330
18
100
AcDbEntity
  8
Object
100
AcDbLine
 10
17.138
 20
6.379032960345727
 30
0.0
 11
17.065
 21
6.379032960345727
 31
0.0
  0
LINE
  5
492
330
18
100
AcDbEntity
  8
Object
100
AcDbLine
 10
17.134
 20
5.879032960345727
 30
0.0
 11
17.063
 21
5.879032960345727
 31
0.0
  0
LINE
  5
493
330
18
100
AcDbEntity
  8
Object
100
AcDbLine
 10
17.063
 20
5.879032960345727
 30
0.0
 11
16.979
 21
5.879032960345727
 31
0.0
  0
LINE
  5
494
330
18
100
AcDbEntity
  8
Object
100
AcDbLine
 10
17.065
 20
6.379032960345727
 30
0.0
 11
16.979
 21
6.379032960345727
 31
0.0
  0
LINE
  5
495
330
18
100
AcDbEntity
  8
Object
100
AcDbLine
 10
16.883
 20
5.879032960345727
 30
0.0
 11
16.979
 21
5.879032960345727
 31
0.0
  0
LINE
  5
496
330
18
100
AcDbEntity
  8
Object
100
AcDbLine
 10
16.979
 20
6.379032960345727
 30
0.0
 11
16.882
 21
6.379032960345727
 31
0.0
  0
LINE
  5
497
330
18
100
AcDbEntity
  8
Object
100
AcDbLine
 10
16.776
 20
5.879032960345727
 30
0.0
 11
16.883
 21
5.879032960345727
 31
0.0
  0
LINE
  5
498
330
18
100
AcDbEntity
  8
Object
100
AcDbLine
 10
16.882
 20
6.379032960345727
 30
0.0
 11
16.774
 21
6.379032960345727
 31
0.0
  0
LINE
  5
499
330
18
100
AcDbEntity
  8
Object
100
AcDbLine
 10
16.659
 20
5.879032960345727
 30
0.0
 11
16.776
 21
5.879032960345727
 31
0.0
  0
LINE
  5
49A
330
18
100
AcDbEntity
  8
Object
100
AcDbLine
 10
16.774
 20
6.379032960345727
 30
0.0
 11
16.657
 21
6.379032960345727
 31
0.0
  0
LINE
  5
49B
330
18
100
AcDbEntity
  8
Object
100
AcDbLine
 10
16.657
 20
6.379032960345727
 30
0.0
 11
16.532
 21
6.379032960345727
 31
0.0
  0
LINE
  5
49C
330
18
100
AcDbEntity
  8
Object
100
AcDbLine
 10
16.484
 20
6.279032960345728
 30
0.0
 11
16.6
 21
6.279032960345728
 31
0.0
  0
LINE
  5
49D
330
18
100
AcDbEntity
  8
Object
100
AcDbLine
 10
16.532
 20
6.379032960345727
 30
0.0
 11
16.4
 21
6.379032960345727
 31
0.0
  0
LINE
  5
49E
330
18
100
AcDbEntity
  8
Object
100
AcDbLine
 10
16.363
 20
6.279032960345728
 30
0.0
 11
16.484
 21
6.279032960345728
 31
0.0
  0
LINE
  5
49F
330
18
100
AcDbEntity
  8
Object
100
AcDbLine
 10
16.4
 20
6.379032960345727
 30
0.0
 11
16.264
 21
6.379032960345727
 31
0.0
  0
LINE
  5
4A0
330
18
100
AcDbEntity
  8
Object
100
AcDbLine
 10
16.238
 20
6.279032960345728
 30
0.0
 11
16.363
 21
6.279032960345728
 31
0.0
  0
LINE
  5
4A1
330
18
100
AcDbEntity
  8
Object
100
AcDbLine
 10
16.264
 20
6.379032960345727
 30
0.0
 11
16.124
 21
6.379032960345727
 31
0.0
  0
LINE
  5
4A2
330
18
100
AcDbEntity
  8
Object
100
AcDbLine
 10
16.111
 20
6.279032960345728
 30
0.0
 11
16.238
 21
6.279032960345728
 31
0.0
  0
LINE
  5
4A3
330
18
100
AcDbEntity
  8
Object
100
AcDbLine
 10
16.124
 20
6.379032960345727
 30
0.0
 11
15.983
 21
6.379032960345727
 31
0.0
  0
LINE
  5
4A4
330
18
100
AcDbEntity
  8
Object
100
AcDbLine
 10
15.983
 20
6.279032960345728
 30
0.0
 11
16.111
 21
6.279032960345728
 31
0.0
  0
LINE
  5
4A5
330
18
100
AcDbEntity
  8
Object
100
AcDbLine
 10
16.6
 20
6.279032960345728
 30
0.0
 11
16.484
 21
6.279032960345728
 31
0.0
  0
LINE
  5
4A6
330
18
100
AcDbEntity
  8
Object
100
AcDbLine
 10
16.484
 20
6.279032960345728
 30
0.0
 11
16.363
 21
6.279032960345728
 31
0.0
  0
LINE
  5
4A7
330
18
100
AcDbEntity
  8
Object
100
AcDbLine
 10
16.363
 20
6.279032960345728
 30
0.0
 11
16.238
 21
6.279032960345728
 31
0.0
  0
LINE
  5
4A8
330
18
100
AcDbEntity
  8
Object
100
AcDbLine
 10
16.238
 20
6.279032960345728
 30
0.0
 11
16.111
 21
6.279032960345728
 31
0.0
  0
LINE
  5
4A9
330
18
100
AcDbEntity
  8
Object
100
AcDbLine
 10
16.111
 20
6.279032960345728
 30
0.0
 11
15.983
 21
6.279032960345728
 31
0.0
  0
LINE
  5
4AA
330
18
100
AcDbEntity
  8
Object
100
AcDbLine
 10
15.983
 20
6.279032960345728
 30
0.0
 11
15.854
 21
6.279032960345728
 31
0.0
  0
LINE
  5
4AB
330
18
100
AcDbEntity
  8
Object
100
AcDbLine
 10
15.854
 20
6.279032960345728
 30
0.0
 11
15.727
 21
6.279032960345728
 31
0.0
  0
LINE
  5
4AC
330
18
100
AcDbEntity
  8
Object
100
AcDbLine
 10
15.727
 20
6.279032960345728
 30
0.0
 11
15.603
 21
6.279032960345728
 31
0.0
  0
LINE
  5
4AD
330
18
100
AcDbEntity
  8
Object
100
AcDbLine
 10
15.603
 20
6.279032960345728
 30
0.0
 11
15.482
 21
6.279032960345728
 31
0.0
  0
LINE
  5
4AE
330
18
100
AcDbEntity
  8
Object
100
AcDbLine
 10
15.482
 20
6.279032960345728
 30
0.0
 11
15.366
 21
6.279032960345728
 31
0.0
  0
LINE
  5
4AF
330
18
100
AcDbEntity
  8
Object
100
AcDbLine
 10
16.638
 20
5.879032960345727
 30
0.0
 11
16.659
 21
5.879032960345727
 31
0.0
  0
LINE
  5
4B0
330
18
100
AcDbEntity
  8
Object
100
AcDbLine
 10
16.659
 20
5.879032960345727
 30
0.0
 11
16.565
 21
4.898032960345727
 31
0.0
  0
LINE
  5
4B1
330
18
100
AcDbEntity
  8
Object
100
AcDbLine
 10
16.638
 20
5.879032960345727
 30
0.0
 11
16.617
 21
5.879032960345727
 31
0.0
  0
LINE
  5
4B2
330
18
100
AcDbEntity
  8
Object
100
AcDbLine
 10
16.617
 20
5.879032960345727
 30
0.0
 11
16.596
 21
5.879032960345727
 31
0.0
  0
LINE
  5
4B3
330
18
100
AcDbEntity
  8
Object
100
AcDbLine
 10
15.462
 20
4.849032960345727
 30
0.0
 11
15.478
 21
4.849032960345727
 31
0.0
  0
LINE
  5
4B4
330
18
100
AcDbEntity
  8
Object
100
AcDbLine
 10
15.452
 20
4.879032960345728
 30
0.0
 11
15.449
 21
4.898032960345727
 31
0.0
  0
LINE
  5
4B5
330
18
100
AcDbEntity
  8
Object
100
AcDbLine
 10
15.468
 20
4.852032960345727
 30
0.0
 11
15.459
 21
4.863032960345728
 31
0.0
  0
LINE
  5
4B6
330
18
100
AcDbEntity
  8
Object
100
AcDbLine
 10
15.43
 20
4.849032960345727
 30
0.0
 11
15.446
 21
4.849032960345727
 31
0.0
  0
LINE
  5
4B7
330
18
100
AcDbEntity
  8
Object
100
AcDbLine
 10
15.446
 20
4.849032960345727
 30
0.0
 11
15.462
 21
4.849032960345727
 31
0.0
  0
LINE
  5
4B8
330
18
100
AcDbEntity
  8
Object
100
AcDbLine
 10
15.459
 20
4.863032960345728
 30
0.0
 11
15.452
 21
4.879032960345728
 31
0.0
  0
LINE
  5
4B9
330
18
100
AcDbEntity
  8
Object
100
AcDbLine
 10
15.4
 20
4.898032960345727
 30
0.0
 11
15.404
 21
4.879032960345728
 31
0.0
  0
LINE
  5
4BA
330
18
100
AcDbEntity
  8
Object
100
AcDbLine
 10
15.432
 20
4.898032960345727
 30
0.0
 11
15.449
 21
4.898032960345727
 31
0.0
  0
LINE
  5
4BB
330
18
100
AcDbEntity
  8
Object
100
AcDbLine
 10
15.348
 20
5.879032960345727
 30
0.0
 11
15.37
 21
5.879032960345727
 31
0.0
  0
LINE
  5
4BC
330
18
100
AcDbEntity
  8
Object
100
AcDbLine
 10
15.37
 20
5.879032960345727
 30
0.0
 11
15.449
 21
4.898032960345727
 31
0.0
  0
LINE
  5
4BD
330
18
100
AcDbEntity
  8
Object
100
AcDbLine
 10
15.432
 20
4.898032960345727
 30
0.0
 11
15.416
 21
4.898032960345727
 31
0.0
  0
LINE
  5
4BE
330
18
100
AcDbEntity
  8
Object
100
AcDbLine
 10
15.416
 20
4.898032960345727
 30
0.0
 11
15.4
 21
4.898032960345727
 31
0.0
  0
LINE
  5
4BF
330
18
100
AcDbEntity
  8
Object
100
AcDbLine
 10
15.4
 20
4.898032960345727
 30
0.0
 11
15.306
 21
5.879032960345727
 31
0.0
  0
LINE
  5
4C0
330
18
100
AcDbEntity
  8
Object
100
AcDbLine
 10
15.306
 20
5.879032960345727
 30
0.0
 11
15.327
 21
5.879032960345727
 31
0.0
  0
LINE
  5
4C1
330
18
100
AcDbEntity
  8
Object
100
AcDbLine
 10
15.983
 20
6.379032960345727
 30
0.0
 11
15.983
 21
6.279032960345728
 31
0.0
  0
LINE
  5
4C2
330
18
100
AcDbEntity
  8
Object
100
AcDbLine
 10
15.983
 20
6.279032960345728
 30
0.0
 11
15.854
 21
6.279032960345728
 31
0.0
  0
LINE
  5
4C3
330
18
100
AcDbEntity
  8
Object
100
AcDbLine
 10
15.983
 20
6.379032960345727
 30
0.0
 11
15.841
 21
6.379032960345727
 31
0.0
  0
LINE
  5
4C4
330
18
100
AcDbEntity
  8
Object
100
AcDbLine
 10
15.727
 20
6.279032960345728
 30
0.0
 11
15.854
 21
6.279032960345728
 31
0.0
  0
LINE
  5
4C5
330
18
100
AcDbEntity
  8
Object
100
AcDbLine
 10
15.841
 20
6.379032960345727
 30
0.0
 11
15.702
 21
6.379032960345727
 31
0.0
  0
LINE
  5
4C6
330
18
100
AcDbEntity
  8
Object
100
AcDbLine
 10
15.603
 20
6.279032960345728
 30
0.0
 11
15.727
 21
6.279032960345728
 31
0.0
  0
LINE
  5
4C7
330
18
100
AcDbEntity
  8
Object
100
AcDbLine
 10
15.702
 20
6.379032960345727
 30
0.0
 11
15.565
 21
6.379032960345727
 31
0.0
  0
LINE
  5
4C8
330
18
100
AcDbEntity
  8
Object
100
AcDbLine
 10
15.482
 20
6.279032960345728
 30
0.0
 11
15.603
 21
6.279032960345728
 31
0.0
  0
LINE
  5
4C9
330
18
100
AcDbEntity
  8
Object
100
AcDbLine
 10
15.565
 20
6.379032960345727
 30
0.0
 11
15.434
 21
6.379032960345727
 31
0.0
  0
LINE
  5
4CA
330
18
100
AcDbEntity
  8
Object
100
AcDbLine
 10
15.482
 20
6.279032960345728
 30
0.0
 11
15.366
 21
6.279032960345728
 31
0.0
  0
LINE
  5
4CB
330
18
100
AcDbEntity
  8
Object
100
AcDbLine
 10
15.366
 20
6.279032960345728
 30
0.0
 11
15.37
 21
5.879032960345727
 31
0.0
  0
LINE
  5
4CC
330
18
100
AcDbEntity
  8
Object
100
AcDbLine
 10
15.434
 20
6.379032960345727
 30
0.0
 11
15.309
 21
6.379032960345727
 31
0.0
  0
LINE
  5
4CD
330
18
100
AcDbEntity
  8
Object
100
AcDbLine
 10
15.327
 20
5.879032960345727
 30
0.0
 11
15.348
 21
5.879032960345727
 31
0.0
  0
LINE
  5
4CE
330
18
100
AcDbEntity
  8
Object
100
AcDbLine
 10
15.309
 20
6.379032960345727
 30
0.0
 11
15.192
 21
6.379032960345727
 31
0.0
  0
LINE
  5
4CF
330
18
100
AcDbEntity
  8
Object
100
AcDbLine
 10
15.19
 20
5.879032960345727
 30
0.0
 11
15.306
 21
5.879032960345727
 31
0.0
  0
LINE
  5
4D0
330
18
100
AcDbEntity
  8
Object
100
AcDbLine
 10
15.192
 20
6.379032960345727
 30
0.0
 11
15.084
 21
6.379032960345727
 31
0.0
  0
LINE
  5
4D1
330
18
100
AcDbEntity
  8
Object
100
AcDbLine
 10
15.19
 20
5.879032960345727
 30
0.0
 11
15.083
 21
5.879032960345727
 31
0.0
  0
LINE
  5
4D2
330
18
100
AcDbEntity
  8
Object
100
AcDbLine
 10
15.083
 20
5.879032960345727
 30
0.0
 11
14.987
 21
5.879032960345727
 31
0.0
  0
LINE
  5
4D3
330
18
100
AcDbEntity
  8
Object
100
AcDbLine
 10
15.084
 20
6.379032960345727
 30
0.0
 11
14.986
 21
6.379032960345727
 31
0.0
  0
LINE
  5
4D4
330
18
100
AcDbEntity
  8
Object
100
AcDbLine
 10
14.986
 20
6.379032960345727
 30
0.0
 11
14.901
 21
6.379032960345727
 31
0.0
  0
LINE
  5
4D5
330
18
100
AcDbEntity
  8
Object
100
AcDbLine
 10
14.987
 20
5.879032960345727
 30
0.0
 11
14.903
 21
5.879032960345727
 31
0.0
  0
LINE
  5
4D6
330
18
100
AcDbEntity
  8
Object
100
AcDbLine
 10
14.903
 20
5.879032960345727
 30
0.0
 11
14.832
 21
5.879032960345727
 31
0.0
  0
LINE
  5
4D7
330
18
100
AcDbEntity
  8
Object
100
AcDbLine
 10
14.901
 20
6.379032960345727
 30
0.0
 11
14.828
 21
6.379032960345727
 31
0.0
  0
LINE
  5
4D8
330
18
100
AcDbEntity
  8
Object
100
AcDbLine
 10
14.828
 20
6.379032960345727
 30
0.0
 11
14.768
 21
6.379032960345727
 31
0.0
  0
LINE
  5
4D9
330
18
100
AcDbEntity
  8
Object
100
AcDbLine
 10
14.832
 20
5.879032960345727
 30
0.0
 11
14.775
 21
5.879032960345727
 31
0.0
  0
LINE
  5
4DA
330
18
100
AcDbEntity
  8
Object
100
AcDbLine
 10
14.775
 20
5.879032960345727
 30
0.0
 11
14.732
 21
5.879032960345727
 31
0.0
  0
LINE
  5
4DB
330
18
100
AcDbEntity
  8
Object
100
AcDbLine
 10
14.768
 20
6.379032960345727
 30
0.0
 11
14.723
 21
6.379032960345727
 31
0.0
  0
LINE
  5
4DC
330
18
100
AcDbEntity
  8
Object
100
AcDbLine
 10
14.723
 20
6.379032960345727
 30
0.0
 11
14.693
 21
6.379032960345727
 31
0.0
  0
LINE
  5
4DD
330
18
100
AcDbEntity
  8
Object
100
AcDbLine
 10
14.705
 20
5.879032960345727
 30
0.0
 11
14.732
 21
5.879032960345727
 31
0.0
  0
LINE
  5
4DE
330
18
100
AcDbEntity
  8
Object
100
AcDbLine
 10
14.679
 20
6.279032960345728
 30
0.0
 11
14.693
 21
5.879032960345727
 31
0.0
  0
LINE
  5
4DF
330
18
100
AcDbEntity
  8
Object
100
AcDbLine
 10
14.693
 20
5.879032960345727
 30
0.0
 11
14.705
 21
5.879032960345727
 31
0.0
  0
LINE
  5
4E0
330
18
100
AcDbEntity
  8
Object
100
AcDbLine
 10
14.677
 20
6.379032960345727
 30
0.0
 11
14.693
 21
5.879032960345727
 31
0.0
  0
LINE
  5
4E1
330
18
100
AcDbEntity
  8
Object
100
AcDbLine
 10
14.693
 20
5.879032960345727
 30
0.0
 11
14.679
 21
6.279032960345728
 31
0.0
  0
LINE
  5
4E2
330
18
100
AcDbEntity
  8
Object
100
AcDbLine
 10
14.679
 20
6.279032960345728
 30
0.0
 11
14.677
 21
6.379032960345727
 31
0.0
  0
LINE
  5
4E3
330
18
100
AcDbEntity
  8
Object
100
AcDbLine
 10
14.677
 20
6.379032960345727
 30
0.0
 11
14.693
 21
6.379032960345727
 31
0.0
  0
LINE
  5
4E4
330
18
100
AcDbEntity
  8
Object
100
AcDbLine
 10
14.677
 20
6.379032960345727
 30
0.0
 11
14.679
 21
6.279032960345728
 31
0.0
  0
LINE
  5
4E5
330
18
100
AcDbEntity
  8
Object
100
AcDbLine
 10
16.562
 20
4.879032960345728
 30
0.0
 11
16.565
 21
4.898032960345727
 31
0.0
  0
LINE
  5
4E6
330
18
100
AcDbEntity
  8
Object
100
AcDbLine
 10
14.925
 20
4.849032960345727
 30
0.0
 11
14.905
 21
4.852032960345727
 31
0.0
  0
LINE
  5
4E7
330
18
100
AcDbEntity
  8
Object
100
AcDbLine
 10
14.905
 20
4.852032960345727
 30
0.0
 11
14.887
 21
4.863032960345728
 31
0.0
  0
LINE
  5
4E8
330
18
100
AcDbEntity
  8
Object
100
AcDbLine
 10
14.887
 20
4.863032960345728
 30
0.0
 11
14.873
 21
4.879032960345728
 31
0.0
  0
LINE
  5
4E9
330
18
100
AcDbEntity
  8
Object
100
AcDbLine
 10
14.873
 20
4.879032960345728
 30
0.0
 11
14.866
 21
4.898032960345727
 31
0.0
  0
LINE
  5
4EA
330
18
100
AcDbEntity
  8
Object
100
AcDbLine
 10
14.925
 20
4.849032960345727
 30
0.0
 11
14.905
 21
4.852032960345727
 31
0.0
  0
LINE
  5
4EB
330
18
100
AcDbEntity
  8
Object
100
AcDbLine
 10
14.905
 20
4.852032960345727
 30
0.0
 11
14.887
 21
4.863032960345728
 31
0.0
  0
LINE
  5
4EC
330
18
100
AcDbEntity
  8
Object
100
AcDbLine
 10
14.887
 20
4.863032960345728
 30
0.0
 11
14.873
 21
4.879032960345728
 31
0.0
  0
LINE
  5
4ED
330
18
100
AcDbEntity
  8
Object
100
AcDbLine
 10
14.925
 20
4.849032960345727
 30
0.0
 11
14.948
 21
4.849032960345727
 31
0.0
  0
LINE
  5
4EE
330
18
100
AcDbEntity
  8
Object
100
AcDbLine
 10
14.866
 20
4.898032960345727
 30
0.0
 11
14.873
 21
4.879032960345728
 31
0.0
  0
LINE
  5
4EF
330
18
100
AcDbEntity
  8
Object
100
AcDbLine
 10
14.948
 20
4.849032960345727
 30
0.0
 11
14.911
 21
5.879032960345727
 31
0.0
  0
LINE
  5
4F0
330
18
100
AcDbEntity
  8
Object
100
AcDbLine
 10
14.693
 20
5.879032960345727
 30
0.0
 11
14.866
 21
4.898032960345727
 31
0.0
  0
LINE
  5
4F1
330
18
100
AcDbEntity
  8
Object
100
AcDbLine
 10
15.43
 20
4.849032960345727
 30
0.0
 11
15.336
 21
4.849032960345727
 31
0.0
  0
LINE
  5
4F2
330
18
100
AcDbEntity
  8
Object
100
AcDbLine
 10
15.336
 20
4.849032960345727
 30
0.0
 11
15.241
 21
4.849032960345727
 31
0.0
  0
LINE
  5
4F3
330
18
100
AcDbEntity
  8
Object
100
AcDbLine
 10
15.241
 20
4.849032960345727
 30
0.0
 11
15.157
 21
4.849032960345727
 31
0.0
  0
LINE
  5
4F4
330
18
100
AcDbEntity
  8
Object
100
AcDbLine
 10
15.157
 20
4.849032960345727
 30
0.0
 11
15.086
 21
4.849032960345727
 31
0.0
  0
LINE
  5
4F5
330
18
100
AcDbEntity
  8
Object
100
AcDbLine
 10
15.086
 20
4.849032960345727
 30
0.0
 11
15.029
 21
4.849032960345727
 31
0.0
  0
LINE
  5
4F6
330
18
100
AcDbEntity
  8
Object
100
AcDbLine
 10
15.029
 20
4.849032960345727
 30
0.0
 11
14.987
 21
4.849032960345727
 31
0.0
  0
LINE
  5
4F7
330
18
100
AcDbEntity
  8
Object
100
AcDbLine
 10
14.987
 20
4.849032960345727
 30
0.0
 11
14.959
 21
4.849032960345727
 31
0.0
  0
LINE
  5
4F8
330
18
100
AcDbEntity
  8
Object
100
AcDbLine
 10
14.959
 20
4.849032960345727
 30
0.0
 11
14.948
 21
4.849032960345727
 31
0.0
  0
LINE
  5
4F9
330
18
100
AcDbEntity
  8
Object
100
AcDbLine
 10
17.053
 20
5.879032960345727
 30
0.0
 11
17.017
 21
4.849032960345727
 31
0.0
  0
LINE
  5
4FA
330
18
100
AcDbEntity
  8
Object
100
AcDbLine
 10
17.017
 20
4.849032960345727
 30
0.0
 11
17.006
 21
4.849032960345727
 31
0.0
  0
LINE
  5
4FB
330
18
100
AcDbEntity
  8
Object
100
AcDbLine
 10
17.006
 20
4.849032960345727
 30
0.0
 11
16.979
 21
4.849032960345727
 31
0.0
  0
LINE
  5
4FC
330
18
100
AcDbEntity
  8
Object
100
AcDbLine
 10
16.979
 20
4.849032960345727
 30
0.0
 11
16.936
 21
4.849032960345727
 31
0.0
  0
LINE
  5
4FD
330
18
100
AcDbEntity
  8
Object
100
AcDbLine
 10
16.936
 20
4.849032960345727
 30
0.0
 11
16.879
 21
4.849032960345727
 31
0.0
  0
LINE
  5
4FE
330
18
100
AcDbEntity
  8
Object
100
AcDbLine
 10
16.879
 20
4.849032960345727
 30
0.0
 11
16.808
 21
4.849032960345727
 31
0.0
  0
LINE
  5
4FF
330
18
100
AcDbEntity
  8
Object
100
AcDbLine
 10
16.808
 20
4.849032960345727
 30
0.0
 11
16.724
 21
4.849032960345727
 31
0.0
  0
LINE
  5
500
330
18
100
AcDbEntity
  8
Object
100
AcDbLine
 10
16.724
 20
4.849032960345727
 30
0.0
 11
16.629
 21
4.849032960345727
 31
0.0
  0
LINE
  5
501
330
18
100
AcDbEntity
  8
Object
100
AcDbLine
 10
16.629
 20
4.849032960345727
 30
0.0
 11
16.535
 21
4.849032960345727
 31
0.0
  0
LINE
  5
502
330
18
100
AcDbEntity
  8
Object
100
AcDbLine
 10
17.092
 20
4.879032960345728
 30
0.0
 11
17.1
 21
4.898032960345727
 31
0.0
  0
LINE
  5
503
330
18
100
AcDbEntity
  8
Object
100
AcDbLine
 10
17.1
 20
4.898032960345727
 30
0.0
 11
17.099
 21
4.898032960345727
 31
0.0
  0
LINE
  5
504
330
18
100
AcDbEntity
  8
Object
100
AcDbLine
 10
17.1
 20
4.898032960345727
 30
0.0
 11
17.092
 21
4.879032960345728
 31
0.0
  0
LINE
  5
505
330
18
100
AcDbEntity
  8
Object
100
AcDbLine
 10
17.092
 20
4.879032960345728
 30
0.0
 11
17.079
 21
4.863032960345728
 31
0.0
  0
LINE
  5
506
330
18
100
AcDbEntity
  8
Object
100
AcDbLine
 10
17.079
 20
4.863032960345728
 30
0.0
 11
17.061
 21
4.852032960345727
 31
0.0
  0
LINE
  5
507
330
18
100
AcDbEntity
  8
Object
100
AcDbLine
 10
17.061
 20
4.852032960345727
 30
0.0
 11
17.041
 21
4.849032960345727
 31
0.0
  0
LINE
  5
508
330
18
100
AcDbEntity
  8
Object
100
AcDbLine
 10
17.041
 20
4.849032960345727
 30
0.0
 11
17.04
 21
4.849032960345727
 31
0.0
  0
LINE
  5
509
330
18
100
AcDbEntity
  8
Object
100
AcDbLine
 10
17.04
 20
4.849032960345727
 30
0.0
 11
17.061
 21
4.852032960345727
 31
0.0
  0
LINE
  5
50A
330
18
100
AcDbEntity
  8
Object
100
AcDbLine
 10
17.061
 20
4.852032960345727
 30
0.0
 11
17.041
 21
4.849032960345727
 31
0.0
  0
LINE
  5
50B
330
18
100
AcDbEntity
  8
Object
100
AcDbLine
 10
15.42
 20
4.852032960345727
 30
0.0
 11
15.411
 21
4.863032960345728
 31
0.0
  0
LINE
  5
50C
330
18
100
AcDbEntity
  8
Object
100
AcDbLine
 10
15.411
 20
4.863032960345728
 30
0.0
 11
15.404
 21
4.879032960345728
 31
0.0
  0
LINE
  5
50D
330
18
100
AcDbEntity
  8
Object
100
AcDbLine
 10
15.42
 20
4.852032960345727
 30
0.0
 11
15.43
 21
4.849032960345727
 31
0.0
  0
LINE
  5
50E
330
18
100
AcDbEntity
  8
Object
100
AcDbLine
 10
17.272
 20
5.879032960345727
 30
0.0
 11
17.099
 21
4.898032960345727
 31
0.0
  0
LINE
  5
50F
330
18
100
AcDbEntity
  8
Object
100
AcDbLine
 10
17.099
 20
4.898032960345727
 30
0.0
 11
17.092
 21
4.879032960345728
 31
0.0
  0
LINE
  5
510
330
18
100
AcDbEntity
  8
Object
100
AcDbLine
 10
17.092
 20
4.879032960345728
 30
0.0
 11
17.079
 21
4.863032960345728
 31
0.0
  0
LINE
  5
511
330
18
100
AcDbEntity
  8
Object
100
AcDbLine
 10
17.079
 20
4.863032960345728
 30
0.0
 11
17.061
 21
4.852032960345727
 31
0.0
  0
LINE
  5
512
330
18
100
AcDbEntity
  8
Object
100
AcDbLine
 10
17.017
 20
4.849032960345727
 30
0.0
 11
17.04
 21
4.849032960345727
 31
0.0
  0
LINE
  5
513
330
18
100
AcDbEntity
  8
Object
100
AcDbLine
 10
17.1
 20
4.898032960345727
 30
0.0
 11
17.273
 21
5.879032960345727
 31
0.0
  0
LINE
  5
514
330
18
100
AcDbEntity
  8
Object
100
AcDbLine
 10
17.273
 20
5.879032960345727
 30
0.0
 11
17.1
 21
4.898032960345727
 31
0.0
  0
LINE
  5
515
330
18
100
AcDbEntity
  8
Object
100
AcDbLine
 10
17.273
 20
5.879032960345727
 30
0.0
 11
17.272
 21
5.879032960345727
 31
0.0
  0
LINE
  5
516
330
18
100
AcDbEntity
  8
Object
100
AcDbLine
 10
17.288
 20
6.379032960345727
 30
0.0
 11
17.273
 21
6.379032960345727
 31
0.0
  0
LINE
  5
517
330
18
100
AcDbEntity
  8
Object
100
AcDbLine
 10
17.273
 20
6.379032960345727
 30
0.0
 11
17.242
 21
6.379032960345727
 31
0.0
  0
LINE
  5
518
330
18
100
AcDbEntity
  8
Object
100
AcDbLine
 10
17.242
 20
6.379032960345727
 30
0.0
 11
17.197
 21
6.379032960345727
 31
0.0
  0
LINE
  5
519
330
18
100
AcDbEntity
  8
Object
100
AcDbLine
 10
17.197
 20
6.379032960345727
 30
0.0
 11
17.138
 21
6.379032960345727
 31
0.0
  0
LINE
  5
51A
330
18
100
AcDbEntity
  8
Object
100
AcDbLine
 10
17.138
 20
6.379032960345727
 30
0.0
 11
17.065
 21
6.379032960345727
 31
0.0
  0
LINE
  5
51B
330
18
100
AcDbEntity
  8
Object
100
AcDbLine
 10
17.065
 20
6.379032960345727
 30
0.0
 11
16.979
 21
6.379032960345727
 31
0.0
  0
LINE
  5
51C
330
18
100
AcDbEntity
  8
Object
100
AcDbLine
 10
16.979
 20
6.379032960345727
 30
0.0
 11
16.882
 21
6.379032960345727
 31
0.0
  0
LINE
  5
51D
330
18
100
AcDbEntity
  8
Object
100
AcDbLine
 10
16.882
 20
6.379032960345727
 30
0.0
 11
16.774
 21
6.379032960345727
 31
0.0
  0
LINE
  5
51E
330
18
100
AcDbEntity
  8
Object
100
AcDbLine
 10
16.774
 20
6.379032960345727
 30
0.0
 11
16.657
 21
6.379032960345727
 31
0.0
  0
LINE
  5
51F
330
18
100
AcDbEntity
  8
Object
100
AcDbLine
 10
16.657
 20
6.379032960345727
 30
0.0
 11
16.532
 21
6.379032960345727
 31
0.0
  0
LINE
  5
520
330
18
100
AcDbEntity
  8
Object
100
AcDbLine
 10
16.532
 20
6.379032960345727
 30
0.0
 11
16.4
 21
6.379032960345727
 31
0.0
  0
LINE
  5
521
330
18
100
AcDbEntity
  8
Object
100
AcDbLine
 10
16.4
 20
6.379032960345727
 30
0.0
 11
16.264
 21
6.379032960345727
 31
0.0
  0
LINE
  5
522
330
18
100
AcDbEntity
  8
Object
100
AcDbLine
 10
16.264
 20
6.379032960345727
 30
0.0
 11
16.124
 21
6.379032960345727
 31
0.0
  0
LINE
  5
523
330
18
100
AcDbEntity
  8
Object
100
AcDbLine
 10
16.124
 20
6.379032960345727
 30
0.0
 11
15.983
 21
6.379032960345727
 31
0.0
  0
LINE
  5
524
330
18
100
AcDbEntity
  8
Object
100
AcDbLine
 10
15.983
 20
6.379032960345727
 30
0.0
 11
15.841
 21
6.379032960345727
 31
0.0
  0
LINE
  5
525
330
18
100
AcDbEntity
  8
Object
100
AcDbLine
 10
15.841
 20
6.379032960345727
 30
0.0
 11
15.702
 21
6.379032960345727
 31
0.0
  0
LINE
  5
526
330
18
100
AcDbEntity
  8
Object
100
AcDbLine
 10
15.702
 20
6.379032960345727
 30
0.0
 11
15.565
 21
6.379032960345727
 31
0.0
  0
LINE
  5
527
330
18
100
AcDbEntity
  8
Object
100
AcDbLine
 10
15.565
 20
6.379032960345727
 30
0.0
 11
15.434
 21
6.379032960345727
 31
0.0
  0
LINE
  5
528
330
18
100
AcDbEntity
  8
Object
100
AcDbLine
 10
15.434
 20
6.379032960345727
 30
0.0
 11
15.309
 21
6.379032960345727
 31
0.0
  0
LINE
  5
529
330
18
100
AcDbEntity
  8
Object
100
AcDbLine
 10
15.309
 20
6.379032960345727
 30
0.0
 11
15.192
 21
6.379032960345727
 31
0.0
  0
LINE
  5
52A
330
18
100
AcDbEntity
  8
Object
100
AcDbLine
 10
15.192
 20
6.379032960345727
 30
0.0
 11
15.084
 21
6.379032960345727
 31
0.0
  0
LINE
  5
52B
330
18
100
AcDbEntity
  8
Object
100
AcDbLine
 10
15.084
 20
6.379032960345727
 30
0.0
 11
14.986
 21
6.379032960345727
 31
0.0
  0
LINE
  5
52C
330
18
100
AcDbEntity
  8
Object
100
AcDbLine
 10
14.986
 20
6.379032960345727
 30
0.0
 11
14.901
 21
6.379032960345727
 31
0.0
  0
LINE
  5
52D
330
18
100
AcDbEntity
  8
Object
100
AcDbLine
 10
14.901
 20
6.379032960345727
 30
0.0
 11
14.828
 21
6.379032960345727
 31
0.0
  0
LINE
  5
52E
330
18
100
AcDbEntity
  8
Object
100
AcDbLine
 10
14.828
 20
6.379032960345727
 30
0.0
 11
14.768
 21
6.379032960345727
 31
0.0
  0
LINE
  5
52F
330
18
100
AcDbEntity
  8
Object
100
AcDbLine
 10
14.768
 20
6.379032960345727
 30
0.0
 11
14.723
 21
6.379032960345727
 31
0.0
  0
LINE
  5
530
330
18
100
AcDbEntity
  8
Object
100
AcDbLine
 10
14.723
 20
6.379032960345727
 30
0.0
 11
14.693
 21
6.379032960345727
 31
0.0
  0
LINE
  5
531
330
18
100
AcDbEntity
  8
Object
100
AcDbLine
 10
14.693
 20
6.379032960345727
 30
0.0
 11
14.677
 21
6.379032960345727
 31
0.0
  0
LINE
  5
532
330
18
100
AcDbEntity
  8
Object
100
AcDbLine
 10
17.272
 20
5.879032960345727
 30
0.0
 11
17.26
 21
5.879032960345727
 31
0.0
  0
LINE
  5
533
330
18
100
AcDbEntity
  8
Object
100
AcDbLine
 10
17.26
 20
5.879032960345727
 30
0.0
 11
17.233
 21
5.879032960345727
 31
0.0
  0
LINE
  5
534
330
18
100
AcDbEntity
  8
Object
100
AcDbLine
 10
17.233
 20
5.879032960345727
 30
0.0
 11
17.191
 21
5.879032960345727
 31
0.0
  0
LINE
  5
535
330
18
100
AcDbEntity
  8
Object
100
AcDbLine
 10
17.191
 20
5.879032960345727
 30
0.0
 11
17.134
 21
5.879032960345727
 31
0.0
  0
LINE
  5
536
330
18
100
AcDbEntity
  8
Object
100
AcDbLine
 10
17.134
 20
5.879032960345727
 30
0.0
 11
17.063
 21
5.879032960345727
 31
0.0
  0
LINE
  5
537
330
18
100
AcDbEntity
  8
Object
100
AcDbLine
 10
17.063
 20
5.879032960345727
 30
0.0
 11
16.979
 21
5.879032960345727
 31
0.0
  0
LINE
  5
538
330
18
100
AcDbEntity
  8
Object
100
AcDbLine
 10
16.979
 20
5.879032960345727
 30
0.0
 11
16.883
 21
5.879032960345727
 31
0.0
  0
LINE
  5
539
330
18
100
AcDbEntity
  8
Object
100
AcDbLine
 10
16.883
 20
5.879032960345727
 30
0.0
 11
16.776
 21
5.879032960345727
 31
0.0
  0
LINE
  5
53A
330
18
100
AcDbEntity
  8
Object
100
AcDbLine
 10
16.776
 20
5.879032960345727
 30
0.0
 11
16.659
 21
5.879032960345727
 31
0.0
  0
LINE
  5
53B
330
18
100
AcDbEntity
  8
Object
100
AcDbLine
 10
14.693
 20
5.879032960345727
 30
0.0
 11
14.866
 21
4.898032960345727
 31
0.0
  0
LINE
  5
53C
330
18
100
AcDbEntity
  8
Object
100
AcDbLine
 10
15.306
 20
5.879032960345727
 30
0.0
 11
15.19
 21
5.879032960345727
 31
0.0
  0
LINE
  5
53D
330
18
100
AcDbEntity
  8
Object
100
AcDbLine
 10
15.19
 20
5.879032960345727
 30
0.0
 11
15.083
 21
5.879032960345727
 31
0.0
  0
LINE
  5
53E
330
18
100
AcDbEntity
  8
Object
100
AcDbLine
 10
15.083
 20
5.879032960345727
 30
0.0
 11
14.987
 21
5.879032960345727
 31
0.0
  0
LINE
  5
53F
330
18
100
AcDbEntity
  8
Object
100
AcDbLine
 10
14.987
 20
5.879032960345727
 30
0.0
 11
14.903
 21
5.879032960345727
 31
0.0
  0
LINE
  5
540
330
18
100
AcDbEntity
  8
Object
100
AcDbLine
 10
14.903
 20
5.879032960345727
 30
0.0
 11
14.832
 21
5.879032960345727
 31
0.0
  0
LINE
  5
541
330
18
100
AcDbEntity
  8
Object
100
AcDbLine
 10
14.832
 20
5.879032960345727
 30
0.0
 11
14.775
 21
5.879032960345727
 31
0.0
  0
LINE
  5
542
330
18
100
AcDbEntity
  8
Object
100
AcDbLine
 10
14.775
 20
5.879032960345727
 30
0.0
 11
14.732
 21
5.879032960345727
 31
0.0
  0
LINE
  5
543
330
18
100
AcDbEntity
  8
Object
100
AcDbLine
 10
14.732
 20
5.879032960345727
 30
0.0
 11
14.705
 21
5.879032960345727
 31
0.0
  0
LINE
  5
544
330
18
100
AcDbEntity
  8
Object
100
AcDbLine
 10
14.705
 20
5.879032960345727
 30
0.0
 11
14.693
 21
5.879032960345727
 31
0.0
  0
LINE
  5
545
330
18
100
AcDbEntity
  8
Object
100
AcDbLine
 10
3.754999999999999
 20
6.643032960345728
 30
0.0
 11
3.745
 21
6.654032960345728
 31
0.0
  0
LINE
  5
546
330
18
100
AcDbEntity
  8
Object
100
AcDbLine
 10
3.745
 20
6.654032960345728
 30
0.0
 11
3.737
 21
6.667032960345728
 31
0.0
  0
LINE
  5
547
330
18
100
AcDbEntity
  8
Object
100
AcDbLine
 10
3.693999999999999
 20
6.750032960345728
 30
0.0
 11
3.705999999999999
 21
6.720032960345728
 31
0.0
  0
LINE
  5
548
330
18
100
AcDbEntity
  8
Object
100
AcDbLine
 10
3.993
 20
6.507032960345727
 30
0.0
 11
3.990999999999999
 21
6.508032960345728
 31
0.0
  0
LINE
  5
549
330
18
100
AcDbEntity
  8
Object
100
AcDbLine
 10
3.990999999999999
 20
6.508032960345728
 30
0.0
 11
3.983
 21
6.509032960345727
 31
0.0
  0
LINE
  5
54A
330
18
100
AcDbEntity
  8
Object
100
AcDbLine
 10
3.777
 20
6.617032960345728
 30
0.0
 11
3.772999999999999
 21
6.622032960345728
 31
0.0
  0
LINE
  5
54B
330
18
100
AcDbEntity
  8
Object
100
AcDbLine
 10
3.772999999999999
 20
6.622032960345728
 30
0.0
 11
3.772
 21
6.623032960345728
 31
0.0
  0
LINE
  5
54C
330
18
100
AcDbEntity
  8
Object
100
AcDbLine
 10
3.705999999999999
 20
6.720032960345728
 30
0.0
 11
3.692999999999999
 21
6.750032960345728
 31
0.0
  0
LINE
  5
54D
330
18
100
AcDbEntity
  8
Object
100
AcDbLine
 10
3.692999999999999
 20
6.750032960345728
 30
0.0
 11
3.684
 21
6.779032960345728
 31
0.0
  0
LINE
  5
54E
330
18
100
AcDbEntity
  8
Object
100
AcDbLine
 10
3.684
 20
6.779032960345728
 30
0.0
 11
3.679999999999999
 21
6.797032960345728
 31
0.0
  0
LINE
  5
54F
330
18
100
AcDbEntity
  8
Object
100
AcDbLine
 10
6.796
 20
6.504032960345727
 30
0.0
 11
6.79
 21
6.504032960345727
 31
0.0
  0
LINE
  5
550
330
18
100
AcDbEntity
  8
Object
100
AcDbLine
 10
6.79
 20
6.504032960345727
 30
0.0
 11
6.770999999999999
 21
6.504032960345727
 31
0.0
  0
LINE
  5
551
330
18
100
AcDbEntity
  8
Object
100
AcDbLine
 10
6.770999999999999
 20
6.504032960345727
 30
0.0
 11
6.756
 21
6.504032960345727
 31
0.0
  0
LINE
  5
552
330
18
100
AcDbEntity
  8
Object
100
AcDbLine
 10
6.756
 20
6.504032960345727
 30
0.0
 11
6.738999999999999
 21
6.504032960345727
 31
0.0
  0
LINE
  5
553
330
18
100
AcDbEntity
  8
Object
100
AcDbLine
 10
6.738999999999999
 20
6.504032960345727
 30
0.0
 11
6.719999999999999
 21
6.504032960345727
 31
0.0
  0
LINE
  5
554
330
18
100
AcDbEntity
  8
Object
100
AcDbLine
 10
6.719999999999999
 20
6.504032960345727
 30
0.0
 11
6.698999999999999
 21
6.504032960345727
 31
0.0
  0
LINE
  5
555
330
18
100
AcDbEntity
  8
Object
100
AcDbLine
 10
6.698999999999999
 20
6.504032960345727
 30
0.0
 11
4.046
 21
6.504032960345727
 31
0.0
  0
LINE
  5
556
330
18
100
AcDbEntity
  8
Object
100
AcDbLine
 10
3.671
 20
6.996032960345727
 30
0.0
 11
3.671
 21
6.972032960345727
 31
0.0
  0
LINE
  5
557
330
18
100
AcDbEntity
  8
Object
100
AcDbLine
 10
3.671
 20
6.972032960345727
 30
0.0
 11
3.671
 21
6.933032960345728
 31
0.0
  0
LINE
  5
558
330
18
100
AcDbEntity
  8
Object
100
AcDbLine
 10
3.671
 20
6.933032960345728
 30
0.0
 11
3.671
 21
6.879032960345727
 31
0.0
  0
LINE
  5
559
330
18
100
AcDbEntity
  8
Object
100
AcDbLine
 10
3.671
 20
7.004032960345727
 30
0.0
 11
3.671
 21
6.996032960345727
 31
0.0
  0
LINE
  5
55A
330
18
100
AcDbEntity
  8
Object
100
AcDbLine
 10
4.046
 20
6.504032960345727
 30
0.0
 11
3.999
 21
6.507032960345727
 31
0.0
  0
LINE
  5
55B
330
18
100
AcDbEntity
  8
Object
100
AcDbLine
 10
3.999
 20
6.507032960345727
 30
0.0
 11
3.954
 21
6.515032960345727
 31
0.0
  0
LINE
  5
55C
330
18
100
AcDbEntity
  8
Object
100
AcDbLine
 10
3.999
 20
6.507032960345727
 30
0.0
 11
3.991999999999999
 21
6.508032960345728
 31
0.0
  0
LINE
  5
55D
330
18
100
AcDbEntity
  8
Object
100
AcDbLine
 10
3.991999999999999
 20
6.508032960345728
 30
0.0
 11
3.954
 21
6.515032960345727
 31
0.0
  0
LINE
  5
55E
330
18
100
AcDbEntity
  8
Object
100
AcDbLine
 10
3.954
 20
6.515032960345727
 30
0.0
 11
3.939999999999999
 21
6.519032960345728
 31
0.0
  0
LINE
  5
55F
330
18
100
AcDbEntity
  8
Object
100
AcDbLine
 10
3.939999999999999
 20
6.519032960345728
 30
0.0
 11
3.910999999999999
 21
6.529032960345728
 31
0.0
  0
LINE
  5
560
330
18
100
AcDbEntity
  8
Object
100
AcDbLine
 10
3.910999999999999
 20
6.529032960345728
 30
0.0
 11
3.87
 21
6.548032960345728
 31
0.0
  0
LINE
  5
561
330
18
100
AcDbEntity
  8
Object
100
AcDbLine
 10
3.910999999999999
 20
6.529032960345728
 30
0.0
 11
3.891
 21
6.537032960345728
 31
0.0
  0
LINE
  5
562
330
18
100
AcDbEntity
  8
Object
100
AcDbLine
 10
3.891
 20
6.537032960345728
 30
0.0
 11
3.87
 21
6.548032960345728
 31
0.0
  0
LINE
  5
563
330
18
100
AcDbEntity
  8
Object
100
AcDbLine
 10
3.87
 20
6.548032960345728
 30
0.0
 11
3.846
 21
6.561032960345728
 31
0.0
  0
LINE
  5
564
330
18
100
AcDbEntity
  8
Object
100
AcDbLine
 10
3.87
 20
6.548032960345728
 30
0.0
 11
3.833
 21
6.570032960345728
 31
0.0
  0
LINE
  5
565
330
18
100
AcDbEntity
  8
Object
100
AcDbLine
 10
3.833
 20
6.570032960345728
 30
0.0
 11
3.846
 21
6.561032960345728
 31
0.0
  0
LINE
  5
566
330
18
100
AcDbEntity
  8
Object
100
AcDbLine
 10
3.798999999999999
 20
6.596032960345728
 30
0.0
 11
3.833
 21
6.570032960345728
 31
0.0
  0
LINE
  5
567
330
18
100
AcDbEntity
  8
Object
100
AcDbLine
 10
3.833
 20
6.570032960345728
 30
0.0
 11
3.807
 21
6.590032960345728
 31
0.0
  0
LINE
  5
568
330
18
100
AcDbEntity
  8
Object
100
AcDbLine
 10
3.807
 20
6.590032960345728
 30
0.0
 11
3.798999999999999
 21
6.596032960345728
 31
0.0
  0
LINE
  5
569
330
18
100
AcDbEntity
  8
Object
100
AcDbLine
 10
3.798999999999999
 20
6.596032960345728
 30
0.0
 11
3.772999999999999
 21
6.621032960345727
 31
0.0
  0
LINE
  5
56A
330
18
100
AcDbEntity
  8
Object
100
AcDbLine
 10
3.798999999999999
 20
6.596032960345728
 30
0.0
 11
3.769999999999999
 21
6.624032960345727
 31
0.0
  0
LINE
  5
56B
330
18
100
AcDbEntity
  8
Object
100
AcDbLine
 10
3.769999999999999
 20
6.624032960345727
 30
0.0
 11
3.772999999999999
 21
6.621032960345727
 31
0.0
  0
LINE
  5
56C
330
18
100
AcDbEntity
  8
Object
100
AcDbLine
 10
3.769999999999999
 20
6.624032960345727
 30
0.0
 11
3.745
 21
6.654032960345728
 31
0.0
  0
LINE
  5
56D
330
18
100
AcDbEntity
  8
Object
100
AcDbLine
 10
3.745
 20
6.654032960345728
 30
0.0
 11
3.745
 21
6.655032960345728
 31
0.0
  0
LINE
  5
56E
330
18
100
AcDbEntity
  8
Object
100
AcDbLine
 10
3.745
 20
6.655032960345728
 30
0.0
 11
3.769999999999999
 21
6.624032960345727
 31
0.0
  0
LINE
  5
56F
330
18
100
AcDbEntity
  8
Object
100
AcDbLine
 10
3.745
 20
6.655032960345728
 30
0.0
 11
3.745
 21
6.654032960345728
 31
0.0
  0
LINE
  5
570
330
18
100
AcDbEntity
  8
Object
100
AcDbLine
 10
3.745
 20
6.654032960345728
 30
0.0
 11
3.769999999999999
 21
6.624032960345727
 31
0.0
  0
LINE
  5
571
330
18
100
AcDbEntity
  8
Object
100
AcDbLine
 10
3.745
 20
6.655032960345728
 30
0.0
 11
3.724
 21
6.685032960345727
 31
0.0
  0
LINE
  5
572
330
18
100
AcDbEntity
  8
Object
100
AcDbLine
 10
3.724
 20
6.685032960345727
 30
0.0
 11
3.745
 21
6.654032960345728
 31
0.0
  0
LINE
  5
573
330
18
100
AcDbEntity
  8
Object
100
AcDbLine
 10
3.745
 20
6.654032960345728
 30
0.0
 11
3.724
 21
6.685032960345727
 31
0.0
  0
LINE
  5
574
330
18
100
AcDbEntity
  8
Object
100
AcDbLine
 10
3.745
 20
6.654032960345728
 30
0.0
 11
3.737
 21
6.667032960345728
 31
0.0
  0
LINE
  5
575
330
18
100
AcDbEntity
  8
Object
100
AcDbLine
 10
3.724
 20
6.685032960345727
 30
0.0
 11
3.708
 21
6.716032960345728
 31
0.0
  0
LINE
  5
576
330
18
100
AcDbEntity
  8
Object
100
AcDbLine
 10
3.708
 20
6.716032960345728
 30
0.0
 11
3.705999999999999
 21
6.720032960345728
 31
0.0
  0
LINE
  5
577
330
18
100
AcDbEntity
  8
Object
100
AcDbLine
 10
3.693999999999999
 20
6.750032960345728
 30
0.0
 11
3.685
 21
6.776032960345728
 31
0.0
  0
LINE
  5
578
330
18
100
AcDbEntity
  8
Object
100
AcDbLine
 10
3.685
 20
6.776032960345728
 30
0.0
 11
3.708
 21
6.716032960345728
 31
0.0
  0
LINE
  5
579
330
18
100
AcDbEntity
  8
Object
100
AcDbLine
 10
3.693999999999999
 20
6.750032960345728
 30
0.0
 11
3.685
 21
6.776032960345728
 31
0.0
  0
LINE
  5
57A
330
18
100
AcDbEntity
  8
Object
100
AcDbLine
 10
3.685
 20
6.776032960345728
 30
0.0
 11
3.677999999999999
 21
6.804032960345728
 31
0.0
  0
LINE
  5
57B
330
18
100
AcDbEntity
  8
Object
100
AcDbLine
 10
3.673999999999999
 20
6.831032960345727
 30
0.0
 11
3.685
 21
6.776032960345728
 31
0.0
  0
LINE
  5
57C
330
18
100
AcDbEntity
  8
Object
100
AcDbLine
 10
3.685
 20
6.776032960345728
 30
0.0
 11
3.677999999999999
 21
6.804032960345728
 31
0.0
  0
LINE
  5
57D
330
18
100
AcDbEntity
  8
Object
100
AcDbLine
 10
3.677999999999999
 20
6.804032960345728
 30
0.0
 11
3.673999999999999
 21
6.831032960345727
 31
0.0
  0
LINE
  5
57E
330
18
100
AcDbEntity
  8
Object
100
AcDbLine
 10
3.673999999999999
 20
6.831032960345727
 30
0.0
 11
3.672
 21
6.847032960345727
 31
0.0
  0
LINE
  5
57F
330
18
100
AcDbEntity
  8
Object
100
AcDbLine
 10
3.672
 20
6.847032960345727
 30
0.0
 11
3.671
 21
6.879032960345727
 31
0.0
  0
LINE
  5
580
330
18
100
AcDbEntity
  8
Object
100
AcDbLine
 10
3.671
 20
6.879032960345727
 30
0.0
 11
3.673999999999999
 21
6.831032960345727
 31
0.0
  0
LINE
  5
581
330
18
100
AcDbEntity
  8
Object
100
AcDbLine
 10
3.671
 20
6.879032960345727
 30
0.0
 11
3.672
 21
6.847032960345727
 31
0.0
  0
LINE
  5
582
330
18
100
AcDbEntity
  8
Object
100
AcDbLine
 10
3.996999999999999
 20
6.507032960345727
 30
0.0
 11
3.990999999999999
 21
6.508032960345728
 31
0.0
  0
LINE
  5
583
330
18
100
AcDbEntity
  8
Object
100
AcDbLine
 10
3.990999999999999
 20
6.508032960345728
 30
0.0
 11
3.955
 21
6.515032960345727
 31
0.0
  0
LINE
  5
584
330
18
100
AcDbEntity
  8
Object
100
AcDbLine
 10
3.955
 20
6.515032960345727
 30
0.0
 11
3.95
 21
6.516032960345728
 31
0.0
  0
LINE
  5
585
330
18
100
AcDbEntity
  8
Object
100
AcDbLine
 10
3.925
 20
6.524032960345728
 30
0.0
 11
3.910999999999999
 21
6.529032960345728
 31
0.0
  0
LINE
  5
586
330
18
100
AcDbEntity
  8
Object
100
AcDbLine
 10
3.910999999999999
 20
6.529032960345728
 30
0.0
 11
3.900999999999999
 21
6.533032960345727
 31
0.0
  0
LINE
  5
587
330
18
100
AcDbEntity
  8
Object
100
AcDbLine
 10
3.879999999999999
 20
6.542032960345728
 30
0.0
 11
3.871
 21
6.547032960345728
 31
0.0
  0
LINE
  5
588
330
18
100
AcDbEntity
  8
Object
100
AcDbLine
 10
3.871
 20
6.547032960345728
 30
0.0
 11
3.858
 21
6.554032960345728
 31
0.0
  0
LINE
  5
589
330
18
100
AcDbEntity
  8
Object
100
AcDbLine
 10
3.807
 20
6.590032960345728
 30
0.0
 11
3.8
 21
6.596032960345728
 31
0.0
  0
LINE
  5
58A
330
18
100
AcDbEntity
  8
Object
100
AcDbLine
 10
3.8
 20
6.596032960345728
 30
0.0
 11
3.769999999999999
 21
6.624032960345727
 31
0.0
  0
LINE
  5
58B
330
18
100
AcDbEntity
  8
Object
100
AcDbLine
 10
3.769999999999999
 20
6.624032960345727
 30
0.0
 11
3.745
 21
6.654032960345728
 31
0.0
  0
LINE
  5
58C
330
18
100
AcDbEntity
  8
Object
100
AcDbLine
 10
3.745
 20
6.654032960345728
 30
0.0
 11
3.769999999999999
 21
6.624032960345727
 31
0.0
  0
LINE
  5
58D
330
18
100
AcDbEntity
  8
Object
100
AcDbLine
 10
3.736
 20
6.668032960345728
 30
0.0
 11
3.745
 21
6.654032960345728
 31
0.0
  0
LINE
  5
58E
330
18
100
AcDbEntity
  8
Object
100
AcDbLine
 10
3.745
 20
6.654032960345728
 30
0.0
 11
3.736
 21
6.668032960345728
 31
0.0
  0
LINE
  5
58F
330
18
100
AcDbEntity
  8
Object
100
AcDbLine
 10
3.708
 20
6.716032960345728
 30
0.0
 11
3.714
 21
6.704032960345728
 31
0.0
  0
LINE
  5
590
330
18
100
AcDbEntity
  8
Object
100
AcDbLine
 10
3.714
 20
6.704032960345728
 30
0.0
 11
3.708
 21
6.716032960345728
 31
0.0
  0
LINE
  5
591
330
18
100
AcDbEntity
  8
Object
100
AcDbLine
 10
3.708
 20
6.716032960345728
 30
0.0
 11
3.692999999999999
 21
6.750032960345728
 31
0.0
  0
LINE
  5
592
330
18
100
AcDbEntity
  8
Object
100
AcDbLine
 10
3.692999999999999
 20
6.750032960345728
 30
0.0
 11
3.684
 21
6.779032960345728
 31
0.0
  0
LINE
  5
593
330
18
100
AcDbEntity
  8
Object
100
AcDbLine
 10
3.684
 20
6.779032960345728
 30
0.0
 11
3.679999999999999
 21
6.797032960345728
 31
0.0
  0
LINE
  5
594
330
18
100
AcDbEntity
  8
Object
100
AcDbLine
 10
3.675
 20
6.822032960345728
 30
0.0
 11
3.673999999999999
 21
6.830032960345728
 31
0.0
  0
LINE
  5
595
330
18
100
AcDbEntity
  8
Object
100
AcDbLine
 10
3.673999999999999
 20
6.830032960345728
 30
0.0
 11
3.672
 21
6.847032960345727
 31
0.0
  0
LINE
  5
596
330
18
100
AcDbEntity
  8
Object
100
AcDbLine
 10
6.796
 20
6.504032960345727
 30
0.0
 11
6.79
 21
6.591032960345728
 31
0.0
  0
LINE
  5
597
330
18
100
AcDbEntity
  8
Object
100
AcDbLine
 10
6.79
 20
6.591032960345728
 30
0.0
 11
6.783999999999999
 21
6.671032960345728
 31
0.0
  0
LINE
  5
598
330
18
100
AcDbEntity
  8
Object
100
AcDbLine
 10
6.783999999999999
 20
6.671032960345728
 30
0.0
 11
6.778999999999999
 21
6.742032960345728
 31
0.0
  0
LINE
  5
599
330
18
100
AcDbEntity
  8
Object
100
AcDbLine
 10
6.778999999999999
 20
6.742032960345728
 30
0.0
 11
6.775
 21
6.803032960345728
 31
0.0
  0
LINE
  5
59A
330
18
100
AcDbEntity
  8
Object
100
AcDbLine
 10
6.775
 20
6.803032960345728
 30
0.0
 11
6.772
 21
6.850032960345727
 31
0.0
  0
LINE
  5
59B
330
18
100
AcDbEntity
  8
Object
100
AcDbLine
 10
6.772
 20
6.850032960345727
 30
0.0
 11
6.769
 21
6.884032960345727
 31
0.0
  0
LINE
  5
59C
330
18
100
AcDbEntity
  8
Object
100
AcDbLine
 10
6.769
 20
6.884032960345727
 30
0.0
 11
6.767999999999999
 21
6.904032960345728
 31
0.0
  0
LINE
  5
59D
330
18
100
AcDbEntity
  8
Object
100
AcDbLine
 10
6.767999999999999
 20
6.904032960345728
 30
0.0
 11
6.767
 21
6.911032960345727
 31
0.0
  0
LINE
  5
59E
330
18
100
AcDbEntity
  8
Object
100
AcDbLine
 10
6.79
 20
6.504032960345727
 30
0.0
 11
6.796
 21
6.504032960345727
 31
0.0
  0
LINE
  5
59F
330
18
100
AcDbEntity
  8
Object
100
AcDbLine
 10
6.796
 20
6.504032960345727
 30
0.0
 11
6.79
 21
6.591032960345728
 31
0.0
  0
LINE
  5
5A0
330
18
100
AcDbEntity
  8
Object
100
AcDbLine
 10
6.79
 20
6.591032960345728
 30
0.0
 11
6.783999999999999
 21
6.671032960345728
 31
0.0
  0
LINE
  5
5A1
330
18
100
AcDbEntity
  8
Object
100
AcDbLine
 10
6.783999999999999
 20
6.671032960345728
 30
0.0
 11
6.778999999999999
 21
6.742032960345728
 31
0.0
  0
LINE
  5
5A2
330
18
100
AcDbEntity
  8
Object
100
AcDbLine
 10
6.770999999999999
 20
6.504032960345727
 30
0.0
 11
6.79
 21
6.504032960345727
 31
0.0
  0
LINE
  5
5A3
330
18
100
AcDbEntity
  8
Object
100
AcDbLine
 10
6.778999999999999
 20
6.742032960345728
 30
0.0
 11
6.775
 21
6.803032960345728
 31
0.0
  0
LINE
  5
5A4
330
18
100
AcDbEntity
  8
Object
100
AcDbLine
 10
6.775
 20
6.803032960345728
 30
0.0
 11
6.772
 21
6.850032960345727
 31
0.0
  0
LINE
  5
5A5
330
18
100
AcDbEntity
  8
Object
100
AcDbLine
 10
6.772
 20
6.850032960345727
 30
0.0
 11
6.769
 21
6.884032960345727
 31
0.0
  0
LINE
  5
5A6
330
18
100
AcDbEntity
  8
Object
100
AcDbLine
 10
6.769
 20
6.884032960345727
 30
0.0
 11
6.767999999999999
 21
6.904032960345728
 31
0.0
  0
LINE
  5
5A7
330
18
100
AcDbEntity
  8
Object
100
AcDbLine
 10
6.758
 20
6.947032960345728
 30
0.0
 11
6.767
 21
6.911032960345727
 31
0.0
  0
LINE
  5
5A8
330
18
100
AcDbEntity
  8
Object
100
AcDbLine
 10
6.767
 20
6.911032960345727
 30
0.0
 11
6.767999999999999
 21
6.904032960345728
 31
0.0
  0
LINE
  5
5A9
330
18
100
AcDbEntity
  8
Object
100
AcDbLine
 10
6.756
 20
6.504032960345727
 30
0.0
 11
6.770999999999999
 21
6.504032960345727
 31
0.0
  0
LINE
  5
5AA
330
18
100
AcDbEntity
  8
Object
100
AcDbLine
 10
6.758
 20
6.947032960345728
 30
0.0
 11
6.735999999999999
 21
6.977032960345727
 31
0.0
  0
LINE
  5
5AB
330
18
100
AcDbEntity
  8
Object
100
AcDbLine
 10
6.756
 20
6.504032960345727
 30
0.0
 11
6.738999999999999
 21
6.504032960345727
 31
0.0
  0
LINE
  5
5AC
330
18
100
AcDbEntity
  8
Object
100
AcDbLine
 10
6.738999999999999
 20
6.504032960345727
 30
0.0
 11
6.719999999999999
 21
6.504032960345727
 31
0.0
  0
LINE
  5
5AD
330
18
100
AcDbEntity
  8
Object
100
AcDbLine
 10
6.735999999999999
 20
6.977032960345727
 30
0.0
 11
6.703999999999999
 21
6.997032960345728
 31
0.0
  0
LINE
  5
5AE
330
18
100
AcDbEntity
  8
Object
100
AcDbLine
 10
6.698999999999999
 20
6.504032960345727
 30
0.0
 11
6.719999999999999
 21
6.504032960345727
 31
0.0
  0
LINE
  5
5AF
330
18
100
AcDbEntity
  8
Object
100
AcDbLine
 10
6.703999999999999
 20
6.997032960345728
 30
0.0
 11
6.668
 21
7.004032960345727
 31
0.0
  0
LINE
  5
5B0
330
18
100
AcDbEntity
  8
Object
100
AcDbLine
 10
6.698999999999999
 20
6.504032960345727
 30
0.0
 11
4.046
 21
6.504032960345727
 31
0.0
  0
LINE
  5
5B1
330
18
100
AcDbEntity
  8
Object
100
AcDbLine
 10
4.046
 20
6.504032960345727
 30
0.0
 11
3.999
 21
6.507032960345727
 31
0.0
  0
LINE
  5
5B2
330
18
100
AcDbEntity
  8
Object
100
AcDbLine
 10
3.910999999999999
 20
6.529032960345728
 30
0.0
 11
3.954
 21
6.515032960345727
 31
0.0
  0
LINE
  5
5B3
330
18
100
AcDbEntity
  8
Object
100
AcDbLine
 10
6.698999999999999
 20
6.504032960345727
 30
0.0
 11
6.695999999999999
 21
6.557032960345727
 31
0.0
  0
LINE
  5
5B4
330
18
100
AcDbEntity
  8
Object
100
AcDbLine
 10
6.695999999999999
 20
6.557032960345727
 30
0.0
 11
6.692
 21
6.609032960345728
 31
0.0
  0
LINE
  5
5B5
330
18
100
AcDbEntity
  8
Object
100
AcDbLine
 10
6.692
 20
6.609032960345728
 30
0.0
 11
6.689
 21
6.660032960345728
 31
0.0
  0
LINE
  5
5B6
330
18
100
AcDbEntity
  8
Object
100
AcDbLine
 10
3.769999999999999
 20
6.624032960345727
 30
0.0
 11
3.745
 21
6.655032960345728
 31
0.0
  0
LINE
  5
5B7
330
18
100
AcDbEntity
  8
Object
100
AcDbLine
 10
3.745
 20
6.655032960345728
 30
0.0
 11
3.724
 21
6.685032960345727
 31
0.0
  0
LINE
  5
5B8
330
18
100
AcDbEntity
  8
Object
100
AcDbLine
 10
6.689
 20
6.660032960345728
 30
0.0
 11
6.685999999999999
 21
6.708032960345728
 31
0.0
  0
LINE
  5
5B9
330
18
100
AcDbEntity
  8
Object
100
AcDbLine
 10
6.685999999999999
 20
6.708032960345728
 30
0.0
 11
6.682999999999999
 21
6.753032960345728
 31
0.0
  0
LINE
  5
5BA
330
18
100
AcDbEntity
  8
Object
100
AcDbLine
 10
3.708
 20
6.716032960345728
 30
0.0
 11
3.724
 21
6.685032960345727
 31
0.0
  0
LINE
  5
5BB
330
18
100
AcDbEntity
  8
Object
100
AcDbLine
 10
6.682999999999999
 20
6.753032960345728
 30
0.0
 11
6.681
 21
6.795032960345728
 31
0.0
  0
LINE
  5
5BC
330
18
100
AcDbEntity
  8
Object
100
AcDbLine
 10
6.676
 20
6.870032960345728
 30
0.0
 11
6.677999999999999
 21
6.834032960345727
 31
0.0
  0
LINE
  5
5BD
330
18
100
AcDbEntity
  8
Object
100
AcDbLine
 10
6.677999999999999
 20
6.834032960345727
 30
0.0
 11
6.681
 21
6.795032960345728
 31
0.0
  0
LINE
  5
5BE
330
18
100
AcDbEntity
  8
Object
100
AcDbLine
 10
6.668
 20
6.996032960345727
 30
0.0
 11
6.668
 21
7.002032960345728
 31
0.0
  0
LINE
  5
5BF
330
18
100
AcDbEntity
  8
Object
100
AcDbLine
 10
6.671999999999999
 20
6.929032960345728
 30
0.0
 11
6.671
 21
6.952032960345728
 31
0.0
  0
LINE
  5
5C0
330
18
100
AcDbEntity
  8
Object
100
AcDbLine
 10
3.671
 20
6.972032960345727
 30
0.0
 11
3.671
 21
6.933032960345728
 31
0.0
  0
LINE
  5
5C1
330
18
100
AcDbEntity
  8
Object
100
AcDbLine
 10
3.671
 20
6.996032960345727
 30
0.0
 11
3.671
 21
7.004032960345727
 31
0.0
  0
LINE
  5
5C2
330
18
100
AcDbEntity
  8
Object
100
AcDbLine
 10
3.671
 20
7.004032960345727
 30
0.0
 11
6.668
 21
7.004032960345727
 31
0.0
  0
LINE
  5
5C3
330
18
100
AcDbEntity
  8
Object
100
AcDbLine
 10
6.668
 20
7.004032960345727
 30
0.0
 11
6.668
 21
7.002032960345728
 31
0.0
  0
LINE
  5
5C4
330
18
100
AcDbEntity
  8
Object
100
AcDbLine
 10
6.669
 20
6.986032960345728
 30
0.0
 11
6.668
 21
6.996032960345727
 31
0.0
  0
LINE
  5
5C5
330
18
100
AcDbEntity
  8
Object
100
AcDbLine
 10
3.671
 20
6.996032960345727
 30
0.0
 11
3.671
 21
6.972032960345727
 31
0.0
  0
LINE
  5
5C6
330
18
100
AcDbEntity
  8
Object
100
AcDbLine
 10
6.669
 20
6.986032960345728
 30
0.0
 11
6.669999999999999
 21
6.971032960345728
 31
0.0
  0
LINE
  5
5C7
330
18
100
AcDbEntity
  8
Object
100
AcDbLine
 10
6.669999999999999
 20
6.971032960345728
 30
0.0
 11
6.671
 21
6.952032960345728
 31
0.0
  0
LINE
  5
5C8
330
18
100
AcDbEntity
  8
Object
100
AcDbLine
 10
6.674
 20
6.901032960345728
 30
0.0
 11
6.671999999999999
 21
6.929032960345728
 31
0.0
  0
LINE
  5
5C9
330
18
100
AcDbEntity
  8
Object
100
AcDbLine
 10
3.671
 20
6.933032960345728
 30
0.0
 11
3.671
 21
6.879032960345727
 31
0.0
  0
LINE
  5
5CA
330
18
100
AcDbEntity
  8
Object
100
AcDbLine
 10
6.676
 20
6.870032960345728
 30
0.0
 11
6.674
 21
6.901032960345728
 31
0.0
  0
LINE
  5
5CB
330
18
100
AcDbEntity
  8
Object
100
AcDbLine
 10
6.668
 20
7.004032960345727
 30
0.0
 11
3.671
 21
7.004032960345727
 31
0.0
  0
LINE
  5
5CC
330
18
100
AcDbEntity
  8
Object
100
AcDbLine
 10
5.541
 20
6.399032960345728
 30
0.0
 11
5.552
 21
6.453032960345727
 31
0.0
  0
LINE
  5
5CD
330
18
100
AcDbEntity
  8
Object
100
AcDbLine
 10
5.552
 20
6.453032960345727
 30
0.0
 11
5.565999999999999
 21
6.504032960345727
 31
0.0
  0
LINE
  5
5CE
330
18
100
AcDbEntity
  8
Object
100
AcDbLine
 10
5.419
 20
6.379032960345727
 30
0.0
 11
5.44
 21
6.456032960345727
 31
0.0
  0
LINE
  5
5CF
330
18
100
AcDbEntity
  8
Object
100
AcDbLine
 10
4.538999999999999
 20
6.407032960345728
 30
0.0
 11
4.504999999999999
 21
6.440032960345727
 31
0.0
  0
LINE
  5
5D0
330
18
100
AcDbEntity
  8
Object
100
AcDbLine
 10
4.504999999999999
 20
6.440032960345727
 30
0.0
 11
4.496999999999999
 21
6.504032960345727
 31
0.0
  0
LINE
  5
5D1
330
18
100
AcDbEntity
  8
Object
100
AcDbLine
 10
6.767
 20
6.911032960345727
 30
0.0
 11
6.758
 21
6.947032960345728
 31
0.0
  0
LINE
  5
5D2
330
18
100
AcDbEntity
  8
Object
100
AcDbLine
 10
6.758
 20
6.947032960345728
 30
0.0
 11
6.735999999999999
 21
6.977032960345727
 31
0.0
  0
LINE
  5
5D3
330
18
100
AcDbEntity
  8
Object
100
AcDbLine
 10
6.735999999999999
 20
6.977032960345727
 30
0.0
 11
6.703999999999999
 21
6.997032960345728
 31
0.0
  0
LINE
  5
5D4
330
18
100
AcDbEntity
  8
Object
100
AcDbLine
 10
6.703999999999999
 20
6.997032960345728
 30
0.0
 11
6.668
 21
7.004032960345727
 31
0.0
  0
LINE
  5
5D5
330
18
100
AcDbEntity
  8
Object
100
AcDbLine
 10
5.86
 20
6.504032960345727
 30
0.0
 11
5.806
 21
6.431032960345728
 31
0.0
  0
LINE
  5
5D6
330
18
100
AcDbEntity
  8
Object
100
AcDbLine
 10
5.806
 20
6.431032960345728
 30
0.0
 11
5.764
 21
6.381032960345728
 31
0.0
  0
LINE
  5
5D7
330
18
100
AcDbEntity
  8
Object
100
AcDbLine
 10
5.764
 20
6.381032960345728
 30
0.0
 11
5.761
 21
6.379032960345727
 31
0.0
  0
LINE
  5
5D8
330
18
100
AcDbEntity
  8
Object
100
AcDbLine
 10
5.822
 20
6.453032960345727
 30
0.0
 11
5.764
 21
6.381032960345728
 31
0.0
  0
LINE
  5
5D9
330
18
100
AcDbEntity
  8
Object
100
AcDbLine
 10
5.541
 20
6.399032960345728
 30
0.0
 11
5.488999999999999
 21
6.425032960345728
 31
0.0
  0
LINE
  5
5DA
330
18
100
AcDbEntity
  8
Object
100
AcDbLine
 10
5.488999999999999
 20
6.425032960345728
 30
0.0
 11
5.44
 21
6.456032960345727
 31
0.0
  0
LINE
  5
5DB
330
18
100
AcDbEntity
  8
Object
100
AcDbLine
 10
5.541
 20
6.379032960345727
 30
0.0
 11
5.541
 21
6.399032960345728
 31
0.0
  0
LINE
  5
5DC
330
18
100
AcDbEntity
  8
Object
100
AcDbLine
 10
4.568999999999999
 20
6.379032960345727
 30
0.0
 11
4.538999999999999
 21
6.407032960345728
 31
0.0
  0
LINE
  5
5DD
330
18
100
AcDbEntity
  8
Object
100
AcDbLine
 10
5.918
 20
6.379032960345727
 30
0.0
 11
5.924
 21
6.504032960345727
 31
0.0
  0
LINE
  5
5DE
330
18
100
AcDbEntity
  8
Object
100
AcDbLine
 10
6.152
 20
6.379032960345727
 30
0.0
 11
6.157
 21
6.504032960345727
 31
0.0
  0
LINE
  5
5DF
330
18
100
AcDbEntity
  8
Object
100
AcDbLine
 10
6.145
 20
6.504032960345727
 30
0.0
 11
6.145
 21
6.503032960345728
 31
0.0
  0
LINE
  5
5E0
330
18
100
AcDbEntity
  8
Object
100
AcDbLine
 10
6.145
 20
6.503032960345728
 30
0.0
 11
6.131
 21
6.486032960345728
 31
0.0
  0
LINE
  5
5E1
330
18
100
AcDbEntity
  8
Object
100
AcDbLine
 10
6.131
 20
6.486032960345728
 30
0.0
 11
6.11
 21
6.464032960345727
 31
0.0
  0
LINE
  5
5E2
330
18
100
AcDbEntity
  8
Object
100
AcDbLine
 10
6.11
 20
6.464032960345727
 30
0.0
 11
6.084999999999999
 21
6.438032960345728
 31
0.0
  0
LINE
  5
5E3
330
18
100
AcDbEntity
  8
Object
100
AcDbLine
 10
6.084999999999999
 20
6.438032960345728
 30
0.0
 11
6.083
 21
6.436032960345728
 31
0.0
  0
LINE
  5
5E4
330
18
100
AcDbEntity
  8
Object
100
AcDbLine
 10
4.128
 20
6.379032960345727
 30
0.0
 11
4.125
 21
6.504032960345727
 31
0.0
  0
LINE
  5
5E5
330
18
100
AcDbEntity
  8
Object
100
AcDbLine
 10
4.102
 20
6.504032960345727
 30
0.0
 11
4.105999999999999
 21
6.379032960345727
 31
0.0
  0
LINE
  5
5E6
330
18
100
AcDbEntity
  8
Object
100
AcDbLine
 10
5.437999999999999
 20
6.379032960345727
 30
0.0
 11
5.44
 21
6.456032960345727
 31
0.0
  0
LINE
  5
5E7
330
18
100
AcDbEntity
  8
Object
100
AcDbLine
 10
4.506
 20
6.379032960345727
 30
0.0
 11
4.504999999999999
 21
6.440032960345727
 31
0.0
  0
LINE
  5
5E8
330
18
100
AcDbEntity
  8
Object
100
AcDbLine
 10
4.504999999999999
 20
6.440032960345727
 30
0.0
 11
4.498
 21
6.504032960345727
 31
0.0
  0
LINE
  5
5E9
330
18
100
AcDbEntity
  8
Object
100
AcDbLine
 10
4.399
 20
6.504032960345727
 30
0.0
 11
4.403
 21
6.379032960345727
 31
0.0
  0
LINE
  5
5EA
330
18
100
AcDbEntity
  8
Object
100
AcDbLine
 10
5.879
 20
6.504032960345727
 30
0.0
 11
5.873
 21
6.379032960345727
 31
0.0
  0
LINE
  5
5EB
330
18
100
AcDbEntity
  8
Object
100
AcDbLine
 10
5.866999999999999
 20
6.504032960345727
 30
0.0
 11
5.82
 21
6.429032960345728
 31
0.0
  0
LINE
  5
5EC
330
18
100
AcDbEntity
  8
Object
100
AcDbLine
 10
5.82
 20
6.429032960345728
 30
0.0
 11
5.782
 21
6.379032960345727
 31
0.0
  0
LINE
  5
5ED
330
18
100
AcDbEntity
  8
Object
100
AcDbLine
 10
5.817
 20
6.447032960345728
 30
0.0
 11
5.815999999999999
 21
6.504032960345727
 31
0.0
  0
LINE
  5
5EE
330
18
100
AcDbEntity
  8
Object
100
AcDbLine
 10
5.629999999999999
 20
6.504032960345727
 30
0.0
 11
5.631999999999999
 21
6.379032960345727
 31
0.0
  0
LINE
  5
5EF
330
18
100
AcDbEntity
  8
Object
100
AcDbLine
 10
6.08
 20
6.379032960345727
 30
0.0
 11
6.086
 21
6.504032960345727
 31
0.0
  0
LINE
  5
5F0
330
18
100
AcDbEntity
  8
Object
100
AcDbLine
 10
4.219999999999999
 20
6.379032960345727
 30
0.0
 11
4.217
 21
6.504032960345727
 31
0.0
  0
LINE
  5
5F1
330
18
100
AcDbEntity
  8
Object
100
AcDbLine
 10
4.399
 20
6.504032960345727
 30
0.0
 11
4.403
 21
6.379032960345727
 31
0.0
  0
LINE
  5
5F2
330
18
100
AcDbEntity
  8
Object
100
AcDbLine
 10
6.347999999999999
 20
5.356032960345728
 30
0.0
 11
6.331
 21
4.849032960345727
 31
0.0
  0
LINE
  5
5F3
330
18
100
AcDbEntity
  8
Object
100
AcDbLine
 10
6.331
 20
4.849032960345727
 30
0.0
 11
6.323
 21
4.849032960345727
 31
0.0
  0
LINE
  5
5F4
330
18
100
AcDbEntity
  8
Object
100
AcDbLine
 10
6.323
 20
4.849032960345727
 30
0.0
 11
6.299
 21
4.849032960345727
 31
0.0
  0
LINE
  5
5F5
330
18
100
AcDbEntity
  8
Object
100
AcDbLine
 10
6.299
 20
4.849032960345727
 30
0.0
 11
6.259999999999999
 21
4.849032960345727
 31
0.0
  0
LINE
  5
5F6
330
18
100
AcDbEntity
  8
Object
100
AcDbLine
 10
6.259999999999999
 20
4.849032960345727
 30
0.0
 11
6.225
 21
4.849032960345727
 31
0.0
  0
LINE
  5
5F7
330
18
100
AcDbEntity
  8
Object
100
AcDbLine
 10
6.431
 20
5.879032960345727
 30
0.0
 11
6.443999999999999
 21
6.279032960345728
 31
0.0
  0
LINE
  5
5F8
330
18
100
AcDbEntity
  8
Object
100
AcDbLine
 10
6.259
 20
4.863032960345728
 30
0.0
 11
6.270999999999999
 21
4.879032960345728
 31
0.0
  0
LINE
  5
5F9
330
18
100
AcDbEntity
  8
Object
100
AcDbLine
 10
6.270999999999999
 20
4.879032960345728
 30
0.0
 11
6.277
 21
4.898032960345727
 31
0.0
  0
LINE
  5
5FA
330
18
100
AcDbEntity
  8
Object
100
AcDbLine
 10
6.277
 20
4.898032960345727
 30
0.0
 11
6.431
 21
5.879032960345727
 31
0.0
  0
LINE
  5
5FB
330
18
100
AcDbEntity
  8
Object
100
AcDbLine
 10
6.331
 20
4.849032960345727
 30
0.0
 11
6.323
 21
4.849032960345727
 31
0.0
  0
LINE
  5
5FC
330
18
100
AcDbEntity
  8
Object
100
AcDbLine
 10
6.323
 20
4.849032960345727
 30
0.0
 11
6.299
 21
4.849032960345727
 31
0.0
  0
LINE
  5
5FD
330
18
100
AcDbEntity
  8
Object
100
AcDbLine
 10
6.299
 20
4.849032960345727
 30
0.0
 11
6.259999999999999
 21
4.849032960345727
 31
0.0
  0
LINE
  5
5FE
330
18
100
AcDbEntity
  8
Object
100
AcDbLine
 10
6.225
 20
4.849032960345727
 30
0.0
 11
6.217
 21
4.849032960345727
 31
0.0
  0
LINE
  5
5FF
330
18
100
AcDbEntity
  8
Object
100
AcDbLine
 10
6.217
 20
4.849032960345727
 30
0.0
 11
6.206999999999999
 21
4.849032960345727
 31
0.0
  0
LINE
  5
600
330
18
100
AcDbEntity
  8
Object
100
AcDbLine
 10
6.225
 20
4.849032960345727
 30
0.0
 11
6.259999999999999
 21
4.849032960345727
 31
0.0
  0
LINE
  5
601
330
18
100
AcDbEntity
  8
Object
100
AcDbLine
 10
6.206999999999999
 20
4.849032960345727
 30
0.0
 11
6.198
 21
4.849032960345727
 31
0.0
  0
LINE
  5
602
330
18
100
AcDbEntity
  8
Object
100
AcDbLine
 10
6.198
 20
4.849032960345727
 30
0.0
 11
6.177999999999999
 21
4.849032960345727
 31
0.0
  0
LINE
  5
603
330
18
100
AcDbEntity
  8
Object
100
AcDbLine
 10
6.177999999999999
 20
4.849032960345727
 30
0.0
 11
6.104
 21
4.849032960345727
 31
0.0
  0
LINE
  5
604
330
18
100
AcDbEntity
  8
Object
100
AcDbLine
 10
6.104
 20
4.849032960345727
 30
0.0
 11
6.017999999999999
 21
4.849032960345727
 31
0.0
  0
LINE
  5
605
330
18
100
AcDbEntity
  8
Object
100
AcDbLine
 10
6.017999999999999
 20
4.849032960345727
 30
0.0
 11
5.919999999999999
 21
4.849032960345727
 31
0.0
  0
LINE
  5
606
330
18
100
AcDbEntity
  8
Object
100
AcDbLine
 10
5.919999999999999
 20
4.849032960345727
 30
0.0
 11
5.812999999999999
 21
4.849032960345727
 31
0.0
  0
LINE
  5
607
330
18
100
AcDbEntity
  8
Object
100
AcDbLine
 10
5.812999999999999
 20
4.849032960345727
 30
0.0
 11
5.698
 21
4.849032960345727
 31
0.0
  0
LINE
  5
608
330
18
100
AcDbEntity
  8
Object
100
AcDbLine
 10
5.698
 20
4.849032960345727
 30
0.0
 11
5.576999999999999
 21
4.849032960345727
 31
0.0
  0
LINE
  5
609
330
18
100
AcDbEntity
  8
Object
100
AcDbLine
 10
5.576999999999999
 20
4.849032960345727
 30
0.0
 11
5.451
 21
4.849032960345727
 31
0.0
  0
LINE
  5
60A
330
18
100
AcDbEntity
  8
Object
100
AcDbLine
 10
5.451
 20
4.849032960345727
 30
0.0
 11
5.323
 21
4.849032960345727
 31
0.0
  0
LINE
  5
60B
330
18
100
AcDbEntity
  8
Object
100
AcDbLine
 10
5.323
 20
4.849032960345727
 30
0.0
 11
5.304999999999999
 21
4.849032960345727
 31
0.0
  0
LINE
  5
60C
330
18
100
AcDbEntity
  8
Object
100
AcDbLine
 10
5.304999999999999
 20
4.849032960345727
 30
0.0
 11
5.286999999999999
 21
4.849032960345727
 31
0.0
  0
LINE
  5
60D
330
18
100
AcDbEntity
  8
Object
100
AcDbLine
 10
5.286999999999999
 20
4.849032960345727
 30
0.0
 11
5.267999999999999
 21
4.849032960345727
 31
0.0
  0
LINE
  5
60E
330
18
100
AcDbEntity
  8
Object
100
AcDbLine
 10
5.267999999999999
 20
4.849032960345727
 30
0.0
 11
5.139999999999999
 21
4.849032960345727
 31
0.0
  0
LINE
  5
60F
330
18
100
AcDbEntity
  8
Object
100
AcDbLine
 10
5.139999999999999
 20
4.849032960345727
 30
0.0
 11
5.014999999999999
 21
4.849032960345727
 31
0.0
  0
LINE
  5
610
330
18
100
AcDbEntity
  8
Object
100
AcDbLine
 10
5.014999999999999
 20
4.849032960345727
 30
0.0
 11
4.892999999999999
 21
4.849032960345727
 31
0.0
  0
LINE
  5
611
330
18
100
AcDbEntity
  8
Object
100
AcDbLine
 10
4.892999999999999
 20
4.849032960345727
 30
0.0
 11
4.778
 21
4.849032960345727
 31
0.0
  0
LINE
  5
612
330
18
100
AcDbEntity
  8
Object
100
AcDbLine
 10
4.778
 20
4.849032960345727
 30
0.0
 11
4.671
 21
4.849032960345727
 31
0.0
  0
LINE
  5
613
330
18
100
AcDbEntity
  8
Object
100
AcDbLine
 10
4.671
 20
4.849032960345727
 30
0.0
 11
4.573999999999999
 21
4.849032960345727
 31
0.0
  0
LINE
  5
614
330
18
100
AcDbEntity
  8
Object
100
AcDbLine
 10
4.573999999999999
 20
4.849032960345727
 30
0.0
 11
4.487
 21
4.849032960345727
 31
0.0
  0
LINE
  5
615
330
18
100
AcDbEntity
  8
Object
100
AcDbLine
 10
4.487
 20
4.849032960345727
 30
0.0
 11
4.413
 21
4.849032960345727
 31
0.0
  0
LINE
  5
616
330
18
100
AcDbEntity
  8
Object
100
AcDbLine
 10
4.413
 20
4.849032960345727
 30
0.0
 11
4.394
 21
4.849032960345727
 31
0.0
  0
LINE
  5
617
330
18
100
AcDbEntity
  8
Object
100
AcDbLine
 10
4.394
 20
4.849032960345727
 30
0.0
 11
4.384
 21
4.849032960345727
 31
0.0
  0
LINE
  5
618
330
18
100
AcDbEntity
  8
Object
100
AcDbLine
 10
4.384
 20
4.849032960345727
 30
0.0
 11
4.375
 21
4.849032960345727
 31
0.0
  0
LINE
  5
619
330
18
100
AcDbEntity
  8
Object
100
AcDbLine
 10
4.375
 20
4.849032960345727
 30
0.0
 11
4.365999999999999
 21
4.849032960345727
 31
0.0
  0
LINE
  5
61A
330
18
100
AcDbEntity
  8
Object
100
AcDbLine
 10
4.365999999999999
 20
4.849032960345727
 30
0.0
 11
4.331999999999999
 21
4.849032960345727
 31
0.0
  0
LINE
  5
61B
330
18
100
AcDbEntity
  8
Object
100
AcDbLine
 10
4.331999999999999
 20
4.849032960345727
 30
0.0
 11
4.293
 21
4.849032960345727
 31
0.0
  0
LINE
  5
61C
330
18
100
AcDbEntity
  8
Object
100
AcDbLine
 10
4.293
 20
4.849032960345727
 30
0.0
 11
4.269
 21
4.849032960345727
 31
0.0
  0
LINE
  5
61D
330
18
100
AcDbEntity
  8
Object
100
AcDbLine
 10
4.269
 20
4.849032960345727
 30
0.0
 11
4.261
 21
4.849032960345727
 31
0.0
  0
LINE
  5
61E
330
18
100
AcDbEntity
  8
Object
100
AcDbLine
 10
6.6
 20
6.279032960345728
 30
0.0
 11
6.602999999999999
 21
6.379032960345727
 31
0.0
  0
LINE
  5
61F
330
18
100
AcDbEntity
  8
Object
100
AcDbLine
 10
3.987999999999999
 20
6.379032960345727
 30
0.0
 11
4.006
 21
5.879032960345727
 31
0.0
  0
LINE
  5
620
330
18
100
AcDbEntity
  8
Object
100
AcDbLine
 10
6.6
 20
6.279032960345728
 30
0.0
 11
6.592999999999999
 21
6.279032960345728
 31
0.0
  0
LINE
  5
621
330
18
100
AcDbEntity
  8
Object
100
AcDbLine
 10
6.592999999999999
 20
6.279032960345728
 30
0.0
 11
6.573999999999999
 21
6.279032960345728
 31
0.0
  0
LINE
  5
622
330
18
100
AcDbEntity
  8
Object
100
AcDbLine
 10
6.573999999999999
 20
6.279032960345728
 30
0.0
 11
6.543
 21
6.279032960345728
 31
0.0
  0
LINE
  5
623
330
18
100
AcDbEntity
  8
Object
100
AcDbLine
 10
6.543
 20
6.279032960345728
 30
0.0
 11
6.5
 21
6.279032960345728
 31
0.0
  0
LINE
  5
624
330
18
100
AcDbEntity
  8
Object
100
AcDbLine
 10
6.5
 20
6.279032960345728
 30
0.0
 11
6.443999999999999
 21
6.279032960345728
 31
0.0
  0
LINE
  5
625
330
18
100
AcDbEntity
  8
Object
100
AcDbLine
 10
6.277
 20
4.898032960345727
 30
0.0
 11
6.267999999999999
 21
4.898032960345727
 31
0.0
  0
LINE
  5
626
330
18
100
AcDbEntity
  8
Object
100
AcDbLine
 10
6.267999999999999
 20
4.898032960345727
 30
0.0
 11
6.259
 21
4.898032960345727
 31
0.0
  0
LINE
  5
627
330
18
100
AcDbEntity
  8
Object
100
AcDbLine
 10
6.259
 20
4.898032960345727
 30
0.0
 11
6.249
 21
4.898032960345727
 31
0.0
  0
LINE
  5
628
330
18
100
AcDbEntity
  8
Object
100
AcDbLine
 10
6.243
 20
4.879032960345728
 30
0.0
 11
6.230999999999999
 21
4.863032960345728
 31
0.0
  0
LINE
  5
629
330
18
100
AcDbEntity
  8
Object
100
AcDbLine
 10
6.243
 20
4.852032960345727
 30
0.0
 11
6.225
 21
4.849032960345727
 31
0.0
  0
LINE
  5
62A
330
18
100
AcDbEntity
  8
Object
100
AcDbLine
 10
6.225
 20
4.849032960345727
 30
0.0
 11
6.217
 21
4.849032960345727
 31
0.0
  0
LINE
  5
62B
330
18
100
AcDbEntity
  8
Object
100
AcDbLine
 10
6.243
 20
4.852032960345727
 30
0.0
 11
6.259
 21
4.863032960345728
 31
0.0
  0
LINE
  5
62C
330
18
100
AcDbEntity
  8
Object
100
AcDbLine
 10
6.230999999999999
 20
4.863032960345728
 30
0.0
 11
6.216
 21
4.852032960345727
 31
0.0
  0
LINE
  5
62D
330
18
100
AcDbEntity
  8
Object
100
AcDbLine
 10
6.217
 20
4.849032960345727
 30
0.0
 11
6.206999999999999
 21
4.849032960345727
 31
0.0
  0
LINE
  5
62E
330
18
100
AcDbEntity
  8
Object
100
AcDbLine
 10
6.206999999999999
 20
4.849032960345727
 30
0.0
 11
6.198
 21
4.849032960345727
 31
0.0
  0
LINE
  5
62F
330
18
100
AcDbEntity
  8
Object
100
AcDbLine
 10
6.198
 20
4.849032960345727
 30
0.0
 11
6.216
 21
4.852032960345727
 31
0.0
  0
LINE
  5
630
330
18
100
AcDbEntity
  8
Object
100
AcDbLine
 10
6.431
 20
5.879032960345727
 30
0.0
 11
6.419
 21
5.879032960345727
 31
0.0
  0
LINE
  5
631
330
18
100
AcDbEntity
  8
Object
100
AcDbLine
 10
6.419
 20
5.879032960345727
 30
0.0
 11
6.407
 21
5.879032960345727
 31
0.0
  0
LINE
  5
632
330
18
100
AcDbEntity
  8
Object
100
AcDbLine
 10
6.249
 20
4.898032960345727
 30
0.0
 11
6.394
 21
5.879032960345727
 31
0.0
  0
LINE
  5
633
330
18
100
AcDbEntity
  8
Object
100
AcDbLine
 10
6.394
 20
5.879032960345727
 30
0.0
 11
6.407
 21
5.879032960345727
 31
0.0
  0
LINE
  5
634
330
18
100
AcDbEntity
  8
Object
100
AcDbLine
 10
6.602999999999999
 20
6.379032960345727
 30
0.0
 11
6.596
 21
6.379032960345727
 31
0.0
  0
LINE
  5
635
330
18
100
AcDbEntity
  8
Object
100
AcDbLine
 10
6.6
 20
6.279032960345728
 30
0.0
 11
6.592999999999999
 21
6.279032960345728
 31
0.0
  0
LINE
  5
636
330
18
100
AcDbEntity
  8
Object
100
AcDbLine
 10
6.592999999999999
 20
6.279032960345728
 30
0.0
 11
6.573999999999999
 21
6.279032960345728
 31
0.0
  0
LINE
  5
637
330
18
100
AcDbEntity
  8
Object
100
AcDbLine
 10
6.596
 20
6.379032960345727
 30
0.0
 11
6.573
 21
6.379032960345727
 31
0.0
  0
LINE
  5
638
330
18
100
AcDbEntity
  8
Object
100
AcDbLine
 10
6.543
 20
6.279032960345728
 30
0.0
 11
6.573999999999999
 21
6.279032960345728
 31
0.0
  0
LINE
  5
639
330
18
100
AcDbEntity
  8
Object
100
AcDbLine
 10
6.573
 20
6.379032960345727
 30
0.0
 11
6.535
 21
6.379032960345727
 31
0.0
  0
LINE
  5
63A
330
18
100
AcDbEntity
  8
Object
100
AcDbLine
 10
6.5
 20
6.279032960345728
 30
0.0
 11
6.543
 21
6.279032960345728
 31
0.0
  0
LINE
  5
63B
330
18
100
AcDbEntity
  8
Object
100
AcDbLine
 10
6.535
 20
6.379032960345727
 30
0.0
 11
6.482
 21
6.379032960345727
 31
0.0
  0
LINE
  5
63C
330
18
100
AcDbEntity
  8
Object
100
AcDbLine
 10
6.443999999999999
 20
6.279032960345728
 30
0.0
 11
6.5
 21
6.279032960345728
 31
0.0
  0
LINE
  5
63D
330
18
100
AcDbEntity
  8
Object
100
AcDbLine
 10
6.482
 20
6.379032960345727
 30
0.0
 11
6.416
 21
6.379032960345727
 31
0.0
  0
LINE
  5
63E
330
18
100
AcDbEntity
  8
Object
100
AcDbLine
 10
6.416
 20
6.379032960345727
 30
0.0
 11
6.336999999999999
 21
6.379032960345727
 31
0.0
  0
LINE
  5
63F
330
18
100
AcDbEntity
  8
Object
100
AcDbLine
 10
6.312999999999999
 20
5.879032960345727
 30
0.0
 11
6.394
 21
5.879032960345727
 31
0.0
  0
LINE
  5
640
330
18
100
AcDbEntity
  8
Object
100
AcDbLine
 10
6.336999999999999
 20
6.379032960345727
 30
0.0
 11
6.245
 21
6.379032960345727
 31
0.0
  0
LINE
  5
641
330
18
100
AcDbEntity
  8
Object
100
AcDbLine
 10
6.219999999999999
 20
5.879032960345727
 30
0.0
 11
6.312999999999999
 21
5.879032960345727
 31
0.0
  0
LINE
  5
642
330
18
100
AcDbEntity
  8
Object
100
AcDbLine
 10
6.245
 20
6.379032960345727
 30
0.0
 11
6.142
 21
6.379032960345727
 31
0.0
  0
LINE
  5
643
330
18
100
AcDbEntity
  8
Object
100
AcDbLine
 10
6.116
 20
5.879032960345727
 30
0.0
 11
6.219999999999999
 21
5.879032960345727
 31
0.0
  0
LINE
  5
644
330
18
100
AcDbEntity
  8
Object
100
AcDbLine
 10
6.142
 20
6.379032960345727
 30
0.0
 11
6.028999999999999
 21
6.379032960345727
 31
0.0
  0
LINE
  5
645
330
18
100
AcDbEntity
  8
Object
100
AcDbLine
 10
6.001
 20
5.879032960345727
 30
0.0
 11
6.116
 21
5.879032960345727
 31
0.0
  0
LINE
  5
646
330
18
100
AcDbEntity
  8
Object
100
AcDbLine
 10
6.028999999999999
 20
6.379032960345727
 30
0.0
 11
5.908
 21
6.379032960345727
 31
0.0
  0
LINE
  5
647
330
18
100
AcDbEntity
  8
Object
100
AcDbLine
 10
5.878
 20
5.879032960345727
 30
0.0
 11
6.001
 21
5.879032960345727
 31
0.0
  0
LINE
  5
648
330
18
100
AcDbEntity
  8
Object
100
AcDbLine
 10
5.908
 20
6.379032960345727
 30
0.0
 11
5.78
 21
6.379032960345727
 31
0.0
  0
LINE
  5
649
330
18
100
AcDbEntity
  8
Object
100
AcDbLine
 10
5.748
 20
5.879032960345727
 30
0.0
 11
5.878
 21
5.879032960345727
 31
0.0
  0
LINE
  5
64A
330
18
100
AcDbEntity
  8
Object
100
AcDbLine
 10
5.78
 20
6.379032960345727
 30
0.0
 11
5.645999999999999
 21
6.379032960345727
 31
0.0
  0
LINE
  5
64B
330
18
100
AcDbEntity
  8
Object
100
AcDbLine
 10
5.613
 20
5.879032960345727
 30
0.0
 11
5.748
 21
5.879032960345727
 31
0.0
  0
LINE
  5
64C
330
18
100
AcDbEntity
  8
Object
100
AcDbLine
 10
5.645999999999999
 20
6.379032960345727
 30
0.0
 11
5.506999999999999
 21
6.379032960345727
 31
0.0
  0
LINE
  5
64D
330
18
100
AcDbEntity
  8
Object
100
AcDbLine
 10
5.474
 20
5.879032960345727
 30
0.0
 11
5.613
 21
5.879032960345727
 31
0.0
  0
LINE
  5
64E
330
18
100
AcDbEntity
  8
Object
100
AcDbLine
 10
5.506999999999999
 20
6.379032960345727
 30
0.0
 11
5.366999999999999
 21
6.379032960345727
 31
0.0
  0
LINE
  5
64F
330
18
100
AcDbEntity
  8
Object
100
AcDbLine
 10
5.331999999999999
 20
5.879032960345727
 30
0.0
 11
5.474
 21
5.879032960345727
 31
0.0
  0
LINE
  5
650
330
18
100
AcDbEntity
  8
Object
100
AcDbLine
 10
5.307999999999999
 20
5.879032960345727
 30
0.0
 11
5.283999999999999
 21
5.879032960345727
 31
0.0
  0
LINE
  5
651
330
18
100
AcDbEntity
  8
Object
100
AcDbLine
 10
5.283999999999999
 20
5.879032960345727
 30
0.0
 11
5.259
 21
5.879032960345727
 31
0.0
  0
LINE
  5
652
330
18
100
AcDbEntity
  8
Object
100
AcDbLine
 10
5.259
 20
5.879032960345727
 30
0.0
 11
5.256
 21
6.279032960345728
 31
0.0
  0
LINE
  5
653
330
18
100
AcDbEntity
  8
Object
100
AcDbLine
 10
5.366999999999999
 20
6.379032960345727
 30
0.0
 11
5.225
 21
6.379032960345727
 31
0.0
  0
LINE
  5
654
330
18
100
AcDbEntity
  8
Object
100
AcDbLine
 10
5.113999999999999
 20
6.279032960345728
 30
0.0
 11
5.256
 21
6.279032960345728
 31
0.0
  0
LINE
  5
655
330
18
100
AcDbEntity
  8
Object
100
AcDbLine
 10
5.225
 20
6.379032960345727
 30
0.0
 11
5.084
 21
6.379032960345727
 31
0.0
  0
LINE
  5
656
330
18
100
AcDbEntity
  8
Object
100
AcDbLine
 10
4.974
 20
6.279032960345728
 30
0.0
 11
5.113999999999999
 21
6.279032960345728
 31
0.0
  0
LINE
  5
657
330
18
100
AcDbEntity
  8
Object
100
AcDbLine
 10
5.084
 20
6.379032960345727
 30
0.0
 11
4.945999999999999
 21
6.379032960345727
 31
0.0
  0
LINE
  5
658
330
18
100
AcDbEntity
  8
Object
100
AcDbLine
 10
4.836999999999999
 20
6.279032960345728
 30
0.0
 11
4.974
 21
6.279032960345728
 31
0.0
  0
LINE
  5
659
330
18
100
AcDbEntity
  8
Object
100
AcDbLine
 10
4.945999999999999
 20
6.379032960345727
 30
0.0
 11
4.812
 21
6.379032960345727
 31
0.0
  0
LINE
  5
65A
330
18
100
AcDbEntity
  8
Object
100
AcDbLine
 10
4.706999999999999
 20
6.279032960345728
 30
0.0
 11
4.836999999999999
 21
6.279032960345728
 31
0.0
  0
LINE
  5
65B
330
18
100
AcDbEntity
  8
Object
100
AcDbLine
 10
4.812
 20
6.379032960345727
 30
0.0
 11
4.682999999999999
 21
6.379032960345727
 31
0.0
  0
LINE
  5
65C
330
18
100
AcDbEntity
  8
Object
100
AcDbLine
 10
4.583
 20
6.279032960345728
 30
0.0
 11
4.706999999999999
 21
6.279032960345728
 31
0.0
  0
LINE
  5
65D
330
18
100
AcDbEntity
  8
Object
100
AcDbLine
 10
4.682999999999999
 20
6.379032960345727
 30
0.0
 11
4.562
 21
6.379032960345727
 31
0.0
  0
LINE
  5
65E
330
18
100
AcDbEntity
  8
Object
100
AcDbLine
 10
4.467999999999999
 20
6.279032960345728
 30
0.0
 11
4.583
 21
6.279032960345728
 31
0.0
  0
LINE
  5
65F
330
18
100
AcDbEntity
  8
Object
100
AcDbLine
 10
4.562
 20
6.379032960345727
 30
0.0
 11
4.448999999999999
 21
6.379032960345727
 31
0.0
  0
LINE
  5
660
330
18
100
AcDbEntity
  8
Object
100
AcDbLine
 10
4.363
 20
6.279032960345728
 30
0.0
 11
4.467999999999999
 21
6.279032960345728
 31
0.0
  0
LINE
  5
661
330
18
100
AcDbEntity
  8
Object
100
AcDbLine
 10
4.448999999999999
 20
6.379032960345727
 30
0.0
 11
4.347
 21
6.379032960345727
 31
0.0
  0
LINE
  5
662
330
18
100
AcDbEntity
  8
Object
100
AcDbLine
 10
4.269
 20
6.279032960345728
 30
0.0
 11
4.363
 21
6.279032960345728
 31
0.0
  0
LINE
  5
663
330
18
100
AcDbEntity
  8
Object
100
AcDbLine
 10
4.347
 20
6.379032960345727
 30
0.0
 11
4.254999999999999
 21
6.379032960345727
 31
0.0
  0
LINE
  5
664
330
18
100
AcDbEntity
  8
Object
100
AcDbLine
 10
4.187
 20
6.279032960345728
 30
0.0
 11
4.269
 21
6.279032960345728
 31
0.0
  0
LINE
  5
665
330
18
100
AcDbEntity
  8
Object
100
AcDbLine
 10
4.254999999999999
 20
6.379032960345727
 30
0.0
 11
4.176
 21
6.379032960345727
 31
0.0
  0
LINE
  5
666
330
18
100
AcDbEntity
  8
Object
100
AcDbLine
 10
4.187
 20
6.279032960345728
 30
0.0
 11
4.197
 21
5.879032960345727
 31
0.0
  0
LINE
  5
667
330
18
100
AcDbEntity
  8
Object
100
AcDbLine
 10
4.197
 20
5.879032960345727
 30
0.0
 11
4.185
 21
5.879032960345727
 31
0.0
  0
LINE
  5
668
330
18
100
AcDbEntity
  8
Object
100
AcDbLine
 10
4.176
 20
6.379032960345727
 30
0.0
 11
4.108999999999999
 21
6.379032960345727
 31
0.0
  0
LINE
  5
669
330
18
100
AcDbEntity
  8
Object
100
AcDbLine
 10
4.105999999999999
 20
5.879032960345727
 30
0.0
 11
4.161
 21
5.879032960345727
 31
0.0
  0
LINE
  5
66A
330
18
100
AcDbEntity
  8
Object
100
AcDbLine
 10
4.108999999999999
 20
6.379032960345727
 30
0.0
 11
4.057
 21
6.379032960345727
 31
0.0
  0
LINE
  5
66B
330
18
100
AcDbEntity
  8
Object
100
AcDbLine
 10
4.105999999999999
 20
5.879032960345727
 30
0.0
 11
4.062
 21
5.879032960345727
 31
0.0
  0
LINE
  5
66C
330
18
100
AcDbEntity
  8
Object
100
AcDbLine
 10
4.062
 20
5.879032960345727
 30
0.0
 11
4.030999999999999
 21
5.879032960345727
 31
0.0
  0
LINE
  5
66D
330
18
100
AcDbEntity
  8
Object
100
AcDbLine
 10
4.057
 20
6.379032960345727
 30
0.0
 11
4.019
 21
6.379032960345727
 31
0.0
  0
LINE
  5
66E
330
18
100
AcDbEntity
  8
Object
100
AcDbLine
 10
4.019
 20
6.379032960345727
 30
0.0
 11
3.996
 21
6.379032960345727
 31
0.0
  0
LINE
  5
66F
330
18
100
AcDbEntity
  8
Object
100
AcDbLine
 10
4.030999999999999
 20
5.879032960345727
 30
0.0
 11
4.012
 21
5.879032960345727
 31
0.0
  0
LINE
  5
670
330
18
100
AcDbEntity
  8
Object
100
AcDbLine
 10
4.012
 20
5.879032960345727
 30
0.0
 11
4.006
 21
5.879032960345727
 31
0.0
  0
LINE
  5
671
330
18
100
AcDbEntity
  8
Object
100
AcDbLine
 10
3.996
 20
6.379032960345727
 30
0.0
 11
3.987999999999999
 21
6.379032960345727
 31
0.0
  0
LINE
  5
672
330
18
100
AcDbEntity
  8
Object
100
AcDbLine
 10
4.365999999999999
 20
4.849032960345727
 30
0.0
 11
4.331999999999999
 21
4.849032960345727
 31
0.0
  0
LINE
  5
673
330
18
100
AcDbEntity
  8
Object
100
AcDbLine
 10
4.331999999999999
 20
4.849032960345727
 30
0.0
 11
4.293
 21
4.849032960345727
 31
0.0
  0
LINE
  5
674
330
18
100
AcDbEntity
  8
Object
100
AcDbLine
 10
4.293
 20
4.849032960345727
 30
0.0
 11
4.269
 21
4.849032960345727
 31
0.0
  0
LINE
  5
675
330
18
100
AcDbEntity
  8
Object
100
AcDbLine
 10
4.269
 20
4.849032960345727
 30
0.0
 11
4.261
 21
4.849032960345727
 31
0.0
  0
LINE
  5
676
330
18
100
AcDbEntity
  8
Object
100
AcDbLine
 10
4.261
 20
4.849032960345727
 30
0.0
 11
4.243
 21
5.355032960345727
 31
0.0
  0
LINE
  5
677
330
18
100
AcDbEntity
  8
Object
100
AcDbLine
 10
5.256999999999999
 20
6.112032960345728
 30
0.0
 11
5.141
 21
6.112032960345728
 31
0.0
  0
LINE
  5
678
330
18
100
AcDbEntity
  8
Object
100
AcDbLine
 10
5.267999999999999
 20
4.894032960345727
 30
0.0
 11
5.267999999999999
 21
4.849032960345727
 31
0.0
  0
LINE
  5
679
330
18
100
AcDbEntity
  8
Object
100
AcDbLine
 10
5.267999999999999
 20
4.849032960345727
 30
0.0
 11
5.139999999999999
 21
4.849032960345727
 31
0.0
  0
LINE
  5
67A
330
18
100
AcDbEntity
  8
Object
100
AcDbLine
 10
5.141
 20
6.112032960345728
 30
0.0
 11
5.025999999999999
 21
6.112032960345728
 31
0.0
  0
LINE
  5
67B
330
18
100
AcDbEntity
  8
Object
100
AcDbLine
 10
5.139999999999999
 20
4.849032960345727
 30
0.0
 11
5.014999999999999
 21
4.849032960345727
 31
0.0
  0
LINE
  5
67C
330
18
100
AcDbEntity
  8
Object
100
AcDbLine
 10
5.014999999999999
 20
4.849032960345727
 30
0.0
 11
4.892999999999999
 21
4.849032960345727
 31
0.0
  0
LINE
  5
67D
330
18
100
AcDbEntity
  8
Object
100
AcDbLine
 10
4.915
 20
6.112032960345728
 30
0.0
 11
4.807999999999999
 21
6.112032960345728
 31
0.0
  0
LINE
  5
67E
330
18
100
AcDbEntity
  8
Object
100
AcDbLine
 10
4.778
 20
4.849032960345727
 30
0.0
 11
4.892999999999999
 21
4.849032960345727
 31
0.0
  0
LINE
  5
67F
330
18
100
AcDbEntity
  8
Object
100
AcDbLine
 10
4.807999999999999
 20
6.112032960345728
 30
0.0
 11
4.706
 21
6.112032960345728
 31
0.0
  0
LINE
  5
680
330
18
100
AcDbEntity
  8
Object
100
AcDbLine
 10
4.671
 20
4.849032960345727
 30
0.0
 11
4.778
 21
4.849032960345727
 31
0.0
  0
LINE
  5
681
330
18
100
AcDbEntity
  8
Object
100
AcDbLine
 10
4.706
 20
6.112032960345728
 30
0.0
 11
4.612
 21
6.112032960345728
 31
0.0
  0
LINE
  5
682
330
18
100
AcDbEntity
  8
Object
100
AcDbLine
 10
4.573999999999999
 20
4.849032960345727
 30
0.0
 11
4.671
 21
4.849032960345727
 31
0.0
  0
LINE
  5
683
330
18
100
AcDbEntity
  8
Object
100
AcDbLine
 10
4.612
 20
6.112032960345728
 30
0.0
 11
4.525999999999999
 21
6.112032960345728
 31
0.0
  0
LINE
  5
684
330
18
100
AcDbEntity
  8
Object
100
AcDbLine
 10
4.487
 20
4.849032960345727
 30
0.0
 11
4.573999999999999
 21
4.849032960345727
 31
0.0
  0
LINE
  5
685
330
18
100
AcDbEntity
  8
Object
100
AcDbLine
 10
4.525999999999999
 20
6.112032960345728
 30
0.0
 11
4.448
 21
6.112032960345728
 31
0.0
  0
LINE
  5
686
330
18
100
AcDbEntity
  8
Object
100
AcDbLine
 10
4.448
 20
6.112032960345728
 30
0.0
 11
4.381
 21
6.112032960345728
 31
0.0
  0
LINE
  5
687
330
18
100
AcDbEntity
  8
Object
100
AcDbLine
 10
4.413
 20
4.849032960345727
 30
0.0
 11
4.487
 21
4.849032960345727
 31
0.0
  0
LINE
  5
688
330
18
100
AcDbEntity
  8
Object
100
AcDbLine
 10
5.304999999999999
 20
4.898032960345727
 30
0.0
 11
5.323999999999999
 21
4.898032960345727
 31
0.0
  0
LINE
  5
689
330
18
100
AcDbEntity
  8
Object
100
AcDbLine
 10
5.323999999999999
 20
4.898032960345727
 30
0.0
 11
5.323999999999999
 21
4.879032960345728
 31
0.0
  0
LINE
  5
68A
330
18
100
AcDbEntity
  8
Object
100
AcDbLine
 10
5.323
 20
4.852032960345727
 30
0.0
 11
5.323
 21
4.849032960345727
 31
0.0
  0
LINE
  5
68B
330
18
100
AcDbEntity
  8
Object
100
AcDbLine
 10
5.323
 20
4.849032960345727
 30
0.0
 11
5.304999999999999
 21
4.849032960345727
 31
0.0
  0
LINE
  5
68C
330
18
100
AcDbEntity
  8
Object
100
AcDbLine
 10
5.304999999999999
 20
4.898032960345727
 30
0.0
 11
5.286
 21
4.898032960345727
 31
0.0
  0
LINE
  5
68D
330
18
100
AcDbEntity
  8
Object
100
AcDbLine
 10
5.323
 20
4.863032960345728
 30
0.0
 11
5.323999999999999
 21
4.879032960345728
 31
0.0
  0
LINE
  5
68E
330
18
100
AcDbEntity
  8
Object
100
AcDbLine
 10
5.304999999999999
 20
4.849032960345727
 30
0.0
 11
5.286999999999999
 21
4.849032960345727
 31
0.0
  0
LINE
  5
68F
330
18
100
AcDbEntity
  8
Object
100
AcDbLine
 10
5.286999999999999
 20
4.849032960345727
 30
0.0
 11
5.267999999999999
 21
4.849032960345727
 31
0.0
  0
LINE
  5
690
330
18
100
AcDbEntity
  8
Object
100
AcDbLine
 10
5.267999999999999
 20
4.849032960345727
 30
0.0
 11
5.267999999999999
 21
4.852032960345727
 31
0.0
  0
LINE
  5
691
330
18
100
AcDbEntity
  8
Object
100
AcDbLine
 10
5.267999999999999
 20
4.852032960345727
 30
0.0
 11
5.267999999999999
 21
4.863032960345728
 31
0.0
  0
LINE
  5
692
330
18
100
AcDbEntity
  8
Object
100
AcDbLine
 10
5.267999999999999
 20
4.863032960345728
 30
0.0
 11
5.267999999999999
 21
4.879032960345728
 31
0.0
  0
LINE
  5
693
330
18
100
AcDbEntity
  8
Object
100
AcDbLine
 10
5.323
 20
4.852032960345727
 30
0.0
 11
5.323
 21
4.863032960345728
 31
0.0
  0
LINE
  5
694
330
18
100
AcDbEntity
  8
Object
100
AcDbLine
 10
5.267999999999999
 20
4.879032960345728
 30
0.0
 11
5.267999999999999
 21
4.898032960345727
 31
0.0
  0
LINE
  5
695
330
18
100
AcDbEntity
  8
Object
100
AcDbLine
 10
5.267999999999999
 20
4.898032960345727
 30
0.0
 11
5.286
 21
4.898032960345727
 31
0.0
  0
LINE
  5
696
330
18
100
AcDbEntity
  8
Object
100
AcDbLine
 10
4.394
 20
4.849032960345727
 30
0.0
 11
4.384
 21
4.849032960345727
 31
0.0
  0
LINE
  5
697
330
18
100
AcDbEntity
  8
Object
100
AcDbLine
 10
4.384
 20
4.849032960345727
 30
0.0
 11
4.375
 21
4.849032960345727
 31
0.0
  0
LINE
  5
698
330
18
100
AcDbEntity
  8
Object
100
AcDbLine
 10
4.375
 20
4.849032960345727
 30
0.0
 11
4.365999999999999
 21
4.849032960345727
 31
0.0
  0
LINE
  5
699
330
18
100
AcDbEntity
  8
Object
100
AcDbLine
 10
4.349
 20
4.879032960345728
 30
0.0
 11
4.342999999999999
 21
4.898032960345727
 31
0.0
  0
LINE
  5
69A
330
18
100
AcDbEntity
  8
Object
100
AcDbLine
 10
4.315
 20
4.898032960345727
 30
0.0
 11
4.320999999999999
 21
4.879032960345728
 31
0.0
  0
LINE
  5
69B
330
18
100
AcDbEntity
  8
Object
100
AcDbLine
 10
4.413
 20
4.849032960345727
 30
0.0
 11
4.394
 21
4.849032960345727
 31
0.0
  0
LINE
  5
69C
330
18
100
AcDbEntity
  8
Object
100
AcDbLine
 10
4.394
 20
4.849032960345727
 30
0.0
 11
4.376
 21
4.852032960345727
 31
0.0
  0
LINE
  5
69D
330
18
100
AcDbEntity
  8
Object
100
AcDbLine
 10
4.376
 20
4.852032960345727
 30
0.0
 11
4.36
 21
4.863032960345728
 31
0.0
  0
LINE
  5
69E
330
18
100
AcDbEntity
  8
Object
100
AcDbLine
 10
4.36
 20
4.863032960345728
 30
0.0
 11
4.349
 21
4.879032960345728
 31
0.0
  0
LINE
  5
69F
330
18
100
AcDbEntity
  8
Object
100
AcDbLine
 10
4.368999999999999
 20
6.143032960345728
 30
0.0
 11
4.381
 21
6.112032960345728
 31
0.0
  0
LINE
  5
6A0
330
18
100
AcDbEntity
  8
Object
100
AcDbLine
 10
4.381
 20
6.112032960345728
 30
0.0
 11
4.413
 21
4.849032960345727
 31
0.0
  0
LINE
  5
6A1
330
18
100
AcDbEntity
  8
Object
100
AcDbLine
 10
4.366999999999999
 20
6.208032960345728
 30
0.0
 11
4.378
 21
6.239032960345728
 31
0.0
  0
LINE
  5
6A2
330
18
100
AcDbEntity
  8
Object
100
AcDbLine
 10
4.378
 20
6.239032960345728
 30
0.0
 11
4.376999999999999
 21
6.279032960345728
 31
0.0
  0
LINE
  5
6A3
330
18
100
AcDbEntity
  8
Object
100
AcDbLine
 10
4.366999999999999
 20
6.208032960345728
 30
0.0
 11
4.363999999999999
 21
6.175032960345728
 31
0.0
  0
LINE
  5
6A4
330
18
100
AcDbEntity
  8
Object
100
AcDbLine
 10
4.363999999999999
 20
6.175032960345728
 30
0.0
 11
4.368999999999999
 21
6.143032960345728
 31
0.0
  0
LINE
  5
6A5
330
18
100
AcDbEntity
  8
Object
100
AcDbLine
 10
4.347999999999999
 20
4.852032960345727
 30
0.0
 11
4.333
 21
4.863032960345728
 31
0.0
  0
LINE
  5
6A6
330
18
100
AcDbEntity
  8
Object
100
AcDbLine
 10
4.333
 20
4.863032960345728
 30
0.0
 11
4.320999999999999
 21
4.879032960345728
 31
0.0
  0
LINE
  5
6A7
330
18
100
AcDbEntity
  8
Object
100
AcDbLine
 10
4.347999999999999
 20
4.852032960345727
 30
0.0
 11
4.365999999999999
 21
4.849032960345727
 31
0.0
  0
LINE
  5
6A8
330
18
100
AcDbEntity
  8
Object
100
AcDbLine
 10
4.161
 20
5.879032960345727
 30
0.0
 11
4.315
 21
4.898032960345727
 31
0.0
  0
LINE
  5
6A9
330
18
100
AcDbEntity
  8
Object
100
AcDbLine
 10
5.323999999999999
 20
4.879032960345728
 30
0.0
 11
5.323999999999999
 21
4.898032960345727
 31
0.0
  0
LINE
  5
6AA
330
18
100
AcDbEntity
  8
Object
100
AcDbLine
 10
5.323999999999999
 20
4.898032960345727
 30
0.0
 11
5.331999999999999
 21
5.879032960345727
 31
0.0
  0
LINE
  5
6AB
330
18
100
AcDbEntity
  8
Object
100
AcDbLine
 10
5.323
 20
4.868032960345727
 30
0.0
 11
5.323
 21
4.849032960345727
 31
0.0
  0
LINE
  5
6AC
330
18
100
AcDbEntity
  8
Object
100
AcDbLine
 10
5.331999999999999
 20
5.879032960345727
 30
0.0
 11
5.331999999999999
 21
5.829032960345728
 31
0.0
  0
LINE
  5
6AD
330
18
100
AcDbEntity
  8
Object
100
AcDbLine
 10
5.323
 20
4.863032960345728
 30
0.0
 11
5.323
 21
4.852032960345727
 31
0.0
  0
LINE
  5
6AE
330
18
100
AcDbEntity
  8
Object
100
AcDbLine
 10
5.323
 20
4.852032960345727
 30
0.0
 11
5.323
 21
4.849032960345727
 31
0.0
  0
LINE
  5
6AF
330
18
100
AcDbEntity
  8
Object
100
AcDbLine
 10
5.323
 20
4.863032960345728
 30
0.0
 11
5.323999999999999
 21
4.879032960345728
 31
0.0
  0
LINE
  5
6B0
330
18
100
AcDbEntity
  8
Object
100
AcDbLine
 10
6.203999999999999
 20
5.879032960345727
 30
0.0
 11
6.177999999999999
 21
4.849032960345727
 31
0.0
  0
LINE
  5
6B1
330
18
100
AcDbEntity
  8
Object
100
AcDbLine
 10
6.177999999999999
 20
4.849032960345727
 30
0.0
 11
6.104
 21
4.849032960345727
 31
0.0
  0
LINE
  5
6B2
330
18
100
AcDbEntity
  8
Object
100
AcDbLine
 10
6.104
 20
4.849032960345727
 30
0.0
 11
6.017999999999999
 21
4.849032960345727
 31
0.0
  0
LINE
  5
6B3
330
18
100
AcDbEntity
  8
Object
100
AcDbLine
 10
6.017999999999999
 20
4.849032960345727
 30
0.0
 11
5.919999999999999
 21
4.849032960345727
 31
0.0
  0
LINE
  5
6B4
330
18
100
AcDbEntity
  8
Object
100
AcDbLine
 10
5.919999999999999
 20
4.849032960345727
 30
0.0
 11
5.812999999999999
 21
4.849032960345727
 31
0.0
  0
LINE
  5
6B5
330
18
100
AcDbEntity
  8
Object
100
AcDbLine
 10
5.812999999999999
 20
4.849032960345727
 30
0.0
 11
5.698
 21
4.849032960345727
 31
0.0
  0
LINE
  5
6B6
330
18
100
AcDbEntity
  8
Object
100
AcDbLine
 10
5.698
 20
4.849032960345727
 30
0.0
 11
5.576999999999999
 21
4.849032960345727
 31
0.0
  0
LINE
  5
6B7
330
18
100
AcDbEntity
  8
Object
100
AcDbLine
 10
5.576999999999999
 20
4.849032960345727
 30
0.0
 11
5.451
 21
4.849032960345727
 31
0.0
  0
LINE
  5
6B8
330
18
100
AcDbEntity
  8
Object
100
AcDbLine
 10
5.451
 20
4.849032960345727
 30
0.0
 11
5.323
 21
4.849032960345727
 31
0.0
  0
LINE
  5
6B9
330
18
100
AcDbEntity
  8
Object
100
AcDbLine
 10
5.323
 20
4.849032960345727
 30
0.0
 11
5.323
 21
4.868032960345727
 31
0.0
  0
LINE
  5
6BA
330
18
100
AcDbEntity
  8
Object
100
AcDbLine
 10
5.331999999999999
 20
5.879032960345727
 30
0.0
 11
5.331999999999999
 21
5.829032960345728
 31
0.0
  0
LINE
  5
6BB
330
18
100
AcDbEntity
  8
Object
100
AcDbLine
 10
5.267999999999999
 20
4.852032960345727
 30
0.0
 11
5.267999999999999
 21
4.863032960345728
 31
0.0
  0
LINE
  5
6BC
330
18
100
AcDbEntity
  8
Object
100
AcDbLine
 10
5.267999999999999
 20
4.863032960345728
 30
0.0
 11
5.267999999999999
 21
4.879032960345728
 31
0.0
  0
LINE
  5
6BD
330
18
100
AcDbEntity
  8
Object
100
AcDbLine
 10
5.267999999999999
 20
4.852032960345727
 30
0.0
 11
5.267999999999999
 21
4.849032960345727
 31
0.0
  0
LINE
  5
6BE
330
18
100
AcDbEntity
  8
Object
100
AcDbLine
 10
5.267999999999999
 20
4.879032960345728
 30
0.0
 11
5.267999999999999
 21
4.898032960345727
 31
0.0
  0
LINE
  5
6BF
330
18
100
AcDbEntity
  8
Object
100
AcDbLine
 10
5.267999999999999
 20
4.898032960345727
 30
0.0
 11
5.259
 21
5.879032960345727
 31
0.0
  0
LINE
  5
6C0
330
18
100
AcDbEntity
  8
Object
100
AcDbLine
 10
5.267999999999999
 20
4.849032960345727
 30
0.0
 11
5.267999999999999
 21
4.894032960345727
 31
0.0
  0
LINE
  5
6C1
330
18
100
AcDbEntity
  8
Object
100
AcDbLine
 10
5.256999999999999
 20
6.164032960345728
 30
0.0
 11
5.256999999999999
 21
6.143032960345728
 31
0.0
  0
LINE
  5
6C2
330
18
100
AcDbEntity
  8
Object
100
AcDbLine
 10
5.256999999999999
 20
6.143032960345728
 30
0.0
 11
5.256999999999999
 21
6.118032960345727
 31
0.0
  0
LINE
  5
6C3
330
18
100
AcDbEntity
  8
Object
100
AcDbLine
 10
5.256
 20
6.189032960345728
 30
0.0
 11
5.256
 21
6.208032960345728
 31
0.0
  0
LINE
  5
6C4
330
18
100
AcDbEntity
  8
Object
100
AcDbLine
 10
5.256
 20
6.208032960345728
 30
0.0
 11
5.256
 21
6.221032960345728
 31
0.0
  0
LINE
  5
6C5
330
18
100
AcDbEntity
  8
Object
100
AcDbLine
 10
5.256
 20
6.279032960345728
 30
0.0
 11
5.259
 21
5.879032960345727
 31
0.0
  0
LINE
  5
6C6
330
18
100
AcDbEntity
  8
Object
100
AcDbLine
 10
6.243
 20
4.879032960345728
 30
0.0
 11
6.249
 21
4.898032960345727
 31
0.0
  0
LINE
  5
6C7
330
18
100
AcDbEntity
  8
Object
100
AcDbLine
 10
6.177999999999999
 20
4.849032960345727
 30
0.0
 11
6.198
 21
4.849032960345727
 31
0.0
  0
LINE
  5
6C8
330
18
100
AcDbEntity
  8
Object
100
AcDbLine
 10
4.161
 20
5.879032960345727
 30
0.0
 11
4.105999999999999
 21
5.879032960345727
 31
0.0
  0
LINE
  5
6C9
330
18
100
AcDbEntity
  8
Object
100
AcDbLine
 10
4.105999999999999
 20
5.879032960345727
 30
0.0
 11
4.062
 21
5.879032960345727
 31
0.0
  0
LINE
  5
6CA
330
18
100
AcDbEntity
  8
Object
100
AcDbLine
 10
4.062
 20
5.879032960345727
 30
0.0
 11
4.030999999999999
 21
5.879032960345727
 31
0.0
  0
LINE
  5
6CB
330
18
100
AcDbEntity
  8
Object
100
AcDbLine
 10
4.030999999999999
 20
5.879032960345727
 30
0.0
 11
4.012
 21
5.879032960345727
 31
0.0
  0
LINE
  5
6CC
330
18
100
AcDbEntity
  8
Object
100
AcDbLine
 10
4.012
 20
5.879032960345727
 30
0.0
 11
4.006
 21
5.879032960345727
 31
0.0
  0
LINE
  5
6CD
330
18
100
AcDbEntity
  8
Object
100
AcDbLine
 10
6.602999999999999
 20
6.379032960345727
 30
0.0
 11
6.596
 21
6.379032960345727
 31
0.0
  0
LINE
  5
6CE
330
18
100
AcDbEntity
  8
Object
100
AcDbLine
 10
6.596
 20
6.379032960345727
 30
0.0
 11
6.573
 21
6.379032960345727
 31
0.0
  0
LINE
  5
6CF
330
18
100
AcDbEntity
  8
Object
100
AcDbLine
 10
6.573
 20
6.379032960345727
 30
0.0
 11
6.535
 21
6.379032960345727
 31
0.0
  0
LINE
  5
6D0
330
18
100
AcDbEntity
  8
Object
100
AcDbLine
 10
6.535
 20
6.379032960345727
 30
0.0
 11
6.482
 21
6.379032960345727
 31
0.0
  0
LINE
  5
6D1
330
18
100
AcDbEntity
  8
Object
100
AcDbLine
 10
6.482
 20
6.379032960345727
 30
0.0
 11
6.416
 21
6.379032960345727
 31
0.0
  0
LINE
  5
6D2
330
18
100
AcDbEntity
  8
Object
100
AcDbLine
 10
6.416
 20
6.379032960345727
 30
0.0
 11
6.336999999999999
 21
6.379032960345727
 31
0.0
  0
LINE
  5
6D3
330
18
100
AcDbEntity
  8
Object
100
AcDbLine
 10
6.336999999999999
 20
6.379032960345727
 30
0.0
 11
6.245
 21
6.379032960345727
 31
0.0
  0
LINE
  5
6D4
330
18
100
AcDbEntity
  8
Object
100
AcDbLine
 10
6.245
 20
6.379032960345727
 30
0.0
 11
6.142
 21
6.379032960345727
 31
0.0
  0
LINE
  5
6D5
330
18
100
AcDbEntity
  8
Object
100
AcDbLine
 10
6.142
 20
6.379032960345727
 30
0.0
 11
6.028999999999999
 21
6.379032960345727
 31
0.0
  0
LINE
  5
6D6
330
18
100
AcDbEntity
  8
Object
100
AcDbLine
 10
6.028999999999999
 20
6.379032960345727
 30
0.0
 11
5.908
 21
6.379032960345727
 31
0.0
  0
LINE
  5
6D7
330
18
100
AcDbEntity
  8
Object
100
AcDbLine
 10
5.908
 20
6.379032960345727
 30
0.0
 11
5.78
 21
6.379032960345727
 31
0.0
  0
LINE
  5
6D8
330
18
100
AcDbEntity
  8
Object
100
AcDbLine
 10
5.78
 20
6.379032960345727
 30
0.0
 11
5.645999999999999
 21
6.379032960345727
 31
0.0
  0
LINE
  5
6D9
330
18
100
AcDbEntity
  8
Object
100
AcDbLine
 10
5.645999999999999
 20
6.379032960345727
 30
0.0
 11
5.506999999999999
 21
6.379032960345727
 31
0.0
  0
LINE
  5
6DA
330
18
100
AcDbEntity
  8
Object
100
AcDbLine
 10
5.506999999999999
 20
6.379032960345727
 30
0.0
 11
5.366999999999999
 21
6.379032960345727
 31
0.0
  0
LINE
  5
6DB
330
18
100
AcDbEntity
  8
Object
100
AcDbLine
 10
5.366999999999999
 20
6.379032960345727
 30
0.0
 11
5.225
 21
6.379032960345727
 31
0.0
  0
LINE
  5
6DC
330
18
100
AcDbEntity
  8
Object
100
AcDbLine
 10
5.225
 20
6.379032960345727
 30
0.0
 11
5.084
 21
6.379032960345727
 31
0.0
  0
LINE
  5
6DD
330
18
100
AcDbEntity
  8
Object
100
AcDbLine
 10
5.084
 20
6.379032960345727
 30
0.0
 11
4.945999999999999
 21
6.379032960345727
 31
0.0
  0
LINE
  5
6DE
330
18
100
AcDbEntity
  8
Object
100
AcDbLine
 10
4.945999999999999
 20
6.379032960345727
 30
0.0
 11
4.812
 21
6.379032960345727
 31
0.0
  0
LINE
  5
6DF
330
18
100
AcDbEntity
  8
Object
100
AcDbLine
 10
4.812
 20
6.379032960345727
 30
0.0
 11
4.682999999999999
 21
6.379032960345727
 31
0.0
  0
LINE
  5
6E0
330
18
100
AcDbEntity
  8
Object
100
AcDbLine
 10
4.682999999999999
 20
6.379032960345727
 30
0.0
 11
4.562
 21
6.379032960345727
 31
0.0
  0
LINE
  5
6E1
330
18
100
AcDbEntity
  8
Object
100
AcDbLine
 10
4.562
 20
6.379032960345727
 30
0.0
 11
4.448999999999999
 21
6.379032960345727
 31
0.0
  0
LINE
  5
6E2
330
18
100
AcDbEntity
  8
Object
100
AcDbLine
 10
4.448999999999999
 20
6.379032960345727
 30
0.0
 11
4.347
 21
6.379032960345727
 31
0.0
  0
LINE
  5
6E3
330
18
100
AcDbEntity
  8
Object
100
AcDbLine
 10
4.347
 20
6.379032960345727
 30
0.0
 11
4.254999999999999
 21
6.379032960345727
 31
0.0
  0
LINE
  5
6E4
330
18
100
AcDbEntity
  8
Object
100
AcDbLine
 10
4.254999999999999
 20
6.379032960345727
 30
0.0
 11
4.176
 21
6.379032960345727
 31
0.0
  0
LINE
  5
6E5
330
18
100
AcDbEntity
  8
Object
100
AcDbLine
 10
4.176
 20
6.379032960345727
 30
0.0
 11
4.108999999999999
 21
6.379032960345727
 31
0.0
  0
LINE
  5
6E6
330
18
100
AcDbEntity
  8
Object
100
AcDbLine
 10
4.108999999999999
 20
6.379032960345727
 30
0.0
 11
4.057
 21
6.379032960345727
 31
0.0
  0
LINE
  5
6E7
330
18
100
AcDbEntity
  8
Object
100
AcDbLine
 10
4.057
 20
6.379032960345727
 30
0.0
 11
4.019
 21
6.379032960345727
 31
0.0
  0
LINE
  5
6E8
330
18
100
AcDbEntity
  8
Object
100
AcDbLine
 10
4.019
 20
6.379032960345727
 30
0.0
 11
3.996
 21
6.379032960345727
 31
0.0
  0
LINE
  5
6E9
330
18
100
AcDbEntity
  8
Object
100
AcDbLine
 10
3.996
 20
6.379032960345727
 30
0.0
 11
3.987999999999999
 21
6.379032960345727
 31
0.0
  0
LINE
  5
6EA
330
18
100
AcDbEntity
  8
Object
100
AcDbLine
 10
5.307999999999999
 20
5.879032960345727
 30
0.0
 11
5.331999999999999
 21
5.879032960345727
 31
0.0
  0
LINE
  5
6EB
330
18
100
AcDbEntity
  8
Object
100
AcDbLine
 10
5.331999999999999
 20
5.879032960345727
 30
0.0
 11
5.323999999999999
 21
4.898032960345727
 31
0.0
  0
LINE
  5
6EC
330
18
100
AcDbEntity
  8
Object
100
AcDbLine
 10
5.259
 20
5.879032960345727
 30
0.0
 11
5.267999999999999
 21
4.898032960345727
 31
0.0
  0
LINE
  5
6ED
330
18
100
AcDbEntity
  8
Object
100
AcDbLine
 10
5.256
 20
6.279032960345728
 30
0.0
 11
5.113999999999999
 21
6.279032960345728
 31
0.0
  0
LINE
  5
6EE
330
18
100
AcDbEntity
  8
Object
100
AcDbLine
 10
5.113999999999999
 20
6.279032960345728
 30
0.0
 11
4.974
 21
6.279032960345728
 31
0.0
  0
LINE
  5
6EF
330
18
100
AcDbEntity
  8
Object
100
AcDbLine
 10
4.974
 20
6.279032960345728
 30
0.0
 11
4.836999999999999
 21
6.279032960345728
 31
0.0
  0
LINE
  5
6F0
330
18
100
AcDbEntity
  8
Object
100
AcDbLine
 10
4.836999999999999
 20
6.279032960345728
 30
0.0
 11
4.706999999999999
 21
6.279032960345728
 31
0.0
  0
LINE
  5
6F1
330
18
100
AcDbEntity
  8
Object
100
AcDbLine
 10
4.706999999999999
 20
6.279032960345728
 30
0.0
 11
4.583
 21
6.279032960345728
 31
0.0
  0
LINE
  5
6F2
330
18
100
AcDbEntity
  8
Object
100
AcDbLine
 10
4.583
 20
6.279032960345728
 30
0.0
 11
4.467999999999999
 21
6.279032960345728
 31
0.0
  0
LINE
  5
6F3
330
18
100
AcDbEntity
  8
Object
100
AcDbLine
 10
4.467999999999999
 20
6.279032960345728
 30
0.0
 11
4.363
 21
6.279032960345728
 31
0.0
  0
LINE
  5
6F4
330
18
100
AcDbEntity
  8
Object
100
AcDbLine
 10
4.363
 20
6.279032960345728
 30
0.0
 11
4.269
 21
6.279032960345728
 31
0.0
  0
LINE
  5
6F5
330
18
100
AcDbEntity
  8
Object
100
AcDbLine
 10
4.269
 20
6.279032960345728
 30
0.0
 11
4.187
 21
6.279032960345728
 31
0.0
  0
LINE
  5
6F6
330
18
100
AcDbEntity
  8
Object
100
AcDbLine
 10
4.333
 20
4.898032960345727
 30
0.0
 11
4.342999999999999
 21
4.898032960345727
 31
0.0
  0
LINE
  5
6F7
330
18
100
AcDbEntity
  8
Object
100
AcDbLine
 10
4.342999999999999
 20
4.898032960345727
 30
0.0
 11
4.197
 21
5.879032960345727
 31
0.0
  0
LINE
  5
6F8
330
18
100
AcDbEntity
  8
Object
100
AcDbLine
 10
4.185
 20
5.879032960345727
 30
0.0
 11
4.173
 21
5.879032960345727
 31
0.0
  0
LINE
  5
6F9
330
18
100
AcDbEntity
  8
Object
100
AcDbLine
 10
4.333
 20
4.898032960345727
 30
0.0
 11
4.323999999999999
 21
4.898032960345727
 31
0.0
  0
LINE
  5
6FA
330
18
100
AcDbEntity
  8
Object
100
AcDbLine
 10
4.323999999999999
 20
4.898032960345727
 30
0.0
 11
4.315
 21
4.898032960345727
 31
0.0
  0
LINE
  5
6FB
330
18
100
AcDbEntity
  8
Object
100
AcDbLine
 10
4.173
 20
5.879032960345727
 30
0.0
 11
4.161
 21
5.879032960345727
 31
0.0
  0
LINE
  5
6FC
330
18
100
AcDbEntity
  8
Object
100
AcDbLine
 10
6.394
 20
5.879032960345727
 30
0.0
 11
6.312999999999999
 21
5.879032960345727
 31
0.0
  0
LINE
  5
6FD
330
18
100
AcDbEntity
  8
Object
100
AcDbLine
 10
6.312999999999999
 20
5.879032960345727
 30
0.0
 11
6.219999999999999
 21
5.879032960345727
 31
0.0
  0
LINE
  5
6FE
330
18
100
AcDbEntity
  8
Object
100
AcDbLine
 10
6.219999999999999
 20
5.879032960345727
 30
0.0
 11
6.116
 21
5.879032960345727
 31
0.0
  0
LINE
  5
6FF
330
18
100
AcDbEntity
  8
Object
100
AcDbLine
 10
6.116
 20
5.879032960345727
 30
0.0
 11
6.001
 21
5.879032960345727
 31
0.0
  0
LINE
  5
700
330
18
100
AcDbEntity
  8
Object
100
AcDbLine
 10
6.001
 20
5.879032960345727
 30
0.0
 11
5.878
 21
5.879032960345727
 31
0.0
  0
LINE
  5
701
330
18
100
AcDbEntity
  8
Object
100
AcDbLine
 10
5.878
 20
5.879032960345727
 30
0.0
 11
5.748
 21
5.879032960345727
 31
0.0
  0
LINE
  5
702
330
18
100
AcDbEntity
  8
Object
100
AcDbLine
 10
5.748
 20
5.879032960345727
 30
0.0
 11
5.613
 21
5.879032960345727
 31
0.0
  0
LINE
  5
703
330
18
100
AcDbEntity
  8
Object
100
AcDbLine
 10
5.613
 20
5.879032960345727
 30
0.0
 11
5.474
 21
5.879032960345727
 31
0.0
  0
LINE
  5
704
330
18
100
AcDbEntity
  8
Object
100
AcDbLine
 10
5.474
 20
5.879032960345727
 30
0.0
 11
5.331999999999999
 21
5.879032960345727
 31
0.0
  0
LINE
  5
705
330
18
100
AcDbEntity
  8
Object
100
AcDbLine
 10
5.256
 20
6.208032960345728
 30
0.0
 11
5.256
 21
6.221032960345728
 31
0.0
  0
LINE
  5
706
330
18
100
AcDbEntity
  8
Object
100
AcDbLine
 10
5.256999999999999
 20
6.118032960345727
 30
0.0
 11
5.256999999999999
 21
6.143032960345728
 31
0.0
  0
LINE
  5
707
330
18
100
AcDbEntity
  8
Object
100
AcDbLine
 10
5.256
 20
6.189032960345728
 30
0.0
 11
5.256
 21
6.208032960345728
 31
0.0
  0
LINE
  5
708
330
18
100
AcDbEntity
  8
Object
100
AcDbLine
 10
5.256999999999999
 20
6.143032960345728
 30
0.0
 11
5.256999999999999
 21
6.164032960345728
 31
0.0
  0
LINE
  5
709
330
18
100
AcDbEntity
  8
Object
100
AcDbLine
 10
5.256
 20
6.239032960345728
 30
0.0
 11
5.139
 21
6.239032960345728
 31
0.0
  0
LINE
  5
70A
330
18
100
AcDbEntity
  8
Object
100
AcDbLine
 10
5.139
 20
6.239032960345728
 30
0.0
 11
5.025
 21
6.239032960345728
 31
0.0
  0
LINE
  5
70B
330
18
100
AcDbEntity
  8
Object
100
AcDbLine
 10
5.025
 20
6.239032960345728
 30
0.0
 11
4.913
 21
6.239032960345728
 31
0.0
  0
LINE
  5
70C
330
18
100
AcDbEntity
  8
Object
100
AcDbLine
 10
4.915
 20
6.112032960345728
 30
0.0
 11
5.025999999999999
 21
6.112032960345728
 31
0.0
  0
LINE
  5
70D
330
18
100
AcDbEntity
  8
Object
100
AcDbLine
 10
4.913
 20
6.239032960345728
 30
0.0
 11
4.806
 21
6.239032960345728
 31
0.0
  0
LINE
  5
70E
330
18
100
AcDbEntity
  8
Object
100
AcDbLine
 10
4.806
 20
6.239032960345728
 30
0.0
 11
4.703999999999999
 21
6.239032960345728
 31
0.0
  0
LINE
  5
70F
330
18
100
AcDbEntity
  8
Object
100
AcDbLine
 10
4.703999999999999
 20
6.239032960345728
 30
0.0
 11
4.608999999999999
 21
6.239032960345728
 31
0.0
  0
LINE
  5
710
330
18
100
AcDbEntity
  8
Object
100
AcDbLine
 10
4.608999999999999
 20
6.239032960345728
 30
0.0
 11
4.522999999999999
 21
6.239032960345728
 31
0.0
  0
LINE
  5
711
330
18
100
AcDbEntity
  8
Object
100
AcDbLine
 10
4.522999999999999
 20
6.239032960345728
 30
0.0
 11
4.445
 21
6.239032960345728
 31
0.0
  0
LINE
  5
712
330
18
100
AcDbEntity
  8
Object
100
AcDbLine
 10
4.445
 20
6.239032960345728
 30
0.0
 11
4.378
 21
6.239032960345728
 31
0.0
  0
LINE
  5
713
330
18
100
AcDbEntity
  8
Object
100
AcDbLine
 10
6.796
 20
15.47803296034573
 30
0.0
 11
6.79
 21
15.51803296034573
 31
0.0
  0
LINE
  5
714
330
18
100
AcDbEntity
  8
Object
100
AcDbLine
 10
6.79
 20
15.51803296034573
 30
0.0
 11
6.770999999999999
 21
15.55503296034573
 31
0.0
  0
LINE
  5
715
330
18
100
AcDbEntity
  8
Object
100
AcDbLine
 10
6.770999999999999
 20
15.55503296034573
 30
0.0
 11
6.756
 21
15.57003296034572
 31
0.0
  0
LINE
  5
716
330
18
100
AcDbEntity
  8
Object
100
AcDbLine
 10
6.756
 20
15.57003296034572
 30
0.0
 11
6.738999999999999
 21
15.58103296034573
 31
0.0
  0
LINE
  5
717
330
18
100
AcDbEntity
  8
Object
100
AcDbLine
 10
6.738999999999999
 20
15.58103296034573
 30
0.0
 11
6.719999999999999
 21
15.58803296034573
 31
0.0
  0
LINE
  5
718
330
18
100
AcDbEntity
  8
Object
100
AcDbLine
 10
6.719999999999999
 20
15.58803296034573
 30
0.0
 11
6.698999999999999
 21
15.59103296034573
 31
0.0
  0
LINE
  5
719
330
18
100
AcDbEntity
  8
Object
100
AcDbLine
 10
6.698999999999999
 20
10.26103296034573
 30
0.0
 11
6.719999999999999
 21
10.26303296034573
 31
0.0
  0
LINE
  5
71A
330
18
100
AcDbEntity
  8
Object
100
AcDbLine
 10
6.719999999999999
 20
10.26303296034573
 30
0.0
 11
6.738999999999999
 21
10.27003296034573
 31
0.0
  0
LINE
  5
71B
330
18
100
AcDbEntity
  8
Object
100
AcDbLine
 10
6.738999999999999
 20
10.27003296034573
 30
0.0
 11
6.756
 21
10.28203296034573
 31
0.0
  0
LINE
  5
71C
330
18
100
AcDbEntity
  8
Object
100
AcDbLine
 10
6.756
 20
10.28203296034573
 30
0.0
 11
6.770999999999999
 21
10.29703296034573
 31
0.0
  0
LINE
  5
71D
330
18
100
AcDbEntity
  8
Object
100
AcDbLine
 10
6.770999999999999
 20
10.29703296034573
 30
0.0
 11
6.79
 21
10.33303296034572
 31
0.0
  0
LINE
  5
71E
330
18
100
AcDbEntity
  8
Object
100
AcDbLine
 10
6.79
 20
10.33303296034572
 30
0.0
 11
6.796
 21
10.37403296034573
 31
0.0
  0
LINE
  5
71F
330
18
100
AcDbEntity
  8
Object
100
AcDbLine
 10
6.796
 20
10.37403296034573
 30
0.0
 11
6.796
 21
15.47803296034573
 31
0.0
  0
LINE
  5
720
330
18
100
AcDbEntity
  8
Object
100
AcDbLine
 10
3.671
 20
14.66203296034573
 30
0.0
 11
3.671
 21
11.19003296034573
 31
0.0
  0
LINE
  5
721
330
18
100
AcDbEntity
  8
Object
100
AcDbLine
 10
3.671
 20
11.19003296034573
 30
0.0
 11
3.671
 21
11.12703296034573
 31
0.0
  0
LINE
  5
722
330
18
100
AcDbEntity
  8
Object
100
AcDbLine
 10
3.671
 20
11.00103296034573
 30
0.0
 11
3.671
 21
10.87703296034573
 31
0.0
  0
LINE
  5
723
330
18
100
AcDbEntity
  8
Object
100
AcDbLine
 10
3.671
 20
10.87703296034573
 30
0.0
 11
3.671
 21
10.75703296034573
 31
0.0
  0
LINE
  5
724
330
18
100
AcDbEntity
  8
Object
100
AcDbLine
 10
3.671
 20
10.75703296034573
 30
0.0
 11
3.671
 21
10.64203296034573
 31
0.0
  0
LINE
  5
725
330
18
100
AcDbEntity
  8
Object
100
AcDbLine
 10
3.671
 20
11.12703296034573
 30
0.0
 11
3.671
 21
11.00103296034573
 31
0.0
  0
LINE
  5
726
330
18
100
AcDbEntity
  8
Object
100
AcDbLine
 10
3.671
 20
14.97503296034573
 30
0.0
 11
3.671
 21
14.85103296034573
 31
0.0
  0
LINE
  5
727
330
18
100
AcDbEntity
  8
Object
100
AcDbLine
 10
3.671
 20
15.20903296034573
 30
0.0
 11
3.671
 21
15.09503296034573
 31
0.0
  0
LINE
  5
728
330
18
100
AcDbEntity
  8
Object
100
AcDbLine
 10
3.671
 20
15.09503296034573
 30
0.0
 11
3.671
 21
14.97503296034573
 31
0.0
  0
LINE
  5
729
330
18
100
AcDbEntity
  8
Object
100
AcDbLine
 10
3.671
 20
14.85103296034573
 30
0.0
 11
3.671
 21
14.72503296034573
 31
0.0
  0
LINE
  5
72A
330
18
100
AcDbEntity
  8
Object
100
AcDbLine
 10
3.671
 20
14.72503296034573
 30
0.0
 11
3.671
 21
14.66203296034573
 31
0.0
  0
LINE
  5
72B
330
18
100
AcDbEntity
  8
Object
100
AcDbLine
 10
3.999
 20
10.26203296034573
 30
0.0
 11
3.954
 21
10.26703296034573
 31
0.0
  0
LINE
  5
72C
330
18
100
AcDbEntity
  8
Object
100
AcDbLine
 10
3.954
 20
10.26703296034573
 30
0.0
 11
3.910999999999999
 21
10.27603296034573
 31
0.0
  0
LINE
  5
72D
330
18
100
AcDbEntity
  8
Object
100
AcDbLine
 10
3.910999999999999
 20
10.27603296034573
 30
0.0
 11
3.87
 21
10.28703296034573
 31
0.0
  0
LINE
  5
72E
330
18
100
AcDbEntity
  8
Object
100
AcDbLine
 10
3.87
 20
10.28703296034573
 30
0.0
 11
3.833
 21
10.30303296034573
 31
0.0
  0
LINE
  5
72F
330
18
100
AcDbEntity
  8
Object
100
AcDbLine
 10
3.833
 20
10.30303296034573
 30
0.0
 11
3.798999999999999
 21
10.32103296034573
 31
0.0
  0
LINE
  5
730
330
18
100
AcDbEntity
  8
Object
100
AcDbLine
 10
3.798999999999999
 20
10.32103296034573
 30
0.0
 11
3.769999999999999
 21
10.34203296034573
 31
0.0
  0
LINE
  5
731
330
18
100
AcDbEntity
  8
Object
100
AcDbLine
 10
3.769999999999999
 20
10.34203296034573
 30
0.0
 11
3.745
 21
10.36703296034573
 31
0.0
  0
LINE
  5
732
330
18
100
AcDbEntity
  8
Object
100
AcDbLine
 10
3.745
 20
10.36703296034573
 30
0.0
 11
3.724
 21
10.39503296034573
 31
0.0
  0
LINE
  5
733
330
18
100
AcDbEntity
  8
Object
100
AcDbLine
 10
3.724
 20
10.39503296034573
 30
0.0
 11
3.708
 21
10.42503296034573
 31
0.0
  0
LINE
  5
734
330
18
100
AcDbEntity
  8
Object
100
AcDbLine
 10
3.708
 20
10.42503296034573
 30
0.0
 11
3.685
 21
10.49103296034573
 31
0.0
  0
LINE
  5
735
330
18
100
AcDbEntity
  8
Object
100
AcDbLine
 10
3.685
 20
10.49103296034573
 30
0.0
 11
3.673999999999999
 21
10.56403296034573
 31
0.0
  0
LINE
  5
736
330
18
100
AcDbEntity
  8
Object
100
AcDbLine
 10
3.673999999999999
 20
10.56403296034573
 30
0.0
 11
3.671
 21
10.64203296034573
 31
0.0
  0
LINE
  5
737
330
18
100
AcDbEntity
  8
Object
100
AcDbLine
 10
4.0
 20
15.58903296034572
 30
0.0
 11
3.955
 21
15.58403296034573
 31
0.0
  0
LINE
  5
738
330
18
100
AcDbEntity
  8
Object
100
AcDbLine
 10
3.955
 20
15.58403296034573
 30
0.0
 11
3.910999999999999
 21
15.57603296034573
 31
0.0
  0
LINE
  5
739
330
18
100
AcDbEntity
  8
Object
100
AcDbLine
 10
3.910999999999999
 20
15.57603296034573
 30
0.0
 11
3.871
 21
15.56403296034573
 31
0.0
  0
LINE
  5
73A
330
18
100
AcDbEntity
  8
Object
100
AcDbLine
 10
3.871
 20
15.56403296034573
 30
0.0
 11
3.833
 21
15.54903296034573
 31
0.0
  0
LINE
  5
73B
330
18
100
AcDbEntity
  8
Object
100
AcDbLine
 10
3.833
 20
15.54903296034573
 30
0.0
 11
3.8
 21
15.53103296034573
 31
0.0
  0
LINE
  5
73C
330
18
100
AcDbEntity
  8
Object
100
AcDbLine
 10
3.8
 20
15.53103296034573
 30
0.0
 11
3.769999999999999
 21
15.50903296034572
 31
0.0
  0
LINE
  5
73D
330
18
100
AcDbEntity
  8
Object
100
AcDbLine
 10
3.769999999999999
 20
15.50903296034572
 30
0.0
 11
3.745
 21
15.48403296034573
 31
0.0
  0
LINE
  5
73E
330
18
100
AcDbEntity
  8
Object
100
AcDbLine
 10
3.745
 20
15.48403296034573
 30
0.0
 11
3.724999999999999
 21
15.45703296034573
 31
0.0
  0
LINE
  5
73F
330
18
100
AcDbEntity
  8
Object
100
AcDbLine
 10
3.724999999999999
 20
15.45703296034573
 30
0.0
 11
3.708
 21
15.42703296034573
 31
0.0
  0
LINE
  5
740
330
18
100
AcDbEntity
  8
Object
100
AcDbLine
 10
3.708
 20
15.42703296034573
 30
0.0
 11
3.685
 21
15.36103296034573
 31
0.0
  0
LINE
  5
741
330
18
100
AcDbEntity
  8
Object
100
AcDbLine
 10
3.685
 20
15.36103296034573
 30
0.0
 11
3.673999999999999
 21
15.28803296034572
 31
0.0
  0
LINE
  5
742
330
18
100
AcDbEntity
  8
Object
100
AcDbLine
 10
3.673999999999999
 20
15.28803296034572
 30
0.0
 11
3.671
 21
15.20903296034573
 31
0.0
  0
LINE
  5
743
330
18
100
AcDbEntity
  8
Object
100
AcDbLine
 10
6.783999999999999
 20
15.33603296034573
 30
0.0
 11
6.778999999999999
 21
15.24903296034573
 31
0.0
  0
LINE
  5
744
330
18
100
AcDbEntity
  8
Object
100
AcDbLine
 10
6.778999999999999
 20
10.60203296034573
 30
0.0
 11
6.783999999999999
 21
10.51503296034573
 31
0.0
  0
LINE
  5
745
330
18
100
AcDbEntity
  8
Object
100
AcDbLine
 10
6.79
 20
15.41303296034573
 30
0.0
 11
6.783999999999999
 21
15.33603296034573
 31
0.0
  0
LINE
  5
746
330
18
100
AcDbEntity
  8
Object
100
AcDbLine
 10
6.783999999999999
 20
10.51503296034573
 30
0.0
 11
6.79
 21
10.43803296034573
 31
0.0
  0
LINE
  5
747
330
18
100
AcDbEntity
  8
Object
100
AcDbLine
 10
6.796
 20
15.47803296034573
 30
0.0
 11
6.79
 21
15.41303296034573
 31
0.0
  0
LINE
  5
748
330
18
100
AcDbEntity
  8
Object
100
AcDbLine
 10
6.79
 20
10.43803296034573
 30
0.0
 11
6.796
 21
10.37403296034573
 31
0.0
  0
LINE
  5
749
330
18
100
AcDbEntity
  8
Object
100
AcDbLine
 10
6.778999999999999
 20
15.24903296034573
 30
0.0
 11
6.775
 21
15.15303296034573
 31
0.0
  0
LINE
  5
74A
330
18
100
AcDbEntity
  8
Object
100
AcDbLine
 10
6.775
 20
15.15303296034573
 30
0.0
 11
6.772
 21
15.04903296034573
 31
0.0
  0
LINE
  5
74B
330
18
100
AcDbEntity
  8
Object
100
AcDbLine
 10
6.772
 20
15.04903296034573
 30
0.0
 11
6.769
 21
14.94203296034573
 31
0.0
  0
LINE
  5
74C
330
18
100
AcDbEntity
  8
Object
100
AcDbLine
 10
6.769
 20
14.94203296034573
 30
0.0
 11
6.767999999999999
 21
14.83303296034573
 31
0.0
  0
LINE
  5
74D
330
18
100
AcDbEntity
  8
Object
100
AcDbLine
 10
6.767999999999999
 20
14.83303296034573
 30
0.0
 11
6.767
 21
14.72503296034573
 31
0.0
  0
LINE
  5
74E
330
18
100
AcDbEntity
  8
Object
100
AcDbLine
 10
6.778999999999999
 20
10.60203296034573
 30
0.0
 11
6.775
 21
10.69903296034573
 31
0.0
  0
LINE
  5
74F
330
18
100
AcDbEntity
  8
Object
100
AcDbLine
 10
6.775
 20
10.69903296034573
 30
0.0
 11
6.772
 21
10.80203296034573
 31
0.0
  0
LINE
  5
750
330
18
100
AcDbEntity
  8
Object
100
AcDbLine
 10
6.772
 20
10.80203296034573
 30
0.0
 11
6.769
 21
10.90903296034573
 31
0.0
  0
LINE
  5
751
330
18
100
AcDbEntity
  8
Object
100
AcDbLine
 10
6.769
 20
10.90903296034573
 30
0.0
 11
6.767999999999999
 21
11.01803296034573
 31
0.0
  0
LINE
  5
752
330
18
100
AcDbEntity
  8
Object
100
AcDbLine
 10
6.758
 20
11.12703296034573
 30
0.0
 11
6.767
 21
11.12703296034573
 31
0.0
  0
LINE
  5
753
330
18
100
AcDbEntity
  8
Object
100
AcDbLine
 10
6.767
 20
11.12703296034573
 30
0.0
 11
6.767999999999999
 21
11.01803296034573
 31
0.0
  0
LINE
  5
754
330
18
100
AcDbEntity
  8
Object
100
AcDbLine
 10
6.758
 20
11.12703296034573
 30
0.0
 11
6.735999999999999
 21
11.12703296034573
 31
0.0
  0
LINE
  5
755
330
18
100
AcDbEntity
  8
Object
100
AcDbLine
 10
6.735999999999999
 20
11.12703296034573
 30
0.0
 11
6.703999999999999
 21
11.12703296034573
 31
0.0
  0
LINE
  5
756
330
18
100
AcDbEntity
  8
Object
100
AcDbLine
 10
6.703999999999999
 20
11.12703296034573
 30
0.0
 11
6.668
 21
11.12703296034573
 31
0.0
  0
LINE
  5
757
330
18
100
AcDbEntity
  8
Object
100
AcDbLine
 10
6.698999999999999
 20
10.26103296034573
 30
0.0
 11
4.046
 21
10.26103296034573
 31
0.0
  0
LINE
  5
758
330
18
100
AcDbEntity
  8
Object
100
AcDbLine
 10
4.046
 20
10.26103296034573
 30
0.0
 11
3.999
 21
10.26203296034573
 31
0.0
  0
LINE
  5
759
330
18
100
AcDbEntity
  8
Object
100
AcDbLine
 10
6.698999999999999
 20
10.26103296034573
 30
0.0
 11
6.695999999999999
 21
10.29403296034573
 31
0.0
  0
LINE
  5
75A
330
18
100
AcDbEntity
  8
Object
100
AcDbLine
 10
6.695999999999999
 20
10.29403296034573
 30
0.0
 11
6.692
 21
10.33103296034573
 31
0.0
  0
LINE
  5
75B
330
18
100
AcDbEntity
  8
Object
100
AcDbLine
 10
6.692
 20
10.33103296034573
 30
0.0
 11
6.689
 21
10.37203296034573
 31
0.0
  0
LINE
  5
75C
330
18
100
AcDbEntity
  8
Object
100
AcDbLine
 10
6.689
 20
10.37203296034573
 30
0.0
 11
6.685999999999999
 21
10.41603296034573
 31
0.0
  0
LINE
  5
75D
330
18
100
AcDbEntity
  8
Object
100
AcDbLine
 10
6.685999999999999
 20
10.41603296034573
 30
0.0
 11
6.682999999999999
 21
10.46403296034573
 31
0.0
  0
LINE
  5
75E
330
18
100
AcDbEntity
  8
Object
100
AcDbLine
 10
6.682999999999999
 20
10.46403296034573
 30
0.0
 11
6.681
 21
10.51603296034572
 31
0.0
  0
LINE
  5
75F
330
18
100
AcDbEntity
  8
Object
100
AcDbLine
 10
6.676
 20
10.62703296034573
 30
0.0
 11
6.677999999999999
 21
10.57003296034572
 31
0.0
  0
LINE
  5
760
330
18
100
AcDbEntity
  8
Object
100
AcDbLine
 10
6.677999999999999
 20
10.57003296034572
 30
0.0
 11
6.681
 21
10.51603296034572
 31
0.0
  0
LINE
  5
761
330
18
100
AcDbEntity
  8
Object
100
AcDbLine
 10
3.671
 20
11.12703296034573
 30
0.0
 11
6.668
 21
11.12703296034573
 31
0.0
  0
LINE
  5
762
330
18
100
AcDbEntity
  8
Object
100
AcDbLine
 10
6.668
 20
11.12703296034573
 30
0.0
 11
6.668
 21
11.06403296034573
 31
0.0
  0
LINE
  5
763
330
18
100
AcDbEntity
  8
Object
100
AcDbLine
 10
6.668
 20
11.06403296034573
 30
0.0
 11
6.668
 21
11.00003296034572
 31
0.0
  0
LINE
  5
764
330
18
100
AcDbEntity
  8
Object
100
AcDbLine
 10
3.671
 20
10.87703296034573
 30
0.0
 11
3.671
 21
10.75703296034573
 31
0.0
  0
LINE
  5
765
330
18
100
AcDbEntity
  8
Object
100
AcDbLine
 10
3.671
 20
11.12703296034573
 30
0.0
 11
3.671
 21
11.00103296034573
 31
0.0
  0
LINE
  5
766
330
18
100
AcDbEntity
  8
Object
100
AcDbLine
 10
6.669
 20
10.93603296034572
 30
0.0
 11
6.668
 21
11.00003296034572
 31
0.0
  0
LINE
  5
767
330
18
100
AcDbEntity
  8
Object
100
AcDbLine
 10
3.671
 20
11.00103296034573
 30
0.0
 11
3.671
 21
10.87703296034573
 31
0.0
  0
LINE
  5
768
330
18
100
AcDbEntity
  8
Object
100
AcDbLine
 10
6.669
 20
10.93603296034572
 30
0.0
 11
6.669999999999999
 21
10.87203296034573
 31
0.0
  0
LINE
  5
769
330
18
100
AcDbEntity
  8
Object
100
AcDbLine
 10
6.669999999999999
 20
10.87203296034573
 30
0.0
 11
6.671
 21
10.80903296034573
 31
0.0
  0
LINE
  5
76A
330
18
100
AcDbEntity
  8
Object
100
AcDbLine
 10
6.671
 20
10.80903296034573
 30
0.0
 11
6.671999999999999
 21
10.74703296034573
 31
0.0
  0
LINE
  5
76B
330
18
100
AcDbEntity
  8
Object
100
AcDbLine
 10
6.671999999999999
 20
10.74703296034573
 30
0.0
 11
6.674
 21
10.68603296034573
 31
0.0
  0
LINE
  5
76C
330
18
100
AcDbEntity
  8
Object
100
AcDbLine
 10
3.671
 20
10.75703296034573
 30
0.0
 11
3.671
 21
10.64203296034573
 31
0.0
  0
LINE
  5
76D
330
18
100
AcDbEntity
  8
Object
100
AcDbLine
 10
6.676
 20
10.62703296034573
 30
0.0
 11
6.674
 21
10.68603296034573
 31
0.0
  0
LINE
  5
76E
330
18
100
AcDbEntity
  8
Object
100
AcDbLine
 10
6.698999999999999
 20
15.59103296034573
 30
0.0
 11
4.046
 21
15.59103296034573
 31
0.0
  0
LINE
  5
76F
330
18
100
AcDbEntity
  8
Object
100
AcDbLine
 10
4.046
 20
15.59103296034573
 30
0.0
 11
4.0
 21
15.58903296034572
 31
0.0
  0
LINE
  5
770
330
18
100
AcDbEntity
  8
Object
100
AcDbLine
 10
6.698999999999999
 20
15.59103296034573
 30
0.0
 11
6.695999999999999
 21
15.55803296034573
 31
0.0
  0
LINE
  5
771
330
18
100
AcDbEntity
  8
Object
100
AcDbLine
 10
6.695999999999999
 20
15.55803296034573
 30
0.0
 11
6.692
 21
15.52003296034573
 31
0.0
  0
LINE
  5
772
330
18
100
AcDbEntity
  8
Object
100
AcDbLine
 10
6.692
 20
15.52003296034573
 30
0.0
 11
6.689
 21
15.48003296034573
 31
0.0
  0
LINE
  5
773
330
18
100
AcDbEntity
  8
Object
100
AcDbLine
 10
6.689
 20
15.48003296034573
 30
0.0
 11
6.685999999999999
 21
15.43503296034573
 31
0.0
  0
LINE
  5
774
330
18
100
AcDbEntity
  8
Object
100
AcDbLine
 10
6.685999999999999
 20
15.43503296034573
 30
0.0
 11
6.682999999999999
 21
15.38703296034572
 31
0.0
  0
LINE
  5
775
330
18
100
AcDbEntity
  8
Object
100
AcDbLine
 10
6.682999999999999
 20
15.38703296034572
 30
0.0
 11
6.681
 21
15.33603296034573
 31
0.0
  0
LINE
  5
776
330
18
100
AcDbEntity
  8
Object
100
AcDbLine
 10
6.681
 20
15.33603296034573
 30
0.0
 11
6.677999999999999
 21
15.28203296034573
 31
0.0
  0
LINE
  5
777
330
18
100
AcDbEntity
  8
Object
100
AcDbLine
 10
6.677999999999999
 20
15.28203296034573
 30
0.0
 11
6.676
 21
15.22503296034573
 31
0.0
  0
LINE
  5
778
330
18
100
AcDbEntity
  8
Object
100
AcDbLine
 10
6.671999999999999
 20
15.10503296034572
 30
0.0
 11
6.674
 21
15.16603296034572
 31
0.0
  0
LINE
  5
779
330
18
100
AcDbEntity
  8
Object
100
AcDbLine
 10
3.671
 20
15.20903296034573
 30
0.0
 11
3.671
 21
15.09503296034573
 31
0.0
  0
LINE
  5
77A
330
18
100
AcDbEntity
  8
Object
100
AcDbLine
 10
6.674
 20
15.16603296034572
 30
0.0
 11
6.676
 21
15.22503296034573
 31
0.0
  0
LINE
  5
77B
330
18
100
AcDbEntity
  8
Object
100
AcDbLine
 10
6.671
 20
15.04203296034573
 30
0.0
 11
6.671999999999999
 21
15.10503296034572
 31
0.0
  0
LINE
  5
77C
330
18
100
AcDbEntity
  8
Object
100
AcDbLine
 10
6.668
 20
14.85103296034573
 30
0.0
 11
6.669
 21
14.91503296034573
 31
0.0
  0
LINE
  5
77D
330
18
100
AcDbEntity
  8
Object
100
AcDbLine
 10
3.671
 20
14.85103296034573
 30
0.0
 11
3.671
 21
14.97503296034573
 31
0.0
  0
LINE
  5
77E
330
18
100
AcDbEntity
  8
Object
100
AcDbLine
 10
3.671
 20
14.97503296034573
 30
0.0
 11
3.671
 21
15.09503296034573
 31
0.0
  0
LINE
  5
77F
330
18
100
AcDbEntity
  8
Object
100
AcDbLine
 10
6.671
 20
15.04203296034573
 30
0.0
 11
6.669999999999999
 21
14.97903296034573
 31
0.0
  0
LINE
  5
780
330
18
100
AcDbEntity
  8
Object
100
AcDbLine
 10
6.669999999999999
 20
14.97903296034573
 30
0.0
 11
6.669
 21
14.91503296034573
 31
0.0
  0
LINE
  5
781
330
18
100
AcDbEntity
  8
Object
100
AcDbLine
 10
6.668
 20
14.78803296034573
 30
0.0
 11
6.668
 21
14.85103296034573
 31
0.0
  0
LINE
  5
782
330
18
100
AcDbEntity
  8
Object
100
AcDbLine
 10
3.671
 20
14.85103296034573
 30
0.0
 11
3.671
 21
14.72503296034573
 31
0.0
  0
LINE
  5
783
330
18
100
AcDbEntity
  8
Object
100
AcDbLine
 10
6.668
 20
14.72503296034573
 30
0.0
 11
6.668
 21
14.78803296034573
 31
0.0
  0
LINE
  5
784
330
18
100
AcDbEntity
  8
Object
100
AcDbLine
 10
3.676
 20
11.19003296034573
 30
0.0
 11
3.676
 21
14.66203296034573
 31
0.0
  0
LINE
  5
785
330
18
100
AcDbEntity
  8
Object
100
AcDbLine
 10
3.671
 20
14.66203296034573
 30
0.0
 11
3.671
 21
11.19003296034573
 31
0.0
  0
LINE
  5
786
330
18
100
AcDbEntity
  8
Object
100
AcDbLine
 10
6.668
 20
11.12703296034573
 30
0.0
 11
6.668
 21
14.72503296034573
 31
0.0
  0
LINE
  5
787
330
18
100
AcDbEntity
  8
Object
100
AcDbLine
 10
6.471
 20
12.14003296034573
 30
0.0
 11
6.421999999999999
 21
12.00103296034573
 31
0.0
  0
LINE
  5
788
330
18
100
AcDbEntity
  8
Object
100
AcDbLine
 10
6.392
 20
11.93203296034573
 30
0.0
 11
6.358
 21
11.86303296034573
 31
0.0
  0
LINE
  5
789
330
18
100
AcDbEntity
  8
Object
100
AcDbLine
 10
6.277
 20
14.12203296034573
 30
0.0
 11
6.32
 21
14.05603296034573
 31
0.0
  0
LINE
  5
78A
330
18
100
AcDbEntity
  8
Object
100
AcDbLine
 10
6.32
 20
11.79503296034573
 30
0.0
 11
6.277
 21
11.72903296034573
 31
0.0
  0
LINE
  5
78B
330
18
100
AcDbEntity
  8
Object
100
AcDbLine
 10
6.230999999999999
 20
11.66503296034573
 30
0.0
 11
6.179
 21
11.60203296034572
 31
0.0
  0
LINE
  5
78C
330
18
100
AcDbEntity
  8
Object
100
AcDbLine
 10
6.124
 20
11.54303296034573
 30
0.0
 11
6.065
 21
11.48603296034573
 31
0.0
  0
LINE
  5
78D
330
18
100
AcDbEntity
  8
Object
100
AcDbLine
 10
6.001999999999999
 20
14.41803296034573
 30
0.0
 11
6.065
 21
14.36503296034573
 31
0.0
  0
LINE
  5
78E
330
18
100
AcDbEntity
  8
Object
100
AcDbLine
 10
6.001999999999999
 20
11.43303296034573
 30
0.0
 11
5.934
 21
11.38403296034573
 31
0.0
  0
LINE
  5
78F
330
18
100
AcDbEntity
  8
Object
100
AcDbLine
 10
5.863
 20
11.33903296034572
 30
0.0
 11
5.788999999999999
 21
11.29903296034573
 31
0.0
  0
LINE
  5
790
330
18
100
AcDbEntity
  8
Object
100
AcDbLine
 10
5.711
 20
14.58703296034573
 30
0.0
 11
5.788999999999999
 21
14.55203296034573
 31
0.0
  0
LINE
  5
791
330
18
100
AcDbEntity
  8
Object
100
AcDbLine
 10
5.711
 20
11.26503296034573
 30
0.0
 11
5.631999999999999
 21
11.23603296034572
 31
0.0
  0
LINE
  5
792
330
18
100
AcDbEntity
  8
Object
100
AcDbLine
 10
5.631999999999999
 20
14.61603296034573
 30
0.0
 11
5.549999999999999
 21
14.63903296034573
 31
0.0
  0
LINE
  5
793
330
18
100
AcDbEntity
  8
Object
100
AcDbLine
 10
5.549999999999999
 20
14.63903296034573
 30
0.0
 11
5.466
 21
14.65603296034573
 31
0.0
  0
LINE
  5
794
330
18
100
AcDbEntity
  8
Object
100
AcDbLine
 10
5.549999999999999
 20
11.21203296034573
 30
0.0
 11
5.466
 21
11.19503296034572
 31
0.0
  0
LINE
  5
795
330
18
100
AcDbEntity
  8
Object
100
AcDbLine
 10
5.466
 20
14.65603296034573
 30
0.0
 11
5.381
 21
14.66603296034573
 31
0.0
  0
LINE
  5
796
330
18
100
AcDbEntity
  8
Object
100
AcDbLine
 10
5.381
 20
14.66603296034573
 30
0.0
 11
5.296
 21
14.67003296034573
 31
0.0
  0
LINE
  5
797
330
18
100
AcDbEntity
  8
Object
100
AcDbLine
 10
5.381
 20
11.18503296034573
 30
0.0
 11
5.296
 21
11.18103296034573
 31
0.0
  0
LINE
  5
798
330
18
100
AcDbEntity
  8
Object
100
AcDbLine
 10
4.527
 20
14.36503296034573
 30
0.0
 11
4.467
 21
14.30903296034573
 31
0.0
  0
LINE
  5
799
330
18
100
AcDbEntity
  8
Object
100
AcDbLine
 10
4.467
 20
14.30903296034573
 30
0.0
 11
4.411999999999999
 21
14.24903296034573
 31
0.0
  0
LINE
  5
79A
330
18
100
AcDbEntity
  8
Object
100
AcDbLine
 10
4.411999999999999
 20
14.24903296034573
 30
0.0
 11
4.360999999999999
 21
14.18703296034573
 31
0.0
  0
LINE
  5
79B
330
18
100
AcDbEntity
  8
Object
100
AcDbLine
 10
4.360999999999999
 20
14.18703296034573
 30
0.0
 11
4.314
 21
14.12203296034573
 31
0.0
  0
LINE
  5
79C
330
18
100
AcDbEntity
  8
Object
100
AcDbLine
 10
4.314
 20
14.12203296034573
 30
0.0
 11
4.272
 21
14.05603296034573
 31
0.0
  0
LINE
  5
79D
330
18
100
AcDbEntity
  8
Object
100
AcDbLine
 10
4.272
 20
14.05603296034573
 30
0.0
 11
4.232999999999999
 21
13.98803296034573
 31
0.0
  0
LINE
  5
79E
330
18
100
AcDbEntity
  8
Object
100
AcDbLine
 10
4.232999999999999
 20
13.98803296034573
 30
0.0
 11
4.198999999999999
 21
13.92003296034573
 31
0.0
  0
LINE
  5
79F
330
18
100
AcDbEntity
  8
Object
100
AcDbLine
 10
4.198999999999999
 20
13.92003296034573
 30
0.0
 11
4.169
 21
13.85103296034573
 31
0.0
  0
LINE
  5
7A0
330
18
100
AcDbEntity
  8
Object
100
AcDbLine
 10
4.169
 20
13.85103296034573
 30
0.0
 11
4.12
 21
13.71203296034573
 31
0.0
  0
LINE
  5
7A1
330
18
100
AcDbEntity
  8
Object
100
AcDbLine
 10
4.12
 20
13.71203296034573
 30
0.0
 11
4.084999999999999
 21
13.57303296034573
 31
0.0
  0
LINE
  5
7A2
330
18
100
AcDbEntity
  8
Object
100
AcDbLine
 10
4.084999999999999
 20
13.57303296034573
 30
0.0
 11
4.060999999999999
 21
13.43703296034573
 31
0.0
  0
LINE
  5
7A3
330
18
100
AcDbEntity
  8
Object
100
AcDbLine
 10
4.060999999999999
 20
13.43703296034573
 30
0.0
 11
4.046
 21
13.30503296034573
 31
0.0
  0
LINE
  5
7A4
330
18
100
AcDbEntity
  8
Object
100
AcDbLine
 10
4.046
 20
13.30503296034573
 30
0.0
 11
4.038
 21
13.17603296034573
 31
0.0
  0
LINE
  5
7A5
330
18
100
AcDbEntity
  8
Object
100
AcDbLine
 10
4.038
 20
13.17603296034573
 30
0.0
 11
4.033999999999999
 21
12.92603296034573
 31
0.0
  0
LINE
  5
7A6
330
18
100
AcDbEntity
  8
Object
100
AcDbLine
 10
4.033999999999999
 20
12.92603296034573
 30
0.0
 11
4.038
 21
12.67503296034573
 31
0.0
  0
LINE
  5
7A7
330
18
100
AcDbEntity
  8
Object
100
AcDbLine
 10
4.038
 20
12.67503296034573
 30
0.0
 11
4.046
 21
12.54603296034573
 31
0.0
  0
LINE
  5
7A8
330
18
100
AcDbEntity
  8
Object
100
AcDbLine
 10
4.046
 20
12.54603296034573
 30
0.0
 11
4.060999999999999
 21
12.41403296034573
 31
0.0
  0
LINE
  5
7A9
330
18
100
AcDbEntity
  8
Object
100
AcDbLine
 10
4.060999999999999
 20
12.41403296034573
 30
0.0
 11
4.084999999999999
 21
12.27803296034573
 31
0.0
  0
LINE
  5
7AA
330
18
100
AcDbEntity
  8
Object
100
AcDbLine
 10
4.084999999999999
 20
12.27803296034573
 30
0.0
 11
4.12
 21
12.14003296034573
 31
0.0
  0
LINE
  5
7AB
330
18
100
AcDbEntity
  8
Object
100
AcDbLine
 10
4.12
 20
12.14003296034573
 30
0.0
 11
4.169
 21
12.00103296034573
 31
0.0
  0
LINE
  5
7AC
330
18
100
AcDbEntity
  8
Object
100
AcDbLine
 10
4.169
 20
12.00103296034573
 30
0.0
 11
4.198999999999999
 21
11.93203296034573
 31
0.0
  0
LINE
  5
7AD
330
18
100
AcDbEntity
  8
Object
100
AcDbLine
 10
4.198999999999999
 20
11.93203296034573
 30
0.0
 11
4.232999999999999
 21
11.86303296034573
 31
0.0
  0
LINE
  5
7AE
330
18
100
AcDbEntity
  8
Object
100
AcDbLine
 10
4.232999999999999
 20
11.86303296034573
 30
0.0
 11
4.272
 21
11.79503296034573
 31
0.0
  0
LINE
  5
7AF
330
18
100
AcDbEntity
  8
Object
100
AcDbLine
 10
4.272
 20
11.79503296034573
 30
0.0
 11
4.314
 21
11.72903296034573
 31
0.0
  0
LINE
  5
7B0
330
18
100
AcDbEntity
  8
Object
100
AcDbLine
 10
4.314
 20
11.72903296034573
 30
0.0
 11
4.360999999999999
 21
11.66503296034573
 31
0.0
  0
LINE
  5
7B1
330
18
100
AcDbEntity
  8
Object
100
AcDbLine
 10
4.360999999999999
 20
11.66503296034573
 30
0.0
 11
4.411999999999999
 21
11.60203296034572
 31
0.0
  0
LINE
  5
7B2
330
18
100
AcDbEntity
  8
Object
100
AcDbLine
 10
4.411999999999999
 20
11.60203296034572
 30
0.0
 11
4.467
 21
11.54303296034573
 31
0.0
  0
LINE
  5
7B3
330
18
100
AcDbEntity
  8
Object
100
AcDbLine
 10
4.467
 20
11.54303296034573
 30
0.0
 11
4.527
 21
11.48603296034573
 31
0.0
  0
LINE
  5
7B4
330
18
100
AcDbEntity
  8
Object
100
AcDbLine
 10
5.296
 20
14.67003296034573
 30
0.0
 11
5.209999999999999
 21
14.66603296034573
 31
0.0
  0
LINE
  5
7B5
330
18
100
AcDbEntity
  8
Object
100
AcDbLine
 10
5.209999999999999
 20
14.66603296034573
 30
0.0
 11
5.126
 21
14.65603296034573
 31
0.0
  0
LINE
  5
7B6
330
18
100
AcDbEntity
  8
Object
100
AcDbLine
 10
5.126
 20
14.65603296034573
 30
0.0
 11
5.041999999999999
 21
14.63903296034573
 31
0.0
  0
LINE
  5
7B7
330
18
100
AcDbEntity
  8
Object
100
AcDbLine
 10
5.041999999999999
 20
14.63903296034573
 30
0.0
 11
4.959999999999999
 21
14.61603296034573
 31
0.0
  0
LINE
  5
7B8
330
18
100
AcDbEntity
  8
Object
100
AcDbLine
 10
4.959999999999999
 20
14.61603296034573
 30
0.0
 11
4.879999999999999
 21
14.58703296034573
 31
0.0
  0
LINE
  5
7B9
330
18
100
AcDbEntity
  8
Object
100
AcDbLine
 10
4.879999999999999
 20
14.58703296034573
 30
0.0
 11
4.802999999999999
 21
14.55203296034573
 31
0.0
  0
LINE
  5
7BA
330
18
100
AcDbEntity
  8
Object
100
AcDbLine
 10
4.802999999999999
 20
14.55203296034573
 30
0.0
 11
4.727999999999999
 21
14.51203296034573
 31
0.0
  0
LINE
  5
7BB
330
18
100
AcDbEntity
  8
Object
100
AcDbLine
 10
4.727999999999999
 20
14.51203296034573
 30
0.0
 11
4.657
 21
14.46703296034573
 31
0.0
  0
LINE
  5
7BC
330
18
100
AcDbEntity
  8
Object
100
AcDbLine
 10
6.668
 20
14.72503296034573
 30
0.0
 11
3.671
 21
14.72503296034573
 31
0.0
  0
LINE
  5
7BD
330
18
100
AcDbEntity
  8
Object
100
AcDbLine
 10
3.676
 20
14.66203296034573
 30
0.0
 11
3.671
 21
14.66203296034573
 31
0.0
  0
LINE
  5
7BE
330
18
100
AcDbEntity
  8
Object
100
AcDbLine
 10
3.671
 20
14.66203296034573
 30
0.0
 11
3.671
 21
14.72503296034573
 31
0.0
  0
LINE
  5
7BF
330
18
100
AcDbEntity
  8
Object
100
AcDbLine
 10
4.657
 20
14.46703296034573
 30
0.0
 11
4.589999999999999
 21
14.41803296034573
 31
0.0
  0
LINE
  5
7C0
330
18
100
AcDbEntity
  8
Object
100
AcDbLine
 10
4.589999999999999
 20
14.41803296034573
 30
0.0
 11
4.527
 21
14.36503296034573
 31
0.0
  0
LINE
  5
7C1
330
18
100
AcDbEntity
  8
Object
100
AcDbLine
 10
4.527
 20
11.48603296034573
 30
0.0
 11
4.589999999999999
 21
11.43303296034573
 31
0.0
  0
LINE
  5
7C2
330
18
100
AcDbEntity
  8
Object
100
AcDbLine
 10
4.589999999999999
 20
11.43303296034573
 30
0.0
 11
4.657
 21
11.38403296034573
 31
0.0
  0
LINE
  5
7C3
330
18
100
AcDbEntity
  8
Object
100
AcDbLine
 10
4.657
 20
11.38403296034573
 30
0.0
 11
4.727999999999999
 21
11.33903296034572
 31
0.0
  0
LINE
  5
7C4
330
18
100
AcDbEntity
  8
Object
100
AcDbLine
 10
4.727999999999999
 20
11.33903296034572
 30
0.0
 11
4.802999999999999
 21
11.29903296034573
 31
0.0
  0
LINE
  5
7C5
330
18
100
AcDbEntity
  8
Object
100
AcDbLine
 10
4.802999999999999
 20
11.29903296034573
 30
0.0
 11
4.879999999999999
 21
11.26503296034573
 31
0.0
  0
LINE
  5
7C6
330
18
100
AcDbEntity
  8
Object
100
AcDbLine
 10
4.879999999999999
 20
11.26503296034573
 30
0.0
 11
4.959999999999999
 21
11.23603296034572
 31
0.0
  0
LINE
  5
7C7
330
18
100
AcDbEntity
  8
Object
100
AcDbLine
 10
4.959999999999999
 20
11.23603296034572
 30
0.0
 11
5.041999999999999
 21
11.21203296034573
 31
0.0
  0
LINE
  5
7C8
330
18
100
AcDbEntity
  8
Object
100
AcDbLine
 10
5.041999999999999
 20
11.21203296034573
 30
0.0
 11
5.126
 21
11.19503296034572
 31
0.0
  0
LINE
  5
7C9
330
18
100
AcDbEntity
  8
Object
100
AcDbLine
 10
5.126
 20
11.19503296034572
 30
0.0
 11
5.209999999999999
 21
11.18503296034573
 31
0.0
  0
LINE
  5
7CA
330
18
100
AcDbEntity
  8
Object
100
AcDbLine
 10
5.209999999999999
 20
11.18503296034573
 30
0.0
 11
5.296
 21
11.18103296034573
 31
0.0
  0
LINE
  5
7CB
330
18
100
AcDbEntity
  8
Object
100
AcDbLine
 10
3.671
 20
11.12703296034573
 30
0.0
 11
3.671
 21
11.19003296034573
 31
0.0
  0
LINE
  5
7CC
330
18
100
AcDbEntity
  8
Object
100
AcDbLine
 10
3.671
 20
11.19003296034573
 30
0.0
 11
3.676
 21
11.19003296034573
 31
0.0
  0
LINE
  5
7CD
330
18
100
AcDbEntity
  8
Object
100
AcDbLine
 10
3.671
 20
14.66203296034573
 30
0.0
 11
3.676
 21
14.66203296034573
 31
0.0
  0
LINE
  5
7CE
330
18
100
AcDbEntity
  8
Object
100
AcDbLine
 10
3.676
 20
11.19003296034573
 30
0.0
 11
3.671
 21
11.19003296034573
 31
0.0
  0
LINE
  5
7CF
330
18
100
AcDbEntity
  8
Object
100
AcDbLine
 10
5.907
 20
11.88403296034572
 30
0.0
 11
5.876999999999999
 21
11.86703296034573
 31
0.0
  0
LINE
  5
7D0
330
18
100
AcDbEntity
  8
Object
100
AcDbLine
 10
5.876999999999999
 20
11.86703296034573
 30
0.0
 11
5.844
 21
11.85003296034573
 31
0.0
  0
LINE
  5
7D1
330
18
100
AcDbEntity
  8
Object
100
AcDbLine
 10
5.674999999999999
 20
11.77903296034573
 30
0.0
 11
5.673
 21
11.78303296034573
 31
0.0
  0
LINE
  5
7D2
330
18
100
AcDbEntity
  8
Object
100
AcDbLine
 10
5.541
 20
12.03603296034573
 30
0.0
 11
5.552
 21
12.01203296034573
 31
0.0
  0
LINE
  5
7D3
330
18
100
AcDbEntity
  8
Object
100
AcDbLine
 10
5.552
 20
12.01203296034573
 30
0.0
 11
5.565999999999999
 21
11.98603296034573
 31
0.0
  0
LINE
  5
7D4
330
18
100
AcDbEntity
  8
Object
100
AcDbLine
 10
5.522
 20
12.07603296034573
 30
0.0
 11
5.514
 21
12.09803296034573
 31
0.0
  0
LINE
  5
7D5
330
18
100
AcDbEntity
  8
Object
100
AcDbLine
 10
5.514
 20
12.09803296034573
 30
0.0
 11
5.512
 21
12.10803296034573
 31
0.0
  0
LINE
  5
7D6
330
18
100
AcDbEntity
  8
Object
100
AcDbLine
 10
4.089
 20
12.87503296034573
 30
0.0
 11
4.088
 21
12.92603296034573
 31
0.0
  0
LINE
  5
7D7
330
18
100
AcDbEntity
  8
Object
100
AcDbLine
 10
5.964
 20
13.93103296034573
 30
0.0
 11
5.923
 21
13.95803296034572
 31
0.0
  0
LINE
  5
7D8
330
18
100
AcDbEntity
  8
Object
100
AcDbLine
 10
5.923
 20
13.95803296034572
 30
0.0
 11
5.899
 21
13.97103296034573
 31
0.0
  0
LINE
  5
7D9
330
18
100
AcDbEntity
  8
Object
100
AcDbLine
 10
5.858
 20
13.99003296034573
 30
0.0
 11
5.858999999999999
 21
13.99303296034573
 31
0.0
  0
LINE
  5
7DA
330
18
100
AcDbEntity
  8
Object
100
AcDbLine
 10
5.541
 20
13.81503296034573
 30
0.0
 11
5.552
 21
13.83903296034573
 31
0.0
  0
LINE
  5
7DB
330
18
100
AcDbEntity
  8
Object
100
AcDbLine
 10
5.512
 20
13.74303296034573
 30
0.0
 11
5.514
 21
13.75303296034573
 31
0.0
  0
LINE
  5
7DC
330
18
100
AcDbEntity
  8
Object
100
AcDbLine
 10
4.102999999999999
 20
13.11103296034573
 30
0.0
 11
4.094
 21
13.05103296034572
 31
0.0
  0
LINE
  5
7DD
330
18
100
AcDbEntity
  8
Object
100
AcDbLine
 10
4.094
 20
13.05103296034572
 30
0.0
 11
4.088
 21
12.92603296034573
 31
0.0
  0
LINE
  5
7DE
330
18
100
AcDbEntity
  8
Object
100
AcDbLine
 10
6.758
 20
14.72503296034573
 30
0.0
 11
6.767
 21
14.72503296034573
 31
0.0
  0
LINE
  5
7DF
330
18
100
AcDbEntity
  8
Object
100
AcDbLine
 10
6.767
 20
14.72503296034573
 30
0.0
 11
6.767
 21
11.12703296034573
 31
0.0
  0
LINE
  5
7E0
330
18
100
AcDbEntity
  8
Object
100
AcDbLine
 10
6.758
 20
14.72503296034573
 30
0.0
 11
6.735999999999999
 21
14.72503296034573
 31
0.0
  0
LINE
  5
7E1
330
18
100
AcDbEntity
  8
Object
100
AcDbLine
 10
6.735999999999999
 20
14.72503296034573
 30
0.0
 11
6.703999999999999
 21
14.72503296034573
 31
0.0
  0
LINE
  5
7E2
330
18
100
AcDbEntity
  8
Object
100
AcDbLine
 10
6.703999999999999
 20
14.72503296034573
 30
0.0
 11
6.668
 21
14.72503296034573
 31
0.0
  0
LINE
  5
7E3
330
18
100
AcDbEntity
  8
Object
100
AcDbLine
 10
6.557
 20
12.92603296034573
 30
0.0
 11
6.552999999999999
 21
12.67503296034573
 31
0.0
  0
LINE
  5
7E4
330
18
100
AcDbEntity
  8
Object
100
AcDbLine
 10
6.552999999999999
 20
12.67503296034573
 30
0.0
 11
6.546
 21
12.54603296034573
 31
0.0
  0
LINE
  5
7E5
330
18
100
AcDbEntity
  8
Object
100
AcDbLine
 10
6.546
 20
12.54603296034573
 30
0.0
 11
6.530999999999999
 21
12.41403296034573
 31
0.0
  0
LINE
  5
7E6
330
18
100
AcDbEntity
  8
Object
100
AcDbLine
 10
6.530999999999999
 20
12.41403296034573
 30
0.0
 11
6.507
 21
12.27803296034573
 31
0.0
  0
LINE
  5
7E7
330
18
100
AcDbEntity
  8
Object
100
AcDbLine
 10
6.512999999999999
 20
12.92603296034573
 30
0.0
 11
6.467999999999999
 21
12.92603296034573
 31
0.0
  0
LINE
  5
7E8
330
18
100
AcDbEntity
  8
Object
100
AcDbLine
 10
6.471
 20
12.14003296034573
 30
0.0
 11
6.507
 21
12.27803296034573
 31
0.0
  0
LINE
  5
7E9
330
18
100
AcDbEntity
  8
Object
100
AcDbLine
 10
6.467999999999999
 20
12.92603296034573
 30
0.0
 11
6.421999999999999
 21
12.92603296034573
 31
0.0
  0
LINE
  5
7EA
330
18
100
AcDbEntity
  8
Object
100
AcDbLine
 10
6.421999999999999
 20
12.92603296034573
 30
0.0
 11
6.376999999999999
 21
12.92603296034573
 31
0.0
  0
LINE
  5
7EB
330
18
100
AcDbEntity
  8
Object
100
AcDbLine
 10
6.392
 20
11.93203296034573
 30
0.0
 11
6.421999999999999
 21
12.00103296034573
 31
0.0
  0
LINE
  5
7EC
330
18
100
AcDbEntity
  8
Object
100
AcDbLine
 10
6.376999999999999
 20
12.92603296034573
 30
0.0
 11
6.331999999999999
 21
12.92603296034573
 31
0.0
  0
LINE
  5
7ED
330
18
100
AcDbEntity
  8
Object
100
AcDbLine
 10
6.32
 20
11.79503296034573
 30
0.0
 11
6.358
 21
11.86303296034573
 31
0.0
  0
LINE
  5
7EE
330
18
100
AcDbEntity
  8
Object
100
AcDbLine
 10
6.288999999999999
 20
12.92603296034573
 30
0.0
 11
6.248
 21
12.92603296034573
 31
0.0
  0
LINE
  5
7EF
330
18
100
AcDbEntity
  8
Object
100
AcDbLine
 10
6.230999999999999
 20
11.66503296034573
 30
0.0
 11
6.277
 21
11.72903296034573
 31
0.0
  0
LINE
  5
7F0
330
18
100
AcDbEntity
  8
Object
100
AcDbLine
 10
6.248
 20
12.92603296034573
 30
0.0
 11
6.209999999999999
 21
12.92603296034573
 31
0.0
  0
LINE
  5
7F1
330
18
100
AcDbEntity
  8
Object
100
AcDbLine
 10
6.209999999999999
 20
12.92603296034573
 30
0.0
 11
6.174999999999999
 21
12.92603296034573
 31
0.0
  0
LINE
  5
7F2
330
18
100
AcDbEntity
  8
Object
100
AcDbLine
 10
6.174999999999999
 20
12.92603296034573
 30
0.0
 11
6.145
 21
12.92603296034573
 31
0.0
  0
LINE
  5
7F3
330
18
100
AcDbEntity
  8
Object
100
AcDbLine
 10
6.145
 20
12.92603296034573
 30
0.0
 11
6.118999999999999
 21
12.92603296034573
 31
0.0
  0
LINE
  5
7F4
330
18
100
AcDbEntity
  8
Object
100
AcDbLine
 10
6.118999999999999
 20
12.92603296034573
 30
0.0
 11
6.097
 21
12.92603296034573
 31
0.0
  0
LINE
  5
7F5
330
18
100
AcDbEntity
  8
Object
100
AcDbLine
 10
6.124
 20
11.54303296034573
 30
0.0
 11
6.179
 21
11.60203296034572
 31
0.0
  0
LINE
  5
7F6
330
18
100
AcDbEntity
  8
Object
100
AcDbLine
 10
6.097
 20
12.92603296034573
 30
0.0
 11
6.081
 21
12.92603296034573
 31
0.0
  0
LINE
  5
7F7
330
18
100
AcDbEntity
  8
Object
100
AcDbLine
 10
6.068999999999999
 20
12.92603296034573
 30
0.0
 11
6.060999999999999
 21
12.92603296034573
 31
0.0
  0
LINE
  5
7F8
330
18
100
AcDbEntity
  8
Object
100
AcDbLine
 10
6.060999999999999
 20
12.92603296034573
 30
0.0
 11
6.057
 21
12.92603296034573
 31
0.0
  0
LINE
  5
7F9
330
18
100
AcDbEntity
  8
Object
100
AcDbLine
 10
6.057
 20
12.10703296034573
 30
0.0
 11
6.03
 21
12.15103296034573
 31
0.0
  0
LINE
  5
7FA
330
18
100
AcDbEntity
  8
Object
100
AcDbLine
 10
6.03
 20
12.15103296034573
 30
0.0
 11
6.004
 21
12.19303296034573
 31
0.0
  0
LINE
  5
7FB
330
18
100
AcDbEntity
  8
Object
100
AcDbLine
 10
6.004
 20
12.19303296034573
 30
0.0
 11
5.98
 21
12.23303296034573
 31
0.0
  0
LINE
  5
7FC
330
18
100
AcDbEntity
  8
Object
100
AcDbLine
 10
6.057
 20
12.10703296034573
 30
0.0
 11
5.979
 21
12.04203296034573
 31
0.0
  0
LINE
  5
7FD
330
18
100
AcDbEntity
  8
Object
100
AcDbLine
 10
6.001999999999999
 20
11.43303296034573
 30
0.0
 11
6.065
 21
11.48603296034573
 31
0.0
  0
LINE
  5
7FE
330
18
100
AcDbEntity
  8
Object
100
AcDbLine
 10
5.98
 20
12.23303296034573
 30
0.0
 11
5.956999999999999
 21
12.26903296034573
 31
0.0
  0
LINE
  5
7FF
330
18
100
AcDbEntity
  8
Object
100
AcDbLine
 10
5.956999999999999
 20
12.26903296034573
 30
0.0
 11
5.935999999999999
 21
12.30303296034573
 31
0.0
  0
LINE
  5
800
330
18
100
AcDbEntity
  8
Object
100
AcDbLine
 10
5.935999999999999
 20
12.30303296034573
 30
0.0
 11
5.916999999999999
 21
12.33303296034573
 31
0.0
  0
LINE
  5
801
330
18
100
AcDbEntity
  8
Object
100
AcDbLine
 10
5.916999999999999
 20
12.33303296034573
 30
0.0
 11
5.9
 21
12.35903296034573
 31
0.0
  0
LINE
  5
802
330
18
100
AcDbEntity
  8
Object
100
AcDbLine
 10
5.943
 20
11.90603296034573
 30
0.0
 11
5.895999999999999
 21
11.98403296034572
 31
0.0
  0
LINE
  5
803
330
18
100
AcDbEntity
  8
Object
100
AcDbLine
 10
5.895999999999999
 20
11.98403296034572
 30
0.0
 11
5.979
 21
12.04203296034573
 31
0.0
  0
LINE
  5
804
330
18
100
AcDbEntity
  8
Object
100
AcDbLine
 10
5.884999999999999
 20
12.38003296034573
 30
0.0
 11
5.9
 21
12.35903296034573
 31
0.0
  0
LINE
  5
805
330
18
100
AcDbEntity
  8
Object
100
AcDbLine
 10
5.924999999999999
 20
12.50603296034572
 30
0.0
 11
5.879
 21
12.44703296034573
 31
0.0
  0
LINE
  5
806
330
18
100
AcDbEntity
  8
Object
100
AcDbLine
 10
5.943
 20
11.90603296034573
 30
0.0
 11
5.878
 21
11.86703296034573
 31
0.0
  0
LINE
  5
807
330
18
100
AcDbEntity
  8
Object
100
AcDbLine
 10
5.863
 20
11.33903296034572
 30
0.0
 11
5.934
 21
11.38403296034573
 31
0.0
  0
LINE
  5
808
330
18
100
AcDbEntity
  8
Object
100
AcDbLine
 10
5.879
 20
12.44703296034573
 30
0.0
 11
5.828
 21
12.39303296034573
 31
0.0
  0
LINE
  5
809
330
18
100
AcDbEntity
  8
Object
100
AcDbLine
 10
5.878
 20
11.86703296034573
 30
0.0
 11
5.810999999999999
 21
11.83303296034573
 31
0.0
  0
LINE
  5
80A
330
18
100
AcDbEntity
  8
Object
100
AcDbLine
 10
5.884999999999999
 20
12.38003296034573
 30
0.0
 11
5.806
 21
12.33403296034573
 31
0.0
  0
LINE
  5
80B
330
18
100
AcDbEntity
  8
Object
100
AcDbLine
 10
5.806
 20
12.33403296034573
 30
0.0
 11
5.764
 21
12.31003296034573
 31
0.0
  0
LINE
  5
80C
330
18
100
AcDbEntity
  8
Object
100
AcDbLine
 10
5.810999999999999
 20
11.83303296034573
 30
0.0
 11
5.741999999999999
 21
11.80303296034573
 31
0.0
  0
LINE
  5
80D
330
18
100
AcDbEntity
  8
Object
100
AcDbLine
 10
5.717
 20
12.28303296034573
 30
0.0
 11
5.764
 21
12.31003296034573
 31
0.0
  0
LINE
  5
80E
330
18
100
AcDbEntity
  8
Object
100
AcDbLine
 10
5.711
 20
11.26503296034573
 30
0.0
 11
5.788999999999999
 21
11.29903296034573
 31
0.0
  0
LINE
  5
80F
330
18
100
AcDbEntity
  8
Object
100
AcDbLine
 10
5.690999999999999
 20
12.26803296034573
 30
0.0
 11
5.717
 21
12.28303296034573
 31
0.0
  0
LINE
  5
810
330
18
100
AcDbEntity
  8
Object
100
AcDbLine
 10
5.741999999999999
 20
11.80303296034573
 30
0.0
 11
5.671
 21
11.77703296034573
 31
0.0
  0
LINE
  5
811
330
18
100
AcDbEntity
  8
Object
100
AcDbLine
 10
5.661999999999999
 20
12.25103296034573
 30
0.0
 11
5.690999999999999
 21
12.26803296034573
 31
0.0
  0
LINE
  5
812
330
18
100
AcDbEntity
  8
Object
100
AcDbLine
 10
5.713
 20
12.30203296034573
 30
0.0
 11
5.649
 21
12.26503296034573
 31
0.0
  0
LINE
  5
813
330
18
100
AcDbEntity
  8
Object
100
AcDbLine
 10
5.661999999999999
 20
12.25103296034573
 30
0.0
 11
5.631999999999999
 21
12.23403296034573
 31
0.0
  0
LINE
  5
814
330
18
100
AcDbEntity
  8
Object
100
AcDbLine
 10
5.631999999999999
 20
12.23403296034573
 30
0.0
 11
5.602
 21
12.21603296034573
 31
0.0
  0
LINE
  5
815
330
18
100
AcDbEntity
  8
Object
100
AcDbLine
 10
5.649
 20
12.26503296034573
 30
0.0
 11
5.581999999999999
 21
12.23503296034573
 31
0.0
  0
LINE
  5
816
330
18
100
AcDbEntity
  8
Object
100
AcDbLine
 10
5.605999999999999
 20
11.89603296034573
 30
0.0
 11
5.637999999999999
 21
11.83903296034572
 31
0.0
  0
LINE
  5
817
330
18
100
AcDbEntity
  8
Object
100
AcDbLine
 10
5.637999999999999
 20
11.83903296034572
 30
0.0
 11
5.671
 21
11.77703296034573
 31
0.0
  0
LINE
  5
818
330
18
100
AcDbEntity
  8
Object
100
AcDbLine
 10
5.602
 20
12.21603296034573
 30
0.0
 11
5.572
 21
12.19903296034573
 31
0.0
  0
LINE
  5
819
330
18
100
AcDbEntity
  8
Object
100
AcDbLine
 10
5.572
 20
12.19903296034573
 30
0.0
 11
5.543
 21
12.18303296034573
 31
0.0
  0
LINE
  5
81A
330
18
100
AcDbEntity
  8
Object
100
AcDbLine
 10
5.552
 20
11.99903296034573
 30
0.0
 11
5.578
 21
11.95003296034573
 31
0.0
  0
LINE
  5
81B
330
18
100
AcDbEntity
  8
Object
100
AcDbLine
 10
5.578
 20
11.95003296034573
 30
0.0
 11
5.605999999999999
 21
11.89603296034573
 31
0.0
  0
LINE
  5
81C
330
18
100
AcDbEntity
  8
Object
100
AcDbLine
 10
5.549999999999999
 20
11.21203296034573
 30
0.0
 11
5.631999999999999
 21
11.23603296034572
 31
0.0
  0
LINE
  5
81D
330
18
100
AcDbEntity
  8
Object
100
AcDbLine
 10
5.552
 20
11.99903296034573
 30
0.0
 11
5.528999999999999
 21
12.04303296034573
 31
0.0
  0
LINE
  5
81E
330
18
100
AcDbEntity
  8
Object
100
AcDbLine
 10
5.528999999999999
 20
12.04303296034573
 30
0.0
 11
5.509
 21
12.08303296034572
 31
0.0
  0
LINE
  5
81F
330
18
100
AcDbEntity
  8
Object
100
AcDbLine
 10
5.543
 20
12.18303296034573
 30
0.0
 11
5.488999999999999
 21
12.15103296034573
 31
0.0
  0
LINE
  5
820
330
18
100
AcDbEntity
  8
Object
100
AcDbLine
 10
5.488999999999999
 20
12.15103296034573
 30
0.0
 11
5.479
 21
12.14603296034573
 31
0.0
  0
LINE
  5
821
330
18
100
AcDbEntity
  8
Object
100
AcDbLine
 10
5.512
 20
12.21103296034573
 30
0.0
 11
5.440999999999999
 21
12.19503296034573
 31
0.0
  0
LINE
  5
822
330
18
100
AcDbEntity
  8
Object
100
AcDbLine
 10
5.491999999999999
 20
12.11703296034573
 30
0.0
 11
5.479
 21
12.14603296034573
 31
0.0
  0
LINE
  5
823
330
18
100
AcDbEntity
  8
Object
100
AcDbLine
 10
5.381
 20
11.18503296034573
 30
0.0
 11
5.466
 21
11.19503296034572
 31
0.0
  0
LINE
  5
824
330
18
100
AcDbEntity
  8
Object
100
AcDbLine
 10
5.440999999999999
 20
12.19503296034573
 30
0.0
 11
5.368999999999999
 21
12.18403296034573
 31
0.0
  0
LINE
  5
825
330
18
100
AcDbEntity
  8
Object
100
AcDbLine
 10
5.368999999999999
 20
12.18403296034573
 30
0.0
 11
5.296
 21
12.18103296034573
 31
0.0
  0
LINE
  5
826
330
18
100
AcDbEntity
  8
Object
100
AcDbLine
 10
5.296
 20
12.18103296034573
 30
0.0
 11
5.222999999999999
 21
12.18403296034573
 31
0.0
  0
LINE
  5
827
330
18
100
AcDbEntity
  8
Object
100
AcDbLine
 10
5.222999999999999
 20
12.18403296034573
 30
0.0
 11
5.15
 21
12.19503296034573
 31
0.0
  0
LINE
  5
828
330
18
100
AcDbEntity
  8
Object
100
AcDbLine
 10
5.15
 20
12.19503296034573
 30
0.0
 11
5.078999999999999
 21
12.21103296034573
 31
0.0
  0
LINE
  5
829
330
18
100
AcDbEntity
  8
Object
100
AcDbLine
 10
5.078999999999999
 20
12.21103296034573
 30
0.0
 11
5.009999999999999
 21
12.23503296034573
 31
0.0
  0
LINE
  5
82A
330
18
100
AcDbEntity
  8
Object
100
AcDbLine
 10
5.009999999999999
 20
12.23503296034573
 30
0.0
 11
4.943
 21
12.26503296034573
 31
0.0
  0
LINE
  5
82B
330
18
100
AcDbEntity
  8
Object
100
AcDbLine
 10
4.943
 20
12.26503296034573
 30
0.0
 11
4.879
 21
12.30203296034573
 31
0.0
  0
LINE
  5
82C
330
18
100
AcDbEntity
  8
Object
100
AcDbLine
 10
4.879
 20
12.30203296034573
 30
0.0
 11
4.818999999999999
 21
12.34503296034573
 31
0.0
  0
LINE
  5
82D
330
18
100
AcDbEntity
  8
Object
100
AcDbLine
 10
4.818999999999999
 20
12.34503296034573
 30
0.0
 11
4.762999999999999
 21
12.39303296034573
 31
0.0
  0
LINE
  5
82E
330
18
100
AcDbEntity
  8
Object
100
AcDbLine
 10
4.762999999999999
 20
12.39303296034573
 30
0.0
 11
4.711999999999999
 21
12.44703296034573
 31
0.0
  0
LINE
  5
82F
330
18
100
AcDbEntity
  8
Object
100
AcDbLine
 10
4.711999999999999
 20
12.44703296034573
 30
0.0
 11
4.666999999999999
 21
12.50603296034572
 31
0.0
  0
LINE
  5
830
330
18
100
AcDbEntity
  8
Object
100
AcDbLine
 10
4.666999999999999
 20
12.50603296034572
 30
0.0
 11
4.628
 21
12.56803296034573
 31
0.0
  0
LINE
  5
831
330
18
100
AcDbEntity
  8
Object
100
AcDbLine
 10
4.628
 20
12.56803296034573
 30
0.0
 11
4.594999999999999
 21
12.63503296034573
 31
0.0
  0
LINE
  5
832
330
18
100
AcDbEntity
  8
Object
100
AcDbLine
 10
4.594999999999999
 20
12.63503296034573
 30
0.0
 11
4.568999999999999
 21
12.70503296034573
 31
0.0
  0
LINE
  5
833
330
18
100
AcDbEntity
  8
Object
100
AcDbLine
 10
4.568999999999999
 20
12.70503296034573
 30
0.0
 11
4.549999999999999
 21
12.77703296034573
 31
0.0
  0
LINE
  5
834
330
18
100
AcDbEntity
  8
Object
100
AcDbLine
 10
4.549999999999999
 20
12.77703296034573
 30
0.0
 11
4.538
 21
12.85103296034573
 31
0.0
  0
LINE
  5
835
330
18
100
AcDbEntity
  8
Object
100
AcDbLine
 10
4.528999999999999
 20
12.92603296034573
 30
0.0
 11
4.533999999999999
 21
12.92603296034573
 31
0.0
  0
LINE
  5
836
330
18
100
AcDbEntity
  8
Object
100
AcDbLine
 10
4.533999999999999
 20
12.92603296034573
 30
0.0
 11
4.538
 21
12.85103296034573
 31
0.0
  0
LINE
  5
837
330
18
100
AcDbEntity
  8
Object
100
AcDbLine
 10
4.256999999999999
 20
12.67303296034573
 30
0.0
 11
4.203999999999999
 21
12.67303296034573
 31
0.0
  0
LINE
  5
838
330
18
100
AcDbEntity
  8
Object
100
AcDbLine
 10
4.203999999999999
 20
12.67303296034573
 30
0.0
 11
4.185
 21
12.77203296034573
 31
0.0
  0
LINE
  5
839
330
18
100
AcDbEntity
  8
Object
100
AcDbLine
 10
4.185
 20
12.77203296034573
 30
0.0
 11
4.176
 21
12.87203296034573
 31
0.0
  0
LINE
  5
83A
330
18
100
AcDbEntity
  8
Object
100
AcDbLine
 10
4.176
 20
12.87203296034573
 30
0.0
 11
4.089
 21
12.87203296034573
 31
0.0
  0
LINE
  5
83B
330
18
100
AcDbEntity
  8
Object
100
AcDbLine
 10
4.033999999999999
 20
12.92603296034573
 30
0.0
 11
4.088
 21
12.92603296034573
 31
0.0
  0
LINE
  5
83C
330
18
100
AcDbEntity
  8
Object
100
AcDbLine
 10
4.088
 20
12.92603296034573
 30
0.0
 11
4.089
 21
12.87203296034573
 31
0.0
  0
LINE
  5
83D
330
18
100
AcDbEntity
  8
Object
100
AcDbLine
 10
6.552999999999999
 20
13.17603296034573
 30
0.0
 11
6.557
 21
12.92603296034573
 31
0.0
  0
LINE
  5
83E
330
18
100
AcDbEntity
  8
Object
100
AcDbLine
 10
6.557
 20
12.92603296034573
 30
0.0
 11
6.512999999999999
 21
12.92603296034573
 31
0.0
  0
LINE
  5
83F
330
18
100
AcDbEntity
  8
Object
100
AcDbLine
 10
6.552999999999999
 20
13.17603296034573
 30
0.0
 11
6.546
 21
13.30503296034573
 31
0.0
  0
LINE
  5
840
330
18
100
AcDbEntity
  8
Object
100
AcDbLine
 10
6.507
 20
13.57303296034573
 30
0.0
 11
6.530999999999999
 21
13.43703296034573
 31
0.0
  0
LINE
  5
841
330
18
100
AcDbEntity
  8
Object
100
AcDbLine
 10
6.530999999999999
 20
13.43703296034573
 30
0.0
 11
6.546
 21
13.30503296034573
 31
0.0
  0
LINE
  5
842
330
18
100
AcDbEntity
  8
Object
100
AcDbLine
 10
6.507
 20
13.57303296034573
 30
0.0
 11
6.471
 21
13.71203296034573
 31
0.0
  0
LINE
  5
843
330
18
100
AcDbEntity
  8
Object
100
AcDbLine
 10
6.471
 20
13.71203296034573
 30
0.0
 11
6.421999999999999
 21
13.85103296034573
 31
0.0
  0
LINE
  5
844
330
18
100
AcDbEntity
  8
Object
100
AcDbLine
 10
6.358
 20
13.98803296034573
 30
0.0
 11
6.392
 21
13.92003296034573
 31
0.0
  0
LINE
  5
845
330
18
100
AcDbEntity
  8
Object
100
AcDbLine
 10
6.392
 20
13.92003296034573
 30
0.0
 11
6.421999999999999
 21
13.85103296034573
 31
0.0
  0
LINE
  5
846
330
18
100
AcDbEntity
  8
Object
100
AcDbLine
 10
6.358
 20
13.98803296034573
 30
0.0
 11
6.32
 21
14.05603296034573
 31
0.0
  0
LINE
  5
847
330
18
100
AcDbEntity
  8
Object
100
AcDbLine
 10
6.288999999999999
 20
12.92603296034573
 30
0.0
 11
6.331999999999999
 21
12.92603296034573
 31
0.0
  0
LINE
  5
848
330
18
100
AcDbEntity
  8
Object
100
AcDbLine
 10
6.277
 20
14.12203296034573
 30
0.0
 11
6.230999999999999
 21
14.18703296034573
 31
0.0
  0
LINE
  5
849
330
18
100
AcDbEntity
  8
Object
100
AcDbLine
 10
6.230999999999999
 20
14.18703296034573
 30
0.0
 11
6.179
 21
14.24903296034573
 31
0.0
  0
LINE
  5
84A
330
18
100
AcDbEntity
  8
Object
100
AcDbLine
 10
6.104
 20
13.82303296034573
 30
0.0
 11
6.07
 21
13.76603296034573
 31
0.0
  0
LINE
  5
84B
330
18
100
AcDbEntity
  8
Object
100
AcDbLine
 10
6.068999999999999
 20
12.92603296034573
 30
0.0
 11
6.081
 21
12.92603296034573
 31
0.0
  0
LINE
  5
84C
330
18
100
AcDbEntity
  8
Object
100
AcDbLine
 10
6.065
 20
14.36503296034573
 30
0.0
 11
6.124
 21
14.30903296034573
 31
0.0
  0
LINE
  5
84D
330
18
100
AcDbEntity
  8
Object
100
AcDbLine
 10
6.124
 20
14.30903296034573
 30
0.0
 11
6.179
 21
14.24903296034573
 31
0.0
  0
LINE
  5
84E
330
18
100
AcDbEntity
  8
Object
100
AcDbLine
 10
6.07
 20
13.76603296034573
 30
0.0
 11
6.036999999999999
 21
13.71203296034573
 31
0.0
  0
LINE
  5
84F
330
18
100
AcDbEntity
  8
Object
100
AcDbLine
 10
6.046
 20
13.87203296034573
 30
0.0
 11
6.104
 21
13.82303296034573
 31
0.0
  0
LINE
  5
850
330
18
100
AcDbEntity
  8
Object
100
AcDbLine
 10
6.036999999999999
 20
13.71203296034573
 30
0.0
 11
6.006
 21
13.66003296034573
 31
0.0
  0
LINE
  5
851
330
18
100
AcDbEntity
  8
Object
100
AcDbLine
 10
5.985999999999999
 20
13.91703296034573
 30
0.0
 11
6.046
 21
13.87203296034573
 31
0.0
  0
LINE
  5
852
330
18
100
AcDbEntity
  8
Object
100
AcDbLine
 10
6.006
 20
13.66003296034573
 30
0.0
 11
5.975999999999999
 21
13.61203296034573
 31
0.0
  0
LINE
  5
853
330
18
100
AcDbEntity
  8
Object
100
AcDbLine
 10
5.975999999999999
 20
13.61203296034573
 30
0.0
 11
5.948999999999999
 21
13.56903296034573
 31
0.0
  0
LINE
  5
854
330
18
100
AcDbEntity
  8
Object
100
AcDbLine
 10
5.948999999999999
 20
13.56903296034573
 30
0.0
 11
5.924999999999999
 21
13.53103296034573
 31
0.0
  0
LINE
  5
855
330
18
100
AcDbEntity
  8
Object
100
AcDbLine
 10
5.921999999999999
 20
13.95903296034573
 30
0.0
 11
5.985999999999999
 21
13.91703296034573
 31
0.0
  0
LINE
  5
856
330
18
100
AcDbEntity
  8
Object
100
AcDbLine
 10
6.001999999999999
 20
14.41803296034573
 30
0.0
 11
5.934
 21
14.46703296034573
 31
0.0
  0
LINE
  5
857
330
18
100
AcDbEntity
  8
Object
100
AcDbLine
 10
5.924999999999999
 20
13.53103296034573
 30
0.0
 11
5.903
 21
13.49803296034573
 31
0.0
  0
LINE
  5
858
330
18
100
AcDbEntity
  8
Object
100
AcDbLine
 10
5.903
 20
13.49803296034573
 30
0.0
 11
5.884999999999999
 21
13.47103296034573
 31
0.0
  0
LINE
  5
859
330
18
100
AcDbEntity
  8
Object
100
AcDbLine
 10
5.879
 20
13.40403296034573
 30
0.0
 11
5.924999999999999
 21
13.34603296034573
 31
0.0
  0
LINE
  5
85A
330
18
100
AcDbEntity
  8
Object
100
AcDbLine
 10
5.934
 20
14.46703296034573
 30
0.0
 11
5.863
 21
14.51203296034573
 31
0.0
  0
LINE
  5
85B
330
18
100
AcDbEntity
  8
Object
100
AcDbLine
 10
5.855999999999999
 20
13.99603296034572
 30
0.0
 11
5.921999999999999
 21
13.95903296034573
 31
0.0
  0
LINE
  5
85C
330
18
100
AcDbEntity
  8
Object
100
AcDbLine
 10
5.828
 20
13.45803296034573
 30
0.0
 11
5.879
 21
13.40403296034573
 31
0.0
  0
LINE
  5
85D
330
18
100
AcDbEntity
  8
Object
100
AcDbLine
 10
5.884999999999999
 20
13.47103296034573
 30
0.0
 11
5.826
 21
13.50503296034573
 31
0.0
  0
LINE
  5
85E
330
18
100
AcDbEntity
  8
Object
100
AcDbLine
 10
5.826
 20
13.50503296034573
 30
0.0
 11
5.764
 21
13.54103296034573
 31
0.0
  0
LINE
  5
85F
330
18
100
AcDbEntity
  8
Object
100
AcDbLine
 10
5.863
 20
14.51203296034573
 30
0.0
 11
5.788999999999999
 21
14.55203296034573
 31
0.0
  0
LINE
  5
860
330
18
100
AcDbEntity
  8
Object
100
AcDbLine
 10
5.812
 20
13.91503296034573
 30
0.0
 11
5.855999999999999
 21
13.99603296034572
 31
0.0
  0
LINE
  5
861
330
18
100
AcDbEntity
  8
Object
100
AcDbLine
 10
5.764
 20
13.54103296034573
 30
0.0
 11
5.73
 21
13.56103296034573
 31
0.0
  0
LINE
  5
862
330
18
100
AcDbEntity
  8
Object
100
AcDbLine
 10
5.721
 20
13.95703296034573
 30
0.0
 11
5.812
 21
13.91503296034573
 31
0.0
  0
LINE
  5
863
330
18
100
AcDbEntity
  8
Object
100
AcDbLine
 10
5.73
 20
13.56103296034573
 30
0.0
 11
5.690999999999999
 21
13.58303296034573
 31
0.0
  0
LINE
  5
864
330
18
100
AcDbEntity
  8
Object
100
AcDbLine
 10
5.649
 20
13.58603296034573
 30
0.0
 11
5.713
 21
13.54903296034573
 31
0.0
  0
LINE
  5
865
330
18
100
AcDbEntity
  8
Object
100
AcDbLine
 10
5.690999999999999
 20
13.58303296034573
 30
0.0
 11
5.647999999999999
 21
13.60803296034573
 31
0.0
  0
LINE
  5
866
330
18
100
AcDbEntity
  8
Object
100
AcDbLine
 10
5.626
 20
13.99103296034573
 30
0.0
 11
5.721
 21
13.95703296034573
 31
0.0
  0
LINE
  5
867
330
18
100
AcDbEntity
  8
Object
100
AcDbLine
 10
5.647999999999999
 20
13.60803296034573
 30
0.0
 11
5.602999999999999
 21
13.63403296034572
 31
0.0
  0
LINE
  5
868
330
18
100
AcDbEntity
  8
Object
100
AcDbLine
 10
5.581999999999999
 20
13.61603296034573
 30
0.0
 11
5.649
 21
13.58603296034573
 31
0.0
  0
LINE
  5
869
330
18
100
AcDbEntity
  8
Object
100
AcDbLine
 10
5.576999999999999
 20
13.90003296034573
 30
0.0
 11
5.6
 21
13.94403296034573
 31
0.0
  0
LINE
  5
86A
330
18
100
AcDbEntity
  8
Object
100
AcDbLine
 10
5.711
 20
14.58703296034573
 30
0.0
 11
5.631999999999999
 21
14.61603296034573
 31
0.0
  0
LINE
  5
86B
330
18
100
AcDbEntity
  8
Object
100
AcDbLine
 10
5.602999999999999
 20
13.63403296034572
 30
0.0
 11
5.57
 21
13.65303296034573
 31
0.0
  0
LINE
  5
86C
330
18
100
AcDbEntity
  8
Object
100
AcDbLine
 10
5.57
 20
13.65303296034573
 30
0.0
 11
5.538
 21
13.67103296034573
 31
0.0
  0
LINE
  5
86D
330
18
100
AcDbEntity
  8
Object
100
AcDbLine
 10
5.6
 20
13.94403296034573
 30
0.0
 11
5.626
 21
13.99103296034573
 31
0.0
  0
LINE
  5
86E
330
18
100
AcDbEntity
  8
Object
100
AcDbLine
 10
5.538
 20
13.67103296034573
 30
0.0
 11
5.479
 21
13.70603296034573
 31
0.0
  0
LINE
  5
86F
330
18
100
AcDbEntity
  8
Object
100
AcDbLine
 10
5.576999999999999
 20
13.90003296034573
 30
0.0
 11
5.556
 21
13.85903296034573
 31
0.0
  0
LINE
  5
870
330
18
100
AcDbEntity
  8
Object
100
AcDbLine
 10
5.556
 20
13.85903296034573
 30
0.0
 11
5.536
 21
13.82203296034573
 31
0.0
  0
LINE
  5
871
330
18
100
AcDbEntity
  8
Object
100
AcDbLine
 10
5.536
 20
13.82203296034573
 30
0.0
 11
5.519
 21
13.78703296034573
 31
0.0
  0
LINE
  5
872
330
18
100
AcDbEntity
  8
Object
100
AcDbLine
 10
5.519
 20
13.78703296034573
 30
0.0
 11
5.503
 21
13.75603296034572
 31
0.0
  0
LINE
  5
873
330
18
100
AcDbEntity
  8
Object
100
AcDbLine
 10
5.503
 20
13.75603296034572
 30
0.0
 11
5.49
 21
13.72903296034573
 31
0.0
  0
LINE
  5
874
330
18
100
AcDbEntity
  8
Object
100
AcDbLine
 10
5.440999999999999
 20
13.65703296034572
 30
0.0
 11
5.512
 21
13.64003296034573
 31
0.0
  0
LINE
  5
875
330
18
100
AcDbEntity
  8
Object
100
AcDbLine
 10
5.479
 20
13.70603296034573
 30
0.0
 11
5.49
 21
13.72903296034573
 31
0.0
  0
LINE
  5
876
330
18
100
AcDbEntity
  8
Object
100
AcDbLine
 10
5.368999999999999
 20
13.66703296034573
 30
0.0
 11
5.440999999999999
 21
13.65703296034572
 31
0.0
  0
LINE
  5
877
330
18
100
AcDbEntity
  8
Object
100
AcDbLine
 10
5.222999999999999
 20
13.66703296034573
 30
0.0
 11
5.15
 21
13.65703296034572
 31
0.0
  0
LINE
  5
878
330
18
100
AcDbEntity
  8
Object
100
AcDbLine
 10
5.15
 20
13.65703296034572
 30
0.0
 11
5.078999999999999
 21
13.64003296034573
 31
0.0
  0
LINE
  5
879
330
18
100
AcDbEntity
  8
Object
100
AcDbLine
 10
5.078999999999999
 20
13.64003296034573
 30
0.0
 11
5.009999999999999
 21
13.61603296034573
 31
0.0
  0
LINE
  5
87A
330
18
100
AcDbEntity
  8
Object
100
AcDbLine
 10
5.009999999999999
 20
13.61603296034573
 30
0.0
 11
4.943
 21
13.58603296034573
 31
0.0
  0
LINE
  5
87B
330
18
100
AcDbEntity
  8
Object
100
AcDbLine
 10
4.943
 20
13.58603296034573
 30
0.0
 11
4.879
 21
13.54903296034573
 31
0.0
  0
LINE
  5
87C
330
18
100
AcDbEntity
  8
Object
100
AcDbLine
 10
4.879
 20
13.54903296034573
 30
0.0
 11
4.818999999999999
 21
13.50703296034573
 31
0.0
  0
LINE
  5
87D
330
18
100
AcDbEntity
  8
Object
100
AcDbLine
 10
4.818999999999999
 20
13.50703296034573
 30
0.0
 11
4.762999999999999
 21
13.45803296034573
 31
0.0
  0
LINE
  5
87E
330
18
100
AcDbEntity
  8
Object
100
AcDbLine
 10
4.762999999999999
 20
13.45803296034573
 30
0.0
 11
4.711999999999999
 21
13.40403296034573
 31
0.0
  0
LINE
  5
87F
330
18
100
AcDbEntity
  8
Object
100
AcDbLine
 10
4.711999999999999
 20
13.40403296034573
 30
0.0
 11
4.666999999999999
 21
13.34603296034573
 31
0.0
  0
LINE
  5
880
330
18
100
AcDbEntity
  8
Object
100
AcDbLine
 10
4.666999999999999
 20
13.34603296034573
 30
0.0
 11
4.628
 21
13.28303296034573
 31
0.0
  0
LINE
  5
881
330
18
100
AcDbEntity
  8
Object
100
AcDbLine
 10
4.628
 20
13.28303296034573
 30
0.0
 11
4.594999999999999
 21
13.21603296034573
 31
0.0
  0
LINE
  5
882
330
18
100
AcDbEntity
  8
Object
100
AcDbLine
 10
4.594999999999999
 20
13.21603296034573
 30
0.0
 11
4.568999999999999
 21
13.14603296034573
 31
0.0
  0
LINE
  5
883
330
18
100
AcDbEntity
  8
Object
100
AcDbLine
 10
4.568999999999999
 20
13.14603296034573
 30
0.0
 11
4.549999999999999
 21
13.07403296034573
 31
0.0
  0
LINE
  5
884
330
18
100
AcDbEntity
  8
Object
100
AcDbLine
 10
4.549999999999999
 20
13.07403296034573
 30
0.0
 11
4.538
 21
13.00003296034573
 31
0.0
  0
LINE
  5
885
330
18
100
AcDbEntity
  8
Object
100
AcDbLine
 10
4.538
 20
13.00003296034573
 30
0.0
 11
4.533999999999999
 21
12.92603296034573
 31
0.0
  0
LINE
  5
886
330
18
100
AcDbEntity
  8
Object
100
AcDbLine
 10
4.088
 20
12.92603296034573
 30
0.0
 11
4.094
 21
13.05303296034573
 31
0.0
  0
LINE
  5
887
330
18
100
AcDbEntity
  8
Object
100
AcDbLine
 10
4.094
 20
13.05303296034573
 30
0.0
 11
4.115
 21
13.17903296034573
 31
0.0
  0
LINE
  5
888
330
18
100
AcDbEntity
  8
Object
100
AcDbLine
 10
5.541
 20
12.03603296034573
 30
0.0
 11
5.541999999999999
 21
12.04203296034573
 31
0.0
  0
LINE
  5
889
330
18
100
AcDbEntity
  8
Object
100
AcDbLine
 10
5.512
 20
12.10803296034573
 30
0.0
 11
5.512999999999999
 21
12.11003296034573
 31
0.0
  0
LINE
  5
88A
330
18
100
AcDbEntity
  8
Object
100
AcDbLine
 10
4.480999999999999
 20
12.70603296034573
 30
0.0
 11
4.474
 21
12.69703296034573
 31
0.0
  0
LINE
  5
88B
330
18
100
AcDbEntity
  8
Object
100
AcDbLine
 10
5.541999999999999
 20
12.04203296034573
 30
0.0
 11
5.522
 21
12.07603296034573
 31
0.0
  0
LINE
  5
88C
330
18
100
AcDbEntity
  8
Object
100
AcDbLine
 10
5.939
 20
11.90303296034572
 30
0.0
 11
5.937999999999999
 21
11.90703296034572
 31
0.0
  0
LINE
  5
88D
330
18
100
AcDbEntity
  8
Object
100
AcDbLine
 10
5.937999999999999
 20
11.90703296034572
 30
0.0
 11
5.91
 21
11.91403296034573
 31
0.0
  0
LINE
  5
88E
330
18
100
AcDbEntity
  8
Object
100
AcDbLine
 10
5.91
 20
11.91403296034573
 30
0.0
 11
5.865
 21
11.99203296034573
 31
0.0
  0
LINE
  5
88F
330
18
100
AcDbEntity
  8
Object
100
AcDbLine
 10
5.865
 20
11.99203296034573
 30
0.0
 11
5.895999999999999
 21
11.98403296034572
 31
0.0
  0
LINE
  5
890
330
18
100
AcDbEntity
  8
Object
100
AcDbLine
 10
5.907
 20
11.88403296034572
 30
0.0
 11
5.876999999999999
 21
11.86703296034573
 31
0.0
  0
LINE
  5
891
330
18
100
AcDbEntity
  8
Object
100
AcDbLine
 10
5.876999999999999
 20
11.86703296034573
 30
0.0
 11
5.878
 21
11.86703296034573
 31
0.0
  0
LINE
  5
892
330
18
100
AcDbEntity
  8
Object
100
AcDbLine
 10
5.878
 20
11.86703296034573
 30
0.0
 11
5.876999999999999
 21
11.86703296034573
 31
0.0
  0
LINE
  5
893
330
18
100
AcDbEntity
  8
Object
100
AcDbLine
 10
5.876999999999999
 20
11.86703296034573
 30
0.0
 11
5.844
 21
11.85003296034573
 31
0.0
  0
LINE
  5
894
330
18
100
AcDbEntity
  8
Object
100
AcDbLine
 10
5.876999999999999
 20
11.86703296034573
 30
0.0
 11
5.810999999999999
 21
11.83303296034573
 31
0.0
  0
LINE
  5
895
330
18
100
AcDbEntity
  8
Object
100
AcDbLine
 10
5.810999999999999
 20
11.83303296034573
 30
0.0
 11
5.876999999999999
 21
11.86703296034573
 31
0.0
  0
LINE
  5
896
330
18
100
AcDbEntity
  8
Object
100
AcDbLine
 10
5.878
 20
11.86703296034573
 30
0.0
 11
5.810999999999999
 21
11.83303296034573
 31
0.0
  0
LINE
  5
897
330
18
100
AcDbEntity
  8
Object
100
AcDbLine
 10
5.810999999999999
 20
11.83303296034573
 30
0.0
 11
5.741999999999999
 21
11.80303296034573
 31
0.0
  0
LINE
  5
898
330
18
100
AcDbEntity
  8
Object
100
AcDbLine
 10
5.741999999999999
 20
11.80303296034573
 30
0.0
 11
5.674999999999999
 21
11.77903296034573
 31
0.0
  0
LINE
  5
899
330
18
100
AcDbEntity
  8
Object
100
AcDbLine
 10
5.674999999999999
 20
11.77903296034573
 30
0.0
 11
5.741999999999999
 21
11.80303296034573
 31
0.0
  0
LINE
  5
89A
330
18
100
AcDbEntity
  8
Object
100
AcDbLine
 10
4.094
 20
13.05303296034573
 30
0.0
 11
4.094
 21
13.05103296034572
 31
0.0
  0
LINE
  5
89B
330
18
100
AcDbEntity
  8
Object
100
AcDbLine
 10
4.094
 20
13.05103296034572
 30
0.0
 11
4.094
 21
13.05303296034573
 31
0.0
  0
LINE
  5
89C
330
18
100
AcDbEntity
  8
Object
100
AcDbLine
 10
4.089
 20
12.87503296034573
 30
0.0
 11
4.089
 21
12.87203296034573
 31
0.0
  0
LINE
  5
89D
330
18
100
AcDbEntity
  8
Object
100
AcDbLine
 10
4.094
 20
13.05103296034572
 30
0.0
 11
4.088
 21
12.92603296034573
 31
0.0
  0
LINE
  5
89E
330
18
100
AcDbEntity
  8
Object
100
AcDbLine
 10
4.088
 20
12.92603296034573
 30
0.0
 11
4.094
 21
13.05303296034573
 31
0.0
  0
LINE
  5
89F
330
18
100
AcDbEntity
  8
Object
100
AcDbLine
 10
4.094
 20
13.05103296034572
 30
0.0
 11
4.088
 21
12.92603296034573
 31
0.0
  0
LINE
  5
8A0
330
18
100
AcDbEntity
  8
Object
100
AcDbLine
 10
4.088
 20
12.92603296034573
 30
0.0
 11
4.094
 21
13.05103296034572
 31
0.0
  0
LINE
  5
8A1
330
18
100
AcDbEntity
  8
Object
100
AcDbLine
 10
4.088
 20
12.92603296034573
 30
0.0
 11
4.089
 21
12.87503296034573
 31
0.0
  0
LINE
  5
8A2
330
18
100
AcDbEntity
  8
Object
100
AcDbLine
 10
4.089
 20
12.87503296034573
 30
0.0
 11
4.088
 21
12.92603296034573
 31
0.0
  0
LINE
  5
8A3
330
18
100
AcDbEntity
  8
Object
100
AcDbLine
 10
4.088
 20
12.92603296034573
 30
0.0
 11
4.089
 21
12.87503296034573
 31
0.0
  0
LINE
  5
8A4
330
18
100
AcDbEntity
  8
Object
100
AcDbLine
 10
4.089
 20
12.87203296034573
 30
0.0
 11
4.088
 21
12.92603296034573
 31
0.0
  0
LINE
  5
8A5
330
18
100
AcDbEntity
  8
Object
100
AcDbLine
 10
4.113999999999999
 20
12.92603296034573
 30
0.0
 11
4.113
 21
12.90703296034573
 31
0.0
  0
LINE
  5
8A6
330
18
100
AcDbEntity
  8
Object
100
AcDbLine
 10
4.113
 20
12.90703296034573
 30
0.0
 11
4.113
 21
12.90003296034573
 31
0.0
  0
LINE
  5
8A7
330
18
100
AcDbEntity
  8
Object
100
AcDbLine
 10
4.113
 20
12.90003296034573
 30
0.0
 11
4.089
 21
12.87503296034573
 31
0.0
  0
LINE
  5
8A8
330
18
100
AcDbEntity
  8
Object
100
AcDbLine
 10
5.671
 20
11.77703296034573
 30
0.0
 11
5.674999999999999
 21
11.77903296034573
 31
0.0
  0
LINE
  5
8A9
330
18
100
AcDbEntity
  8
Object
100
AcDbLine
 10
5.673
 20
11.78303296034573
 30
0.0
 11
5.676
 21
11.79303296034573
 31
0.0
  0
LINE
  5
8AA
330
18
100
AcDbEntity
  8
Object
100
AcDbLine
 10
5.676
 20
11.79303296034573
 30
0.0
 11
5.565999999999999
 21
11.98603296034573
 31
0.0
  0
LINE
  5
8AB
330
18
100
AcDbEntity
  8
Object
100
AcDbLine
 10
5.516
 20
12.11703296034573
 30
0.0
 11
5.512999999999999
 21
12.12103296034573
 31
0.0
  0
LINE
  5
8AC
330
18
100
AcDbEntity
  8
Object
100
AcDbLine
 10
5.491999999999999
 20
12.11703296034573
 30
0.0
 11
5.509
 21
12.08303296034572
 31
0.0
  0
LINE
  5
8AD
330
18
100
AcDbEntity
  8
Object
100
AcDbLine
 10
5.512999999999999
 20
12.12103296034573
 30
0.0
 11
5.485999999999999
 21
12.13303296034573
 31
0.0
  0
LINE
  5
8AE
330
18
100
AcDbEntity
  8
Object
100
AcDbLine
 10
5.485999999999999
 20
12.13303296034573
 30
0.0
 11
5.479
 21
12.14603296034573
 31
0.0
  0
LINE
  5
8AF
330
18
100
AcDbEntity
  8
Object
100
AcDbLine
 10
5.522
 20
13.77503296034572
 30
0.0
 11
5.541999999999999
 21
13.80903296034573
 31
0.0
  0
LINE
  5
8B0
330
18
100
AcDbEntity
  8
Object
100
AcDbLine
 10
5.629999999999999
 20
13.97803296034573
 30
0.0
 11
5.626
 21
13.99103296034573
 31
0.0
  0
LINE
  5
8B1
330
18
100
AcDbEntity
  8
Object
100
AcDbLine
 10
5.552
 20
13.83903296034573
 30
0.0
 11
5.565999999999999
 21
13.86603296034573
 31
0.0
  0
LINE
  5
8B2
330
18
100
AcDbEntity
  8
Object
100
AcDbLine
 10
5.512999999999999
 20
13.73003296034573
 30
0.0
 11
5.516
 21
13.73403296034573
 31
0.0
  0
LINE
  5
8B3
330
18
100
AcDbEntity
  8
Object
100
AcDbLine
 10
5.514
 20
13.75303296034573
 30
0.0
 11
5.522
 21
13.77503296034572
 31
0.0
  0
LINE
  5
8B4
330
18
100
AcDbEntity
  8
Object
100
AcDbLine
 10
5.512999999999999
 20
13.73003296034573
 30
0.0
 11
5.485999999999999
 21
13.71803296034573
 31
0.0
  0
LINE
  5
8B5
330
18
100
AcDbEntity
  8
Object
100
AcDbLine
 10
5.485999999999999
 20
13.71803296034573
 30
0.0
 11
5.479
 21
13.70603296034573
 31
0.0
  0
LINE
  5
8B6
330
18
100
AcDbEntity
  8
Object
100
AcDbLine
 10
5.541999999999999
 20
13.80903296034573
 30
0.0
 11
5.541
 21
13.81503296034573
 31
0.0
  0
LINE
  5
8B7
330
18
100
AcDbEntity
  8
Object
100
AcDbLine
 10
6.046
 20
13.87203296034573
 30
0.0
 11
6.100999999999999
 21
13.82603296034573
 31
0.0
  0
LINE
  5
8B8
330
18
100
AcDbEntity
  8
Object
100
AcDbLine
 10
6.100999999999999
 20
13.82603296034573
 30
0.0
 11
6.104
 21
13.82303296034573
 31
0.0
  0
LINE
  5
8B9
330
18
100
AcDbEntity
  8
Object
100
AcDbLine
 10
6.100999999999999
 20
13.82603296034573
 30
0.0
 11
6.046
 21
13.87203296034573
 31
0.0
  0
LINE
  5
8BA
330
18
100
AcDbEntity
  8
Object
100
AcDbLine
 10
6.046
 20
13.87203296034573
 30
0.0
 11
5.985999999999999
 21
13.91703296034573
 31
0.0
  0
LINE
  5
8BB
330
18
100
AcDbEntity
  8
Object
100
AcDbLine
 10
5.964
 20
13.93103296034573
 30
0.0
 11
5.923
 21
13.95803296034572
 31
0.0
  0
LINE
  5
8BC
330
18
100
AcDbEntity
  8
Object
100
AcDbLine
 10
5.923
 20
13.95803296034572
 30
0.0
 11
5.985999999999999
 21
13.91703296034573
 31
0.0
  0
LINE
  5
8BD
330
18
100
AcDbEntity
  8
Object
100
AcDbLine
 10
5.985999999999999
 20
13.91703296034573
 30
0.0
 11
5.923
 21
13.95803296034572
 31
0.0
  0
LINE
  5
8BE
330
18
100
AcDbEntity
  8
Object
100
AcDbLine
 10
5.923
 20
13.95803296034572
 30
0.0
 11
5.921999999999999
 21
13.95903296034573
 31
0.0
  0
LINE
  5
8BF
330
18
100
AcDbEntity
  8
Object
100
AcDbLine
 10
5.921999999999999
 20
13.95903296034573
 30
0.0
 11
5.923
 21
13.95803296034572
 31
0.0
  0
LINE
  5
8C0
330
18
100
AcDbEntity
  8
Object
100
AcDbLine
 10
5.921999999999999
 20
13.95903296034573
 30
0.0
 11
5.985999999999999
 21
13.91703296034573
 31
0.0
  0
LINE
  5
8C1
330
18
100
AcDbEntity
  8
Object
100
AcDbLine
 10
5.923
 20
13.95803296034572
 30
0.0
 11
5.899
 21
13.97103296034573
 31
0.0
  0
LINE
  5
8C2
330
18
100
AcDbEntity
  8
Object
100
AcDbLine
 10
4.113999999999999
 20
13.17503296034573
 30
0.0
 11
4.125
 21
13.16203296034573
 31
0.0
  0
LINE
  5
8C3
330
18
100
AcDbEntity
  8
Object
100
AcDbLine
 10
5.865
 20
13.96303296034573
 30
0.0
 11
5.858
 21
13.99003296034573
 31
0.0
  0
LINE
  5
8C4
330
18
100
AcDbEntity
  8
Object
100
AcDbLine
 10
5.565999999999999
 20
13.86603296034573
 30
0.0
 11
5.629999999999999
 21
13.97803296034573
 31
0.0
  0
LINE
  5
8C5
330
18
100
AcDbEntity
  8
Object
100
AcDbLine
 10
5.512999999999999
 20
13.74103296034573
 30
0.0
 11
5.512
 21
13.74303296034573
 31
0.0
  0
LINE
  5
8C6
330
18
100
AcDbEntity
  8
Object
100
AcDbLine
 10
4.474
 20
13.15403296034573
 30
0.0
 11
4.480999999999999
 21
13.14503296034573
 31
0.0
  0
LINE
  5
8C7
330
18
100
AcDbEntity
  8
Object
100
AcDbLine
 10
6.100999999999999
 20
13.82603296034573
 30
0.0
 11
6.1
 21
13.82403296034573
 31
0.0
  0
LINE
  5
8C8
330
18
100
AcDbEntity
  8
Object
100
AcDbLine
 10
6.1
 20
13.82403296034573
 30
0.0
 11
6.086
 21
13.82103296034573
 31
0.0
  0
LINE
  5
8C9
330
18
100
AcDbEntity
  8
Object
100
AcDbLine
 10
6.086
 20
13.82103296034573
 30
0.0
 11
5.948999999999999
 21
13.58403296034573
 31
0.0
  0
LINE
  5
8CA
330
18
100
AcDbEntity
  8
Object
100
AcDbLine
 10
5.905
 20
13.52303296034573
 30
0.0
 11
5.937999999999999
 21
13.58103296034573
 31
0.0
  0
LINE
  5
8CB
330
18
100
AcDbEntity
  8
Object
100
AcDbLine
 10
5.937999999999999
 20
13.58103296034573
 30
0.0
 11
5.948999999999999
 21
13.58403296034573
 31
0.0
  0
LINE
  5
8CC
330
18
100
AcDbEntity
  8
Object
100
AcDbLine
 10
5.905
 20
13.52303296034573
 30
0.0
 11
5.892999999999999
 21
13.52203296034573
 31
0.0
  0
LINE
  5
8CD
330
18
100
AcDbEntity
  8
Object
100
AcDbLine
 10
5.887999999999999
 20
13.52103296034573
 30
0.0
 11
5.895999999999999
 21
13.53203296034573
 31
0.0
  0
LINE
  5
8CE
330
18
100
AcDbEntity
  8
Object
100
AcDbLine
 10
5.895999999999999
 20
13.53203296034573
 30
0.0
 11
5.899
 21
13.53603296034573
 31
0.0
  0
LINE
  5
8CF
330
18
100
AcDbEntity
  8
Object
100
AcDbLine
 10
5.899
 20
13.53603296034573
 30
0.0
 11
5.899
 21
13.53303296034573
 31
0.0
  0
LINE
  5
8D0
330
18
100
AcDbEntity
  8
Object
100
AcDbLine
 10
5.899
 20
13.53303296034573
 30
0.0
 11
5.892999999999999
 21
13.52203296034573
 31
0.0
  0
LINE
  5
8D1
330
18
100
AcDbEntity
  8
Object
100
AcDbLine
 10
5.887999999999999
 20
13.52103296034573
 30
0.0
 11
5.886
 21
13.52103296034573
 31
0.0
  0
LINE
  5
8D2
330
18
100
AcDbEntity
  8
Object
100
AcDbLine
 10
5.82
 20
13.88503296034573
 30
0.0
 11
5.865
 21
13.96303296034573
 31
0.0
  0
LINE
  5
8D3
330
18
100
AcDbEntity
  8
Object
100
AcDbLine
 10
6.015
 20
12.11303296034573
 30
0.0
 11
6.04
 21
12.11003296034573
 31
0.0
  0
LINE
  5
8D4
330
18
100
AcDbEntity
  8
Object
100
AcDbLine
 10
6.04
 20
12.11003296034573
 30
0.0
 11
6.057
 21
12.10703296034573
 31
0.0
  0
LINE
  5
8D5
330
18
100
AcDbEntity
  8
Object
100
AcDbLine
 10
5.865
 20
11.99203296034573
 30
0.0
 11
5.86
 21
11.99003296034573
 31
0.0
  0
LINE
  5
8D6
330
18
100
AcDbEntity
  8
Object
100
AcDbLine
 10
5.86
 20
11.99003296034573
 30
0.0
 11
5.847999999999999
 21
11.98303296034572
 31
0.0
  0
LINE
  5
8D7
330
18
100
AcDbEntity
  8
Object
100
AcDbLine
 10
5.847999999999999
 20
11.98303296034572
 30
0.0
 11
5.842
 21
11.98003296034572
 31
0.0
  0
LINE
  5
8D8
330
18
100
AcDbEntity
  8
Object
100
AcDbLine
 10
4.203999999999999
 20
12.67303296034573
 30
0.0
 11
4.217
 21
12.68903296034572
 31
0.0
  0
LINE
  5
8D9
330
18
100
AcDbEntity
  8
Object
100
AcDbLine
 10
6.020999999999999
 20
12.92603296034573
 30
0.0
 11
6.057
 21
12.92603296034573
 31
0.0
  0
LINE
  5
8DA
330
18
100
AcDbEntity
  8
Object
100
AcDbLine
 10
6.057
 20
12.92603296034573
 30
0.0
 11
6.054
 21
12.85103296034573
 31
0.0
  0
LINE
  5
8DB
330
18
100
AcDbEntity
  8
Object
100
AcDbLine
 10
6.020999999999999
 20
12.92603296034573
 30
0.0
 11
6.012999999999999
 21
12.82203296034573
 31
0.0
  0
LINE
  5
8DC
330
18
100
AcDbEntity
  8
Object
100
AcDbLine
 10
6.054
 20
12.85103296034573
 30
0.0
 11
6.041999999999999
 21
12.77703296034573
 31
0.0
  0
LINE
  5
8DD
330
18
100
AcDbEntity
  8
Object
100
AcDbLine
 10
6.041999999999999
 20
12.77703296034573
 30
0.0
 11
6.022999999999999
 21
12.70503296034573
 31
0.0
  0
LINE
  5
8DE
330
18
100
AcDbEntity
  8
Object
100
AcDbLine
 10
6.022999999999999
 20
12.70503296034573
 30
0.0
 11
5.996999999999999
 21
12.63503296034573
 31
0.0
  0
LINE
  5
8DF
330
18
100
AcDbEntity
  8
Object
100
AcDbLine
 10
6.012999999999999
 20
12.82203296034573
 30
0.0
 11
5.991
 21
12.72103296034573
 31
0.0
  0
LINE
  5
8E0
330
18
100
AcDbEntity
  8
Object
100
AcDbLine
 10
5.964
 20
12.56803296034573
 30
0.0
 11
5.996999999999999
 21
12.63503296034573
 31
0.0
  0
LINE
  5
8E1
330
18
100
AcDbEntity
  8
Object
100
AcDbLine
 10
5.955
 20
12.62403296034573
 30
0.0
 11
5.905999999999999
 21
12.53403296034573
 31
0.0
  0
LINE
  5
8E2
330
18
100
AcDbEntity
  8
Object
100
AcDbLine
 10
5.924999999999999
 20
12.50603296034572
 30
0.0
 11
5.964
 21
12.56803296034573
 31
0.0
  0
LINE
  5
8E3
330
18
100
AcDbEntity
  8
Object
100
AcDbLine
 10
5.905999999999999
 20
12.53403296034573
 30
0.0
 11
5.844
 21
12.45103296034573
 31
0.0
  0
LINE
  5
8E4
330
18
100
AcDbEntity
  8
Object
100
AcDbLine
 10
5.828
 20
12.39303296034573
 30
0.0
 11
5.772999999999999
 21
12.34503296034573
 31
0.0
  0
LINE
  5
8E5
330
18
100
AcDbEntity
  8
Object
100
AcDbLine
 10
5.772999999999999
 20
12.34503296034573
 30
0.0
 11
5.713
 21
12.30203296034573
 31
0.0
  0
LINE
  5
8E6
330
18
100
AcDbEntity
  8
Object
100
AcDbLine
 10
5.770999999999999
 20
12.37803296034573
 30
0.0
 11
5.687999999999999
 21
12.31603296034573
 31
0.0
  0
LINE
  5
8E7
330
18
100
AcDbEntity
  8
Object
100
AcDbLine
 10
5.687999999999999
 20
12.31603296034573
 30
0.0
 11
5.597
 21
12.26603296034572
 31
0.0
  0
LINE
  5
8E8
330
18
100
AcDbEntity
  8
Object
100
AcDbLine
 10
5.597
 20
12.26603296034572
 30
0.0
 11
5.5
 21
12.23003296034573
 31
0.0
  0
LINE
  5
8E9
330
18
100
AcDbEntity
  8
Object
100
AcDbLine
 10
5.512
 20
12.21103296034573
 30
0.0
 11
5.581999999999999
 21
12.23503296034573
 31
0.0
  0
LINE
  5
8EA
330
18
100
AcDbEntity
  8
Object
100
AcDbLine
 10
5.5
 20
12.23003296034573
 30
0.0
 11
5.399
 21
12.20803296034573
 31
0.0
  0
LINE
  5
8EB
330
18
100
AcDbEntity
  8
Object
100
AcDbLine
 10
5.399
 20
12.20803296034573
 30
0.0
 11
5.296
 21
12.20103296034573
 31
0.0
  0
LINE
  5
8EC
330
18
100
AcDbEntity
  8
Object
100
AcDbLine
 10
5.296
 20
12.20103296034573
 30
0.0
 11
5.193
 21
12.20803296034573
 31
0.0
  0
LINE
  5
8ED
330
18
100
AcDbEntity
  8
Object
100
AcDbLine
 10
5.193
 20
12.20803296034573
 30
0.0
 11
5.092
 21
12.23003296034573
 31
0.0
  0
LINE
  5
8EE
330
18
100
AcDbEntity
  8
Object
100
AcDbLine
 10
5.092
 20
12.23003296034573
 30
0.0
 11
4.995
 21
12.26603296034572
 31
0.0
  0
LINE
  5
8EF
330
18
100
AcDbEntity
  8
Object
100
AcDbLine
 10
4.995
 20
12.26603296034572
 30
0.0
 11
4.903999999999999
 21
12.31603296034573
 31
0.0
  0
LINE
  5
8F0
330
18
100
AcDbEntity
  8
Object
100
AcDbLine
 10
4.903999999999999
 20
12.31603296034573
 30
0.0
 11
4.820999999999999
 21
12.37803296034573
 31
0.0
  0
LINE
  5
8F1
330
18
100
AcDbEntity
  8
Object
100
AcDbLine
 10
4.570999999999999
 20
12.92603296034573
 30
0.0
 11
4.533999999999999
 21
12.92603296034573
 31
0.0
  0
LINE
  5
8F2
330
18
100
AcDbEntity
  8
Object
100
AcDbLine
 10
5.884999999999999
 20
12.38003296034573
 30
0.0
 11
5.887999999999999
 21
12.37503296034573
 31
0.0
  0
LINE
  5
8F3
330
18
100
AcDbEntity
  8
Object
100
AcDbLine
 10
5.887999999999999
 20
12.37503296034573
 30
0.0
 11
5.82
 21
12.30403296034572
 31
0.0
  0
LINE
  5
8F4
330
18
100
AcDbEntity
  8
Object
100
AcDbLine
 10
5.82
 20
12.30403296034572
 30
0.0
 11
5.780999999999999
 21
12.27103296034573
 31
0.0
  0
LINE
  5
8F5
330
18
100
AcDbEntity
  8
Object
100
AcDbLine
 10
5.780999999999999
 20
12.27103296034573
 30
0.0
 11
5.735999999999999
 21
12.23803296034573
 31
0.0
  0
LINE
  5
8F6
330
18
100
AcDbEntity
  8
Object
100
AcDbLine
 10
5.735999999999999
 20
12.23803296034573
 30
0.0
 11
5.708
 21
12.22003296034573
 31
0.0
  0
LINE
  5
8F7
330
18
100
AcDbEntity
  8
Object
100
AcDbLine
 10
5.708
 20
12.22003296034573
 30
0.0
 11
5.679
 21
12.20303296034573
 31
0.0
  0
LINE
  5
8F8
330
18
100
AcDbEntity
  8
Object
100
AcDbLine
 10
5.679
 20
12.20303296034573
 30
0.0
 11
5.645999999999999
 21
12.18703296034573
 31
0.0
  0
LINE
  5
8F9
330
18
100
AcDbEntity
  8
Object
100
AcDbLine
 10
5.645999999999999
 20
12.18703296034573
 30
0.0
 11
5.613
 21
12.17203296034573
 31
0.0
  0
LINE
  5
8FA
330
18
100
AcDbEntity
  8
Object
100
AcDbLine
 10
5.613
 20
12.17203296034573
 30
0.0
 11
5.58
 21
12.15903296034573
 31
0.0
  0
LINE
  5
8FB
330
18
100
AcDbEntity
  8
Object
100
AcDbLine
 10
5.58
 20
12.15903296034573
 30
0.0
 11
5.548
 21
12.14903296034573
 31
0.0
  0
LINE
  5
8FC
330
18
100
AcDbEntity
  8
Object
100
AcDbLine
 10
5.548
 20
12.14903296034573
 30
0.0
 11
5.485999999999999
 21
12.13303296034573
 31
0.0
  0
LINE
  5
8FD
330
18
100
AcDbEntity
  8
Object
100
AcDbLine
 10
4.176
 20
12.87203296034573
 30
0.0
 11
4.203
 21
12.90003296034573
 31
0.0
  0
LINE
  5
8FE
330
18
100
AcDbEntity
  8
Object
100
AcDbLine
 10
4.203
 20
12.90003296034573
 30
0.0
 11
4.113
 21
12.90003296034573
 31
0.0
  0
LINE
  5
8FF
330
18
100
AcDbEntity
  8
Object
100
AcDbLine
 10
4.089
 20
12.87503296034573
 30
0.0
 11
4.089
 21
12.87203296034573
 31
0.0
  0
LINE
  5
900
330
18
100
AcDbEntity
  8
Object
100
AcDbLine
 10
4.528999999999999
 20
13.05003296034573
 30
0.0
 11
4.528
 21
13.16803296034573
 31
0.0
  0
LINE
  5
901
330
18
100
AcDbEntity
  8
Object
100
AcDbLine
 10
4.528
 20
12.68303296034573
 30
0.0
 11
4.528999999999999
 21
12.80203296034573
 31
0.0
  0
LINE
  5
902
330
18
100
AcDbEntity
  8
Object
100
AcDbLine
 10
4.528999999999999
 20
12.80203296034573
 30
0.0
 11
4.528999999999999
 21
12.86203296034573
 31
0.0
  0
LINE
  5
903
330
18
100
AcDbEntity
  8
Object
100
AcDbLine
 10
4.528999999999999
 20
12.99003296034572
 30
0.0
 11
4.528999999999999
 21
13.05003296034573
 31
0.0
  0
LINE
  5
904
330
18
100
AcDbEntity
  8
Object
100
AcDbLine
 10
4.528999999999999
 20
12.86203296034573
 30
0.0
 11
4.528999999999999
 21
12.89403296034573
 31
0.0
  0
LINE
  5
905
330
18
100
AcDbEntity
  8
Object
100
AcDbLine
 10
4.528999999999999
 20
12.95903296034573
 30
0.0
 11
4.528999999999999
 21
12.99003296034572
 31
0.0
  0
LINE
  5
906
330
18
100
AcDbEntity
  8
Object
100
AcDbLine
 10
4.528999999999999
 20
12.89403296034573
 30
0.0
 11
4.528999999999999
 21
12.92603296034573
 31
0.0
  0
LINE
  5
907
330
18
100
AcDbEntity
  8
Object
100
AcDbLine
 10
4.528999999999999
 20
12.92603296034573
 30
0.0
 11
4.528999999999999
 21
12.95903296034573
 31
0.0
  0
LINE
  5
908
330
18
100
AcDbEntity
  8
Object
100
AcDbLine
 10
6.04
 20
12.11003296034573
 30
0.0
 11
5.948999999999999
 21
12.26703296034573
 31
0.0
  0
LINE
  5
909
330
18
100
AcDbEntity
  8
Object
100
AcDbLine
 10
5.948999999999999
 20
12.26703296034573
 30
0.0
 11
5.937999999999999
 21
12.27003296034573
 31
0.0
  0
LINE
  5
90A
330
18
100
AcDbEntity
  8
Object
100
AcDbLine
 10
5.937999999999999
 20
12.27003296034573
 30
0.0
 11
5.905
 21
12.32803296034573
 31
0.0
  0
LINE
  5
90B
330
18
100
AcDbEntity
  8
Object
100
AcDbLine
 10
5.899
 20
12.31803296034573
 30
0.0
 11
5.899
 21
12.31503296034573
 31
0.0
  0
LINE
  5
90C
330
18
100
AcDbEntity
  8
Object
100
AcDbLine
 10
5.899
 20
12.31503296034573
 30
0.0
 11
5.895999999999999
 21
12.31903296034573
 31
0.0
  0
LINE
  5
90D
330
18
100
AcDbEntity
  8
Object
100
AcDbLine
 10
5.905
 20
12.32803296034573
 30
0.0
 11
5.892999999999999
 21
12.33003296034573
 31
0.0
  0
LINE
  5
90E
330
18
100
AcDbEntity
  8
Object
100
AcDbLine
 10
5.892999999999999
 20
12.33003296034573
 30
0.0
 11
5.899
 21
12.31803296034573
 31
0.0
  0
LINE
  5
90F
330
18
100
AcDbEntity
  8
Object
100
AcDbLine
 10
5.895999999999999
 20
12.31903296034573
 30
0.0
 11
5.887999999999999
 21
12.33003296034573
 31
0.0
  0
LINE
  5
910
330
18
100
AcDbEntity
  8
Object
100
AcDbLine
 10
5.887999999999999
 20
12.33003296034573
 30
0.0
 11
5.886
 21
12.33003296034573
 31
0.0
  0
LINE
  5
911
330
18
100
AcDbEntity
  8
Object
100
AcDbLine
 10
4.485
 20
12.71203296034573
 30
0.0
 11
4.483999999999999
 21
12.71003296034573
 31
0.0
  0
LINE
  5
912
330
18
100
AcDbEntity
  8
Object
100
AcDbLine
 10
4.528
 20
12.68303296034573
 30
0.0
 11
4.490999999999999
 21
12.71203296034573
 31
0.0
  0
LINE
  5
913
330
18
100
AcDbEntity
  8
Object
100
AcDbLine
 10
4.469
 20
12.70703296034573
 30
0.0
 11
4.480999999999999
 21
12.70603296034573
 31
0.0
  0
LINE
  5
914
330
18
100
AcDbEntity
  8
Object
100
AcDbLine
 10
4.483999999999999
 20
12.71003296034573
 30
0.0
 11
4.469999999999999
 21
12.70903296034573
 31
0.0
  0
LINE
  5
915
330
18
100
AcDbEntity
  8
Object
100
AcDbLine
 10
4.469
 20
12.70703296034573
 30
0.0
 11
4.464999999999999
 21
12.70803296034572
 31
0.0
  0
LINE
  5
916
330
18
100
AcDbEntity
  8
Object
100
AcDbLine
 10
4.464999999999999
 20
12.70803296034572
 30
0.0
 11
4.469999999999999
 21
12.70903296034573
 31
0.0
  0
LINE
  5
917
330
18
100
AcDbEntity
  8
Object
100
AcDbLine
 10
4.503
 20
12.68203296034573
 30
0.0
 11
4.528
 21
12.68303296034573
 31
0.0
  0
LINE
  5
918
330
18
100
AcDbEntity
  8
Object
100
AcDbLine
 10
4.474
 20
12.69703296034573
 30
0.0
 11
4.407
 21
12.69703296034573
 31
0.0
  0
LINE
  5
919
330
18
100
AcDbEntity
  8
Object
100
AcDbLine
 10
4.503
 20
12.68203296034573
 30
0.0
 11
4.472999999999999
 21
12.68003296034573
 31
0.0
  0
LINE
  5
91A
330
18
100
AcDbEntity
  8
Object
100
AcDbLine
 10
4.472999999999999
 20
12.68003296034573
 30
0.0
 11
4.437999999999999
 21
12.67803296034573
 31
0.0
  0
LINE
  5
91B
330
18
100
AcDbEntity
  8
Object
100
AcDbLine
 10
4.437999999999999
 20
12.67803296034573
 30
0.0
 11
4.397999999999999
 21
12.67703296034573
 31
0.0
  0
LINE
  5
91C
330
18
100
AcDbEntity
  8
Object
100
AcDbLine
 10
4.397999999999999
 20
12.67703296034573
 30
0.0
 11
4.354
 21
12.67603296034573
 31
0.0
  0
LINE
  5
91D
330
18
100
AcDbEntity
  8
Object
100
AcDbLine
 10
4.354
 20
12.67603296034573
 30
0.0
 11
4.307
 21
12.67403296034573
 31
0.0
  0
LINE
  5
91E
330
18
100
AcDbEntity
  8
Object
100
AcDbLine
 10
4.307
 20
12.67403296034573
 30
0.0
 11
4.256999999999999
 21
12.67303296034573
 31
0.0
  0
LINE
  5
91F
330
18
100
AcDbEntity
  8
Object
100
AcDbLine
 10
5.884999999999999
 20
13.47103296034573
 30
0.0
 11
5.887999999999999
 21
13.47703296034573
 31
0.0
  0
LINE
  5
920
330
18
100
AcDbEntity
  8
Object
100
AcDbLine
 10
5.887999999999999
 20
13.47703296034573
 30
0.0
 11
5.820999999999999
 21
13.54703296034573
 31
0.0
  0
LINE
  5
921
330
18
100
AcDbEntity
  8
Object
100
AcDbLine
 10
5.820999999999999
 20
13.54703296034573
 30
0.0
 11
5.782
 21
13.58003296034573
 31
0.0
  0
LINE
  5
922
330
18
100
AcDbEntity
  8
Object
100
AcDbLine
 10
5.782
 20
13.58003296034573
 30
0.0
 11
5.735999999999999
 21
13.61303296034573
 31
0.0
  0
LINE
  5
923
330
18
100
AcDbEntity
  8
Object
100
AcDbLine
 10
5.735999999999999
 20
13.61303296034573
 30
0.0
 11
5.709
 21
13.63103296034573
 31
0.0
  0
LINE
  5
924
330
18
100
AcDbEntity
  8
Object
100
AcDbLine
 10
5.709
 20
13.63103296034573
 30
0.0
 11
5.679
 21
13.64803296034573
 31
0.0
  0
LINE
  5
925
330
18
100
AcDbEntity
  8
Object
100
AcDbLine
 10
5.679
 20
13.64803296034573
 30
0.0
 11
5.647
 21
13.66403296034573
 31
0.0
  0
LINE
  5
926
330
18
100
AcDbEntity
  8
Object
100
AcDbLine
 10
5.647
 20
13.66403296034573
 30
0.0
 11
5.613999999999999
 21
13.67903296034573
 31
0.0
  0
LINE
  5
927
330
18
100
AcDbEntity
  8
Object
100
AcDbLine
 10
5.613999999999999
 20
13.67903296034573
 30
0.0
 11
5.581
 21
13.69103296034573
 31
0.0
  0
LINE
  5
928
330
18
100
AcDbEntity
  8
Object
100
AcDbLine
 10
5.581
 20
13.69103296034573
 30
0.0
 11
5.549
 21
13.70203296034573
 31
0.0
  0
LINE
  5
929
330
18
100
AcDbEntity
  8
Object
100
AcDbLine
 10
5.549
 20
13.70203296034573
 30
0.0
 11
5.485999999999999
 21
13.71803296034573
 31
0.0
  0
LINE
  5
92A
330
18
100
AcDbEntity
  8
Object
100
AcDbLine
 10
4.483999999999999
 20
13.14103296034573
 30
0.0
 11
4.485
 21
13.13903296034573
 31
0.0
  0
LINE
  5
92B
330
18
100
AcDbEntity
  8
Object
100
AcDbLine
 10
4.490999999999999
 20
13.13903296034573
 30
0.0
 11
4.528
 21
13.16803296034573
 31
0.0
  0
LINE
  5
92C
330
18
100
AcDbEntity
  8
Object
100
AcDbLine
 10
4.480999999999999
 20
13.14503296034573
 30
0.0
 11
4.469
 21
13.14403296034573
 31
0.0
  0
LINE
  5
92D
330
18
100
AcDbEntity
  8
Object
100
AcDbLine
 10
4.483999999999999
 20
13.14103296034573
 30
0.0
 11
4.469999999999999
 21
13.14203296034573
 31
0.0
  0
LINE
  5
92E
330
18
100
AcDbEntity
  8
Object
100
AcDbLine
 10
4.469999999999999
 20
13.14203296034573
 30
0.0
 11
4.464999999999999
 21
13.14303296034573
 31
0.0
  0
LINE
  5
92F
330
18
100
AcDbEntity
  8
Object
100
AcDbLine
 10
4.464999999999999
 20
13.14303296034573
 30
0.0
 11
4.469
 21
13.14403296034573
 31
0.0
  0
LINE
  5
930
330
18
100
AcDbEntity
  8
Object
100
AcDbLine
 10
4.474
 20
13.15403296034573
 30
0.0
 11
4.407
 21
13.15403296034573
 31
0.0
  0
LINE
  5
931
330
18
100
AcDbEntity
  8
Object
100
AcDbLine
 10
4.407
 20
13.15403296034573
 30
0.0
 11
4.399
 21
13.16203296034573
 31
0.0
  0
LINE
  5
932
330
18
100
AcDbEntity
  8
Object
100
AcDbLine
 10
4.415
 20
13.17403296034573
 30
0.0
 11
4.459
 21
13.17203296034573
 31
0.0
  0
LINE
  5
933
330
18
100
AcDbEntity
  8
Object
100
AcDbLine
 10
4.459
 20
13.17203296034573
 30
0.0
 11
4.498
 21
13.17003296034573
 31
0.0
  0
LINE
  5
934
330
18
100
AcDbEntity
  8
Object
100
AcDbLine
 10
4.498
 20
13.17003296034573
 30
0.0
 11
4.528
 21
13.16803296034573
 31
0.0
  0
LINE
  5
935
330
18
100
AcDbEntity
  8
Object
100
AcDbLine
 10
4.415
 20
13.17403296034573
 30
0.0
 11
4.363999999999999
 21
13.17503296034573
 31
0.0
  0
LINE
  5
936
330
18
100
AcDbEntity
  8
Object
100
AcDbLine
 10
4.125
 20
13.16203296034573
 30
0.0
 11
4.399
 21
13.16203296034573
 31
0.0
  0
LINE
  5
937
330
18
100
AcDbEntity
  8
Object
100
AcDbLine
 10
4.115
 20
13.17903296034573
 30
0.0
 11
4.182
 21
13.17903296034573
 31
0.0
  0
LINE
  5
938
330
18
100
AcDbEntity
  8
Object
100
AcDbLine
 10
4.182
 20
13.17903296034573
 30
0.0
 11
4.246
 21
13.17803296034573
 31
0.0
  0
LINE
  5
939
330
18
100
AcDbEntity
  8
Object
100
AcDbLine
 10
4.246
 20
13.17803296034573
 30
0.0
 11
4.307
 21
13.17703296034573
 31
0.0
  0
LINE
  5
93A
330
18
100
AcDbEntity
  8
Object
100
AcDbLine
 10
4.307
 20
13.17703296034573
 30
0.0
 11
4.363999999999999
 21
13.17503296034573
 31
0.0
  0
LINE
  5
93B
330
18
100
AcDbEntity
  8
Object
100
AcDbLine
 10
6.057
 20
12.92603296034573
 30
0.0
 11
6.054
 21
13.00003296034573
 31
0.0
  0
LINE
  5
93C
330
18
100
AcDbEntity
  8
Object
100
AcDbLine
 10
6.012999999999999
 20
13.02903296034573
 30
0.0
 11
6.020999999999999
 21
12.92603296034573
 31
0.0
  0
LINE
  5
93D
330
18
100
AcDbEntity
  8
Object
100
AcDbLine
 10
6.054
 20
13.00003296034573
 30
0.0
 11
6.041999999999999
 21
13.07403296034573
 31
0.0
  0
LINE
  5
93E
330
18
100
AcDbEntity
  8
Object
100
AcDbLine
 10
5.996999999999999
 20
13.21603296034573
 30
0.0
 11
6.022999999999999
 21
13.14603296034573
 31
0.0
  0
LINE
  5
93F
330
18
100
AcDbEntity
  8
Object
100
AcDbLine
 10
6.022999999999999
 20
13.14603296034573
 30
0.0
 11
6.041999999999999
 21
13.07403296034573
 31
0.0
  0
LINE
  5
940
330
18
100
AcDbEntity
  8
Object
100
AcDbLine
 10
6.012999999999999
 20
13.02903296034573
 30
0.0
 11
5.991
 21
13.13003296034573
 31
0.0
  0
LINE
  5
941
330
18
100
AcDbEntity
  8
Object
100
AcDbLine
 10
5.991
 20
13.13003296034573
 30
0.0
 11
5.955
 21
13.22703296034573
 31
0.0
  0
LINE
  5
942
330
18
100
AcDbEntity
  8
Object
100
AcDbLine
 10
5.996999999999999
 20
13.21603296034573
 30
0.0
 11
5.964
 21
13.28303296034573
 31
0.0
  0
LINE
  5
943
330
18
100
AcDbEntity
  8
Object
100
AcDbLine
 10
5.964
 20
13.28303296034573
 30
0.0
 11
5.924999999999999
 21
13.34603296034573
 31
0.0
  0
LINE
  5
944
330
18
100
AcDbEntity
  8
Object
100
AcDbLine
 10
5.955
 20
13.22703296034573
 30
0.0
 11
5.905999999999999
 21
13.31803296034573
 31
0.0
  0
LINE
  5
945
330
18
100
AcDbEntity
  8
Object
100
AcDbLine
 10
5.905999999999999
 20
13.31803296034573
 30
0.0
 11
5.844
 21
13.40003296034573
 31
0.0
  0
LINE
  5
946
330
18
100
AcDbEntity
  8
Object
100
AcDbLine
 10
5.844
 20
13.40003296034573
 30
0.0
 11
5.770999999999999
 21
13.47403296034572
 31
0.0
  0
LINE
  5
947
330
18
100
AcDbEntity
  8
Object
100
AcDbLine
 10
5.828
 20
13.45803296034573
 30
0.0
 11
5.772999999999999
 21
13.50703296034573
 31
0.0
  0
LINE
  5
948
330
18
100
AcDbEntity
  8
Object
100
AcDbLine
 10
5.772999999999999
 20
13.50703296034573
 30
0.0
 11
5.713
 21
13.54903296034573
 31
0.0
  0
LINE
  5
949
330
18
100
AcDbEntity
  8
Object
100
AcDbLine
 10
5.770999999999999
 20
13.47403296034572
 30
0.0
 11
5.687999999999999
 21
13.53603296034573
 31
0.0
  0
LINE
  5
94A
330
18
100
AcDbEntity
  8
Object
100
AcDbLine
 10
5.687999999999999
 20
13.53603296034573
 30
0.0
 11
5.597
 21
13.58503296034573
 31
0.0
  0
LINE
  5
94B
330
18
100
AcDbEntity
  8
Object
100
AcDbLine
 10
5.581999999999999
 20
13.61603296034573
 30
0.0
 11
5.512
 21
13.64003296034573
 31
0.0
  0
LINE
  5
94C
330
18
100
AcDbEntity
  8
Object
100
AcDbLine
 10
5.597
 20
13.58503296034573
 30
0.0
 11
5.5
 21
13.62103296034573
 31
0.0
  0
LINE
  5
94D
330
18
100
AcDbEntity
  8
Object
100
AcDbLine
 10
5.5
 20
13.62103296034573
 30
0.0
 11
5.399
 21
13.64303296034573
 31
0.0
  0
LINE
  5
94E
330
18
100
AcDbEntity
  8
Object
100
AcDbLine
 10
5.368999999999999
 20
13.66703296034573
 30
0.0
 11
5.296
 21
13.67003296034573
 31
0.0
  0
LINE
  5
94F
330
18
100
AcDbEntity
  8
Object
100
AcDbLine
 10
5.296
 20
13.65103296034573
 30
0.0
 11
5.399
 21
13.64303296034573
 31
0.0
  0
LINE
  5
950
330
18
100
AcDbEntity
  8
Object
100
AcDbLine
 10
5.296
 20
13.67003296034573
 30
0.0
 11
5.222999999999999
 21
13.66703296034573
 31
0.0
  0
LINE
  5
951
330
18
100
AcDbEntity
  8
Object
100
AcDbLine
 10
5.296
 20
13.65103296034573
 30
0.0
 11
5.193
 21
13.64303296034573
 31
0.0
  0
LINE
  5
952
330
18
100
AcDbEntity
  8
Object
100
AcDbLine
 10
5.193
 20
13.64303296034573
 30
0.0
 11
5.092
 21
13.62103296034573
 31
0.0
  0
LINE
  5
953
330
18
100
AcDbEntity
  8
Object
100
AcDbLine
 10
5.092
 20
13.62103296034573
 30
0.0
 11
4.995
 21
13.58503296034573
 31
0.0
  0
LINE
  5
954
330
18
100
AcDbEntity
  8
Object
100
AcDbLine
 10
4.995
 20
13.58503296034573
 30
0.0
 11
4.903999999999999
 21
13.53603296034573
 31
0.0
  0
LINE
  5
955
330
18
100
AcDbEntity
  8
Object
100
AcDbLine
 10
4.903999999999999
 20
13.53603296034573
 30
0.0
 11
4.820999999999999
 21
13.47403296034572
 31
0.0
  0
LINE
  5
956
330
18
100
AcDbEntity
  8
Object
100
AcDbLine
 10
5.842
 20
13.87103296034573
 30
0.0
 11
5.836
 21
13.87503296034573
 31
0.0
  0
LINE
  5
957
330
18
100
AcDbEntity
  8
Object
100
AcDbLine
 10
5.836
 20
13.87503296034573
 30
0.0
 11
5.823999999999999
 21
13.88203296034573
 31
0.0
  0
LINE
  5
958
330
18
100
AcDbEntity
  8
Object
100
AcDbLine
 10
5.823999999999999
 20
13.88203296034573
 30
0.0
 11
5.82
 21
13.88503296034573
 31
0.0
  0
LINE
  5
959
330
18
100
AcDbEntity
  8
Object
100
AcDbLine
 10
5.82
 20
13.88503296034573
 30
0.0
 11
5.812
 21
13.91503296034573
 31
0.0
  0
LINE
  5
95A
330
18
100
AcDbEntity
  8
Object
100
AcDbLine
 10
5.629999999999999
 20
13.97803296034573
 30
0.0
 11
5.639
 21
13.95403296034573
 31
0.0
  0
LINE
  5
95B
330
18
100
AcDbEntity
  8
Object
100
AcDbLine
 10
5.52
 20
12.10003296034573
 30
0.0
 11
5.522999999999999
 21
12.09703296034573
 31
0.0
  0
LINE
  5
95C
330
18
100
AcDbEntity
  8
Object
100
AcDbLine
 10
5.522999999999999
 20
12.09703296034573
 30
0.0
 11
5.514
 21
12.09503296034573
 31
0.0
  0
LINE
  5
95D
330
18
100
AcDbEntity
  8
Object
100
AcDbLine
 10
5.522999999999999
 20
12.09703296034573
 30
0.0
 11
5.520999999999999
 21
12.10303296034573
 31
0.0
  0
LINE
  5
95E
330
18
100
AcDbEntity
  8
Object
100
AcDbLine
 10
5.520999999999999
 20
12.10303296034573
 30
0.0
 11
5.514999999999999
 21
12.11503296034573
 31
0.0
  0
LINE
  5
95F
330
18
100
AcDbEntity
  8
Object
100
AcDbLine
 10
5.52
 20
12.10003296034573
 30
0.0
 11
5.512999999999999
 21
12.11003296034573
 31
0.0
  0
LINE
  5
960
330
18
100
AcDbEntity
  8
Object
100
AcDbLine
 10
4.464999999999999
 20
12.70803296034572
 30
0.0
 11
4.467999999999999
 21
12.69703296034573
 31
0.0
  0
LINE
  5
961
330
18
100
AcDbEntity
  8
Object
100
AcDbLine
 10
5.91
 20
11.91403296034573
 30
0.0
 11
5.905
 21
11.91203296034573
 31
0.0
  0
LINE
  5
962
330
18
100
AcDbEntity
  8
Object
100
AcDbLine
 10
5.905
 20
11.91203296034573
 30
0.0
 11
5.892999999999999
 21
11.90603296034573
 31
0.0
  0
LINE
  5
963
330
18
100
AcDbEntity
  8
Object
100
AcDbLine
 10
5.892999999999999
 20
11.90603296034573
 30
0.0
 11
5.887
 21
11.90203296034573
 31
0.0
  0
LINE
  5
964
330
18
100
AcDbEntity
  8
Object
100
AcDbLine
 10
5.899
 20
12.31503296034573
 30
0.0
 11
5.907
 21
12.32303296034573
 31
0.0
  0
LINE
  5
965
330
18
100
AcDbEntity
  8
Object
100
AcDbLine
 10
5.907
 20
13.52703296034573
 30
0.0
 11
5.899
 21
13.53603296034573
 31
0.0
  0
LINE
  5
966
330
18
100
AcDbEntity
  8
Object
100
AcDbLine
 10
4.232999999999999
 20
12.70903296034573
 30
0.0
 11
4.217
 21
12.68903296034572
 31
0.0
  0
LINE
  5
967
330
18
100
AcDbEntity
  8
Object
100
AcDbLine
 10
4.217
 20
12.68903296034572
 30
0.0
 11
4.399
 21
12.68903296034572
 31
0.0
  0
LINE
  5
968
330
18
100
AcDbEntity
  8
Object
100
AcDbLine
 10
4.203999999999999
 20
12.92603296034573
 30
0.0
 11
4.203999999999999
 21
12.91803296034573
 31
0.0
  0
LINE
  5
969
330
18
100
AcDbEntity
  8
Object
100
AcDbLine
 10
4.203999999999999
 20
12.91803296034573
 30
0.0
 11
4.203
 21
12.90503296034573
 31
0.0
  0
LINE
  5
96A
330
18
100
AcDbEntity
  8
Object
100
AcDbLine
 10
4.203
 20
12.90503296034573
 30
0.0
 11
4.203
 21
12.90003296034573
 31
0.0
  0
LINE
  5
96B
330
18
100
AcDbEntity
  8
Object
100
AcDbLine
 10
4.407
 20
12.69703296034573
 30
0.0
 11
4.399
 21
12.68903296034572
 31
0.0
  0
LINE
  5
96C
330
18
100
AcDbEntity
  8
Object
100
AcDbLine
 10
5.887999999999999
 20
12.37503296034573
 30
0.0
 11
5.884
 21
12.33503296034573
 31
0.0
  0
LINE
  5
96D
330
18
100
AcDbEntity
  8
Object
100
AcDbLine
 10
5.884
 20
12.33503296034573
 30
0.0
 11
5.802
 21
12.26403296034573
 31
0.0
  0
LINE
  5
96E
330
18
100
AcDbEntity
  8
Object
100
AcDbLine
 10
5.802
 20
12.26403296034573
 30
0.0
 11
5.711999999999999
 21
12.20403296034573
 31
0.0
  0
LINE
  5
96F
330
18
100
AcDbEntity
  8
Object
100
AcDbLine
 10
5.512999999999999
 20
12.12103296034573
 30
0.0
 11
5.616
 21
12.15603296034573
 31
0.0
  0
LINE
  5
970
330
18
100
AcDbEntity
  8
Object
100
AcDbLine
 10
5.886
 20
12.33003296034573
 30
0.0
 11
5.945999999999999
 21
12.22603296034573
 31
0.0
  0
LINE
  5
971
330
18
100
AcDbEntity
  8
Object
100
AcDbLine
 10
5.945999999999999
 20
12.22603296034573
 30
0.0
 11
5.863
 21
12.15803296034573
 31
0.0
  0
LINE
  5
972
330
18
100
AcDbEntity
  8
Object
100
AcDbLine
 10
5.886
 20
12.33003296034573
 30
0.0
 11
5.884
 21
12.33503296034573
 31
0.0
  0
LINE
  5
973
330
18
100
AcDbEntity
  8
Object
100
AcDbLine
 10
5.863
 20
12.15803296034573
 30
0.0
 11
5.772999999999999
 21
12.09903296034573
 31
0.0
  0
LINE
  5
974
330
18
100
AcDbEntity
  8
Object
100
AcDbLine
 10
5.772999999999999
 20
12.09903296034573
 30
0.0
 11
5.677
 21
12.05003296034573
 31
0.0
  0
LINE
  5
975
330
18
100
AcDbEntity
  8
Object
100
AcDbLine
 10
5.711999999999999
 20
12.20403296034573
 30
0.0
 11
5.616
 21
12.15603296034573
 31
0.0
  0
LINE
  5
976
330
18
100
AcDbEntity
  8
Object
100
AcDbLine
 10
5.677
 20
12.05003296034573
 30
0.0
 11
5.576
 21
12.01303296034573
 31
0.0
  0
LINE
  5
977
330
18
100
AcDbEntity
  8
Object
100
AcDbLine
 10
5.576
 20
12.01303296034573
 30
0.0
 11
5.516
 21
12.11703296034573
 31
0.0
  0
LINE
  5
978
330
18
100
AcDbEntity
  8
Object
100
AcDbLine
 10
5.516
 20
12.11703296034573
 30
0.0
 11
5.514999999999999
 21
12.11503296034573
 31
0.0
  0
LINE
  5
979
330
18
100
AcDbEntity
  8
Object
100
AcDbLine
 10
5.516
 20
13.73403296034573
 30
0.0
 11
5.514999999999999
 21
13.73603296034573
 31
0.0
  0
LINE
  5
97A
330
18
100
AcDbEntity
  8
Object
100
AcDbLine
 10
5.887999999999999
 20
13.47703296034573
 30
0.0
 11
5.884
 21
13.51603296034572
 31
0.0
  0
LINE
  5
97B
330
18
100
AcDbEntity
  8
Object
100
AcDbLine
 10
5.884
 20
13.51603296034572
 30
0.0
 11
5.802
 21
13.58703296034573
 31
0.0
  0
LINE
  5
97C
330
18
100
AcDbEntity
  8
Object
100
AcDbLine
 10
5.802
 20
13.58703296034573
 30
0.0
 11
5.711999999999999
 21
13.64703296034573
 31
0.0
  0
LINE
  5
97D
330
18
100
AcDbEntity
  8
Object
100
AcDbLine
 10
5.711999999999999
 20
13.64703296034573
 30
0.0
 11
5.616
 21
13.69503296034572
 31
0.0
  0
LINE
  5
97E
330
18
100
AcDbEntity
  8
Object
100
AcDbLine
 10
5.616
 20
13.69503296034572
 30
0.0
 11
5.512999999999999
 21
13.73003296034573
 31
0.0
  0
LINE
  5
97F
330
18
100
AcDbEntity
  8
Object
100
AcDbLine
 10
5.520999999999999
 20
13.74903296034573
 30
0.0
 11
5.522999999999999
 21
13.75403296034573
 31
0.0
  0
LINE
  5
980
330
18
100
AcDbEntity
  8
Object
100
AcDbLine
 10
5.522999999999999
 20
13.75403296034573
 30
0.0
 11
5.514
 21
13.75603296034572
 31
0.0
  0
LINE
  5
981
330
18
100
AcDbEntity
  8
Object
100
AcDbLine
 10
5.52
 20
13.75103296034573
 30
0.0
 11
5.522999999999999
 21
13.75403296034573
 31
0.0
  0
LINE
  5
982
330
18
100
AcDbEntity
  8
Object
100
AcDbLine
 10
5.514999999999999
 20
13.73603296034573
 30
0.0
 11
5.520999999999999
 21
13.74903296034573
 31
0.0
  0
LINE
  5
983
330
18
100
AcDbEntity
  8
Object
100
AcDbLine
 10
5.512999999999999
 20
13.74103296034573
 30
0.0
 11
5.52
 21
13.75103296034573
 31
0.0
  0
LINE
  5
984
330
18
100
AcDbEntity
  8
Object
100
AcDbLine
 10
4.467999999999999
 20
13.15403296034573
 30
0.0
 11
4.464999999999999
 21
13.14303296034573
 31
0.0
  0
LINE
  5
985
330
18
100
AcDbEntity
  8
Object
100
AcDbLine
 10
5.863
 20
13.69403296034573
 30
0.0
 11
5.945999999999999
 21
13.62503296034573
 31
0.0
  0
LINE
  5
986
330
18
100
AcDbEntity
  8
Object
100
AcDbLine
 10
5.945999999999999
 20
13.62503296034573
 30
0.0
 11
5.886
 21
13.52103296034573
 31
0.0
  0
LINE
  5
987
330
18
100
AcDbEntity
  8
Object
100
AcDbLine
 10
5.886
 20
13.52103296034573
 30
0.0
 11
5.884
 21
13.51603296034572
 31
0.0
  0
LINE
  5
988
330
18
100
AcDbEntity
  8
Object
100
AcDbLine
 10
5.863
 20
13.69403296034573
 30
0.0
 11
5.772999999999999
 21
13.75303296034573
 31
0.0
  0
LINE
  5
989
330
18
100
AcDbEntity
  8
Object
100
AcDbLine
 10
5.772999999999999
 20
13.75303296034573
 30
0.0
 11
5.677
 21
13.80103296034573
 31
0.0
  0
LINE
  5
98A
330
18
100
AcDbEntity
  8
Object
100
AcDbLine
 10
5.677
 20
13.80103296034573
 30
0.0
 11
5.576
 21
13.83903296034573
 31
0.0
  0
LINE
  5
98B
330
18
100
AcDbEntity
  8
Object
100
AcDbLine
 10
5.576
 20
13.83903296034573
 30
0.0
 11
5.516
 21
13.73403296034573
 31
0.0
  0
LINE
  5
98C
330
18
100
AcDbEntity
  8
Object
100
AcDbLine
 10
5.886
 20
13.94903296034573
 30
0.0
 11
5.881
 21
13.95303296034573
 31
0.0
  0
LINE
  5
98D
330
18
100
AcDbEntity
  8
Object
100
AcDbLine
 10
5.881
 20
13.95303296034573
 30
0.0
 11
5.868999999999999
 21
13.96003296034573
 31
0.0
  0
LINE
  5
98E
330
18
100
AcDbEntity
  8
Object
100
AcDbLine
 10
5.868999999999999
 20
13.96003296034573
 30
0.0
 11
5.865
 21
13.96303296034573
 31
0.0
  0
LINE
  5
98F
330
18
100
AcDbEntity
  8
Object
100
AcDbLine
 10
5.991
 20
12.72103296034573
 30
0.0
 11
5.955
 21
12.62403296034573
 31
0.0
  0
LINE
  5
990
330
18
100
AcDbEntity
  8
Object
100
AcDbLine
 10
5.844
 20
12.45103296034573
 30
0.0
 11
5.770999999999999
 21
12.37803296034573
 31
0.0
  0
LINE
  5
991
330
18
100
AcDbEntity
  8
Object
100
AcDbLine
 10
4.748
 20
13.40003296034573
 30
0.0
 11
4.820999999999999
 21
13.47403296034572
 31
0.0
  0
LINE
  5
992
330
18
100
AcDbEntity
  8
Object
100
AcDbLine
 10
4.820999999999999
 20
12.37803296034573
 30
0.0
 11
4.748
 21
12.45103296034573
 31
0.0
  0
LINE
  5
993
330
18
100
AcDbEntity
  8
Object
100
AcDbLine
 10
4.685999999999999
 20
13.31803296034573
 30
0.0
 11
4.748
 21
13.40003296034573
 31
0.0
  0
LINE
  5
994
330
18
100
AcDbEntity
  8
Object
100
AcDbLine
 10
4.748
 20
12.45103296034573
 30
0.0
 11
4.685999999999999
 21
12.53403296034573
 31
0.0
  0
LINE
  5
995
330
18
100
AcDbEntity
  8
Object
100
AcDbLine
 10
4.636
 20
13.22703296034573
 30
0.0
 11
4.685999999999999
 21
13.31803296034573
 31
0.0
  0
LINE
  5
996
330
18
100
AcDbEntity
  8
Object
100
AcDbLine
 10
4.685999999999999
 20
12.53403296034573
 30
0.0
 11
4.636
 21
12.62403296034573
 31
0.0
  0
LINE
  5
997
330
18
100
AcDbEntity
  8
Object
100
AcDbLine
 10
4.6
 20
13.13003296034573
 30
0.0
 11
4.636
 21
13.22703296034573
 31
0.0
  0
LINE
  5
998
330
18
100
AcDbEntity
  8
Object
100
AcDbLine
 10
4.636
 20
12.62403296034573
 30
0.0
 11
4.6
 21
12.72103296034573
 31
0.0
  0
LINE
  5
999
330
18
100
AcDbEntity
  8
Object
100
AcDbLine
 10
4.578
 20
13.02903296034573
 30
0.0
 11
4.6
 21
13.13003296034573
 31
0.0
  0
LINE
  5
99A
330
18
100
AcDbEntity
  8
Object
100
AcDbLine
 10
4.6
 20
12.72103296034573
 30
0.0
 11
4.578
 21
12.82203296034573
 31
0.0
  0
LINE
  5
99B
330
18
100
AcDbEntity
  8
Object
100
AcDbLine
 10
4.578
 20
13.02903296034573
 30
0.0
 11
4.570999999999999
 21
12.92603296034573
 31
0.0
  0
LINE
  5
99C
330
18
100
AcDbEntity
  8
Object
100
AcDbLine
 10
4.570999999999999
 20
12.92603296034573
 30
0.0
 11
4.578
 21
12.82203296034573
 31
0.0
  0
LINE
  5
99D
330
18
100
AcDbEntity
  8
Object
100
AcDbLine
 10
4.512
 20
13.10903296034573
 30
0.0
 11
4.528
 21
13.16803296034573
 31
0.0
  0
LINE
  5
99E
330
18
100
AcDbEntity
  8
Object
100
AcDbLine
 10
4.498999999999999
 20
12.80003296034573
 30
0.0
 11
4.512
 21
12.74103296034573
 31
0.0
  0
LINE
  5
99F
330
18
100
AcDbEntity
  8
Object
100
AcDbLine
 10
4.512
 20
12.74103296034573
 30
0.0
 11
4.528
 21
12.68303296034573
 31
0.0
  0
LINE
  5
9A0
330
18
100
AcDbEntity
  8
Object
100
AcDbLine
 10
4.498999999999999
 20
13.05003296034573
 30
0.0
 11
4.512
 21
13.10903296034573
 31
0.0
  0
LINE
  5
9A1
330
18
100
AcDbEntity
  8
Object
100
AcDbLine
 10
4.490999999999999
 20
13.13903296034573
 30
0.0
 11
4.469999999999999
 21
13.03303296034573
 31
0.0
  0
LINE
  5
9A2
330
18
100
AcDbEntity
  8
Object
100
AcDbLine
 10
4.490999999999999
 20
12.98903296034573
 30
0.0
 11
4.498999999999999
 21
13.05003296034573
 31
0.0
  0
LINE
  5
9A3
330
18
100
AcDbEntity
  8
Object
100
AcDbLine
 10
4.498999999999999
 20
12.80003296034573
 30
0.0
 11
4.490999999999999
 21
12.85903296034573
 31
0.0
  0
LINE
  5
9A4
330
18
100
AcDbEntity
  8
Object
100
AcDbLine
 10
4.469999999999999
 20
12.81803296034573
 30
0.0
 11
4.490999999999999
 21
12.71203296034573
 31
0.0
  0
LINE
  5
9A5
330
18
100
AcDbEntity
  8
Object
100
AcDbLine
 10
4.490999999999999
 20
12.98903296034573
 30
0.0
 11
4.488999999999999
 21
12.95703296034573
 31
0.0
  0
LINE
  5
9A6
330
18
100
AcDbEntity
  8
Object
100
AcDbLine
 10
4.488999999999999
 20
12.95703296034573
 30
0.0
 11
4.488
 21
12.92403296034573
 31
0.0
  0
LINE
  5
9A7
330
18
100
AcDbEntity
  8
Object
100
AcDbLine
 10
4.488
 20
12.92403296034573
 30
0.0
 11
4.488999999999999
 21
12.89103296034572
 31
0.0
  0
LINE
  5
9A8
330
18
100
AcDbEntity
  8
Object
100
AcDbLine
 10
4.488999999999999
 20
12.89103296034572
 30
0.0
 11
4.490999999999999
 21
12.85903296034573
 31
0.0
  0
LINE
  5
9A9
330
18
100
AcDbEntity
  8
Object
100
AcDbLine
 10
4.490999999999999
 20
13.13903296034573
 30
0.0
 11
4.485
 21
13.13903296034573
 31
0.0
  0
LINE
  5
9AA
330
18
100
AcDbEntity
  8
Object
100
AcDbLine
 10
4.485
 20
12.71203296034573
 30
0.0
 11
4.490999999999999
 21
12.71203296034573
 31
0.0
  0
LINE
  5
9AB
330
18
100
AcDbEntity
  8
Object
100
AcDbLine
 10
4.485
 20
13.13903296034573
 30
0.0
 11
4.365
 21
13.13903296034573
 31
0.0
  0
LINE
  5
9AC
330
18
100
AcDbEntity
  8
Object
100
AcDbLine
 10
4.365
 20
12.71203296034573
 30
0.0
 11
4.485
 21
12.71203296034573
 31
0.0
  0
LINE
  5
9AD
330
18
100
AcDbEntity
  8
Object
100
AcDbLine
 10
4.365
 20
13.13903296034573
 30
0.0
 11
4.347
 21
13.03303296034573
 31
0.0
  0
LINE
  5
9AE
330
18
100
AcDbEntity
  8
Object
100
AcDbLine
 10
4.463
 20
12.92603296034573
 30
0.0
 11
4.469999999999999
 21
13.03303296034573
 31
0.0
  0
LINE
  5
9AF
330
18
100
AcDbEntity
  8
Object
100
AcDbLine
 10
4.347
 20
12.81803296034573
 30
0.0
 11
4.365
 21
12.71203296034573
 31
0.0
  0
LINE
  5
9B0
330
18
100
AcDbEntity
  8
Object
100
AcDbLine
 10
4.469999999999999
 20
12.81803296034573
 30
0.0
 11
4.463
 21
12.92603296034573
 31
0.0
  0
LINE
  5
9B1
330
18
100
AcDbEntity
  8
Object
100
AcDbLine
 10
4.347
 20
13.03303296034573
 30
0.0
 11
4.341
 21
12.92603296034573
 31
0.0
  0
LINE
  5
9B2
330
18
100
AcDbEntity
  8
Object
100
AcDbLine
 10
4.341
 20
12.92603296034573
 30
0.0
 11
4.347
 21
12.81803296034573
 31
0.0
  0
LINE
  5
9B3
330
18
100
AcDbEntity
  8
Object
100
AcDbLine
 10
5.863
 20
12.15803296034573
 30
0.0
 11
5.945
 21
12.22503296034573
 31
0.0
  0
LINE
  5
9B4
330
18
100
AcDbEntity
  8
Object
100
AcDbLine
 10
5.945
 20
12.22503296034573
 30
0.0
 11
5.945999999999999
 21
12.22603296034573
 31
0.0
  0
LINE
  5
9B5
330
18
100
AcDbEntity
  8
Object
100
AcDbLine
 10
5.945
 20
12.22503296034573
 30
0.0
 11
5.863
 21
12.15803296034573
 31
0.0
  0
LINE
  5
9B6
330
18
100
AcDbEntity
  8
Object
100
AcDbLine
 10
5.863
 20
12.15803296034573
 30
0.0
 11
5.863
 21
12.15703296034573
 31
0.0
  0
LINE
  5
9B7
330
18
100
AcDbEntity
  8
Object
100
AcDbLine
 10
5.863
 20
12.15703296034573
 30
0.0
 11
5.945
 21
12.22503296034573
 31
0.0
  0
LINE
  5
9B8
330
18
100
AcDbEntity
  8
Object
100
AcDbLine
 10
5.863
 20
12.15803296034573
 30
0.0
 11
5.863
 21
12.15703296034573
 31
0.0
  0
LINE
  5
9B9
330
18
100
AcDbEntity
  8
Object
100
AcDbLine
 10
5.863
 20
12.15703296034573
 30
0.0
 11
5.772999999999999
 21
12.09903296034573
 31
0.0
  0
LINE
  5
9BA
330
18
100
AcDbEntity
  8
Object
100
AcDbLine
 10
5.772999999999999
 20
12.09903296034573
 30
0.0
 11
5.863
 21
12.15803296034573
 31
0.0
  0
LINE
  5
9BB
330
18
100
AcDbEntity
  8
Object
100
AcDbLine
 10
5.863
 20
12.15703296034573
 30
0.0
 11
5.772999999999999
 21
12.09903296034573
 31
0.0
  0
LINE
  5
9BC
330
18
100
AcDbEntity
  8
Object
100
AcDbLine
 10
5.772999999999999
 20
12.09903296034573
 30
0.0
 11
5.863
 21
12.15703296034573
 31
0.0
  0
LINE
  5
9BD
330
18
100
AcDbEntity
  8
Object
100
AcDbLine
 10
5.772999999999999
 20
12.09903296034573
 30
0.0
 11
5.677999999999999
 21
12.05003296034573
 31
0.0
  0
LINE
  5
9BE
330
18
100
AcDbEntity
  8
Object
100
AcDbLine
 10
5.677999999999999
 20
12.05003296034573
 30
0.0
 11
5.772999999999999
 21
12.09903296034573
 31
0.0
  0
LINE
  5
9BF
330
18
100
AcDbEntity
  8
Object
100
AcDbLine
 10
5.772999999999999
 20
12.09903296034573
 30
0.0
 11
5.677999999999999
 21
12.05003296034573
 31
0.0
  0
LINE
  5
9C0
330
18
100
AcDbEntity
  8
Object
100
AcDbLine
 10
5.677999999999999
 20
12.05003296034573
 30
0.0
 11
5.677
 21
12.05003296034573
 31
0.0
  0
LINE
  5
9C1
330
18
100
AcDbEntity
  8
Object
100
AcDbLine
 10
5.677
 20
12.05003296034573
 30
0.0
 11
5.772999999999999
 21
12.09903296034573
 31
0.0
  0
LINE
  5
9C2
330
18
100
AcDbEntity
  8
Object
100
AcDbLine
 10
5.677999999999999
 20
12.05003296034573
 30
0.0
 11
5.677
 21
12.05003296034573
 31
0.0
  0
LINE
  5
9C3
330
18
100
AcDbEntity
  8
Object
100
AcDbLine
 10
5.677
 20
12.05003296034573
 30
0.0
 11
5.578
 21
12.01303296034573
 31
0.0
  0
LINE
  5
9C4
330
18
100
AcDbEntity
  8
Object
100
AcDbLine
 10
5.578
 20
12.01303296034573
 30
0.0
 11
5.677999999999999
 21
12.05003296034573
 31
0.0
  0
LINE
  5
9C5
330
18
100
AcDbEntity
  8
Object
100
AcDbLine
 10
5.677
 20
12.05003296034573
 30
0.0
 11
5.578
 21
12.01303296034573
 31
0.0
  0
LINE
  5
9C6
330
18
100
AcDbEntity
  8
Object
100
AcDbLine
 10
5.578
 20
12.01303296034573
 30
0.0
 11
5.576
 21
12.01303296034573
 31
0.0
  0
LINE
  5
9C7
330
18
100
AcDbEntity
  8
Object
100
AcDbLine
 10
5.945
 20
12.22503296034573
 30
0.0
 11
5.863
 21
12.15703296034573
 31
0.0
  0
LINE
  5
9C8
330
18
100
AcDbEntity
  8
Object
100
AcDbLine
 10
5.863
 20
12.15703296034573
 30
0.0
 11
5.772999999999999
 21
12.09903296034573
 31
0.0
  0
LINE
  5
9C9
330
18
100
AcDbEntity
  8
Object
100
AcDbLine
 10
5.772999999999999
 20
12.09903296034573
 30
0.0
 11
5.677999999999999
 21
12.05003296034573
 31
0.0
  0
LINE
  5
9CA
330
18
100
AcDbEntity
  8
Object
100
AcDbLine
 10
5.677999999999999
 20
12.05003296034573
 30
0.0
 11
5.578
 21
12.01303296034573
 31
0.0
  0
LINE
  5
9CB
330
18
100
AcDbEntity
  8
Object
100
AcDbLine
 10
5.578
 20
13.83803296034573
 30
0.0
 11
5.576
 21
13.83903296034573
 31
0.0
  0
LINE
  5
9CC
330
18
100
AcDbEntity
  8
Object
100
AcDbLine
 10
5.945
 20
13.62603296034573
 30
0.0
 11
5.863
 21
13.69403296034573
 31
0.0
  0
LINE
  5
9CD
330
18
100
AcDbEntity
  8
Object
100
AcDbLine
 10
5.863
 20
13.69403296034573
 30
0.0
 11
5.772999999999999
 21
13.75303296034573
 31
0.0
  0
LINE
  5
9CE
330
18
100
AcDbEntity
  8
Object
100
AcDbLine
 10
5.772999999999999
 20
13.75303296034573
 30
0.0
 11
5.677999999999999
 21
13.80103296034573
 31
0.0
  0
LINE
  5
9CF
330
18
100
AcDbEntity
  8
Object
100
AcDbLine
 10
5.677999999999999
 20
13.80103296034573
 30
0.0
 11
5.578
 21
13.83803296034573
 31
0.0
  0
LINE
  5
9D0
330
18
100
AcDbEntity
  8
Object
100
AcDbLine
 10
5.863
 20
13.69403296034573
 30
0.0
 11
5.945
 21
13.62603296034573
 31
0.0
  0
LINE
  5
9D1
330
18
100
AcDbEntity
  8
Object
100
AcDbLine
 10
5.945
 20
13.62603296034573
 30
0.0
 11
5.945999999999999
 21
13.62503296034573
 31
0.0
  0
LINE
  5
9D2
330
18
100
AcDbEntity
  8
Object
100
AcDbLine
 10
5.945
 20
13.62603296034573
 30
0.0
 11
5.863
 21
13.69403296034573
 31
0.0
  0
LINE
  5
9D3
330
18
100
AcDbEntity
  8
Object
100
AcDbLine
 10
5.863
 20
13.69403296034573
 30
0.0
 11
5.945
 21
13.62603296034573
 31
0.0
  0
LINE
  5
9D4
330
18
100
AcDbEntity
  8
Object
100
AcDbLine
 10
5.863
 20
13.69403296034573
 30
0.0
 11
5.772999999999999
 21
13.75303296034573
 31
0.0
  0
LINE
  5
9D5
330
18
100
AcDbEntity
  8
Object
100
AcDbLine
 10
5.772999999999999
 20
13.75303296034573
 30
0.0
 11
5.863
 21
13.69403296034573
 31
0.0
  0
LINE
  5
9D6
330
18
100
AcDbEntity
  8
Object
100
AcDbLine
 10
5.863
 20
13.69403296034573
 30
0.0
 11
5.772999999999999
 21
13.75303296034573
 31
0.0
  0
LINE
  5
9D7
330
18
100
AcDbEntity
  8
Object
100
AcDbLine
 10
5.772999999999999
 20
13.75303296034573
 30
0.0
 11
5.863
 21
13.69403296034573
 31
0.0
  0
LINE
  5
9D8
330
18
100
AcDbEntity
  8
Object
100
AcDbLine
 10
5.677999999999999
 20
13.80103296034573
 30
0.0
 11
5.772999999999999
 21
13.75303296034573
 31
0.0
  0
LINE
  5
9D9
330
18
100
AcDbEntity
  8
Object
100
AcDbLine
 10
5.772999999999999
 20
13.75303296034573
 30
0.0
 11
5.677999999999999
 21
13.80103296034573
 31
0.0
  0
LINE
  5
9DA
330
18
100
AcDbEntity
  8
Object
100
AcDbLine
 10
5.677999999999999
 20
13.80103296034573
 30
0.0
 11
5.772999999999999
 21
13.75303296034573
 31
0.0
  0
LINE
  5
9DB
330
18
100
AcDbEntity
  8
Object
100
AcDbLine
 10
5.677999999999999
 20
13.80103296034573
 30
0.0
 11
5.677
 21
13.80103296034573
 31
0.0
  0
LINE
  5
9DC
330
18
100
AcDbEntity
  8
Object
100
AcDbLine
 10
5.677
 20
13.80103296034573
 30
0.0
 11
5.677999999999999
 21
13.80103296034573
 31
0.0
  0
LINE
  5
9DD
330
18
100
AcDbEntity
  8
Object
100
AcDbLine
 10
5.772999999999999
 20
13.75303296034573
 30
0.0
 11
5.677
 21
13.80103296034573
 31
0.0
  0
LINE
  5
9DE
330
18
100
AcDbEntity
  8
Object
100
AcDbLine
 10
5.677
 20
13.80103296034573
 30
0.0
 11
5.578
 21
13.83803296034573
 31
0.0
  0
LINE
  5
9DF
330
18
100
AcDbEntity
  8
Object
100
AcDbLine
 10
5.578
 20
13.83803296034573
 30
0.0
 11
5.677999999999999
 21
13.80103296034573
 31
0.0
  0
LINE
  5
9E0
330
18
100
AcDbEntity
  8
Object
100
AcDbLine
 10
5.677
 20
13.80103296034573
 30
0.0
 11
5.578
 21
13.83803296034573
 31
0.0
  0
LINE
  5
9E1
330
18
100
AcDbEntity
  8
Object
100
AcDbLine
 10
4.347
 20
13.03303296034573
 30
0.0
 11
4.341
 21
12.92603296034573
 31
0.0
  0
LINE
  5
9E2
330
18
100
AcDbEntity
  8
Object
100
AcDbLine
 10
4.341
 20
12.92603296034573
 30
0.0
 11
4.347
 21
12.81803296034573
 31
0.0
  0
LINE
  5
9E3
330
18
100
AcDbEntity
  8
Object
100
AcDbLine
 10
5.939
 20
13.61203296034573
 30
0.0
 11
5.956
 21
13.59603296034572
 31
0.0
  0
LINE
  5
9E4
330
18
100
AcDbEntity
  8
Object
100
AcDbLine
 10
5.956
 20
12.25403296034573
 30
0.0
 11
5.939
 21
12.23803296034573
 31
0.0
  0
LINE
  5
9E5
330
18
100
AcDbEntity
  8
Object
100
AcDbLine
 10
5.549
 20
13.83203296034573
 30
0.0
 11
5.568999999999999
 21
13.82703296034573
 31
0.0
  0
LINE
  5
9E6
330
18
100
AcDbEntity
  8
Object
100
AcDbLine
 10
5.568999999999999
 20
12.02403296034573
 30
0.0
 11
5.549
 21
12.01903296034573
 31
0.0
  0
LINE
  5
9E7
330
18
100
AcDbEntity
  8
Object
100
AcDbLine
 10
4.383
 20
13.16203296034573
 30
0.0
 11
4.381999999999999
 21
13.16003296034573
 31
0.0
  0
LINE
  5
9E8
330
18
100
AcDbEntity
  8
Object
100
AcDbLine
 10
4.381999999999999
 20
13.16003296034573
 30
0.0
 11
4.378
 21
13.13903296034573
 31
0.0
  0
LINE
  5
9E9
330
18
100
AcDbEntity
  8
Object
100
AcDbLine
 10
4.381999999999999
 20
12.69103296034573
 30
0.0
 11
4.378
 21
12.71203296034573
 31
0.0
  0
LINE
  5
9EA
330
18
100
AcDbEntity
  8
Object
100
AcDbLine
 10
5.931
 20
12.15803296034573
 30
0.0
 11
5.983
 21
12.20703296034573
 31
0.0
  0
LINE
  5
9EB
330
18
100
AcDbEntity
  8
Object
100
AcDbLine
 10
5.83
 20
12.08403296034573
 30
0.0
 11
5.719999999999999
 21
12.02403296034573
 31
0.0
  0
LINE
  5
9EC
330
18
100
AcDbEntity
  8
Object
100
AcDbLine
 10
5.719999999999999
 20
12.02403296034573
 30
0.0
 11
5.604
 21
11.97803296034573
 31
0.0
  0
LINE
  5
9ED
330
18
100
AcDbEntity
  8
Object
100
AcDbLine
 10
4.383
 20
12.68903296034572
 30
0.0
 11
4.381999999999999
 21
12.69103296034573
 31
0.0
  0
LINE
  5
9EE
330
18
100
AcDbEntity
  8
Object
100
AcDbLine
 10
4.341
 20
12.92603296034573
 30
0.0
 11
4.299
 21
12.92603296034573
 31
0.0
  0
LINE
  5
9EF
330
18
100
AcDbEntity
  8
Object
100
AcDbLine
 10
4.238
 20
12.68903296034572
 30
0.0
 11
4.230999999999999
 21
12.71603296034573
 31
0.0
  0
LINE
  5
9F0
330
18
100
AcDbEntity
  8
Object
100
AcDbLine
 10
4.230999999999999
 20
12.71603296034573
 30
0.0
 11
4.216
 21
12.82003296034573
 31
0.0
  0
LINE
  5
9F1
330
18
100
AcDbEntity
  8
Object
100
AcDbLine
 10
4.216
 20
12.82003296034573
 30
0.0
 11
4.211
 21
12.92603296034573
 31
0.0
  0
LINE
  5
9F2
330
18
100
AcDbEntity
  8
Object
100
AcDbLine
 10
6.028999999999999
 20
12.12703296034573
 30
0.0
 11
6.009999999999999
 21
12.10903296034573
 31
0.0
  0
LINE
  5
9F3
330
18
100
AcDbEntity
  8
Object
100
AcDbLine
 10
6.009999999999999
 20
12.10903296034573
 30
0.0
 11
5.927
 21
12.04303296034573
 31
0.0
  0
LINE
  5
9F4
330
18
100
AcDbEntity
  8
Object
100
AcDbLine
 10
5.927
 20
12.04303296034573
 30
0.0
 11
5.838
 21
11.98603296034573
 31
0.0
  0
LINE
  5
9F5
330
18
100
AcDbEntity
  8
Object
100
AcDbLine
 10
5.838
 20
13.86503296034573
 30
0.0
 11
5.743999999999999
 21
13.91403296034573
 31
0.0
  0
LINE
  5
9F6
330
18
100
AcDbEntity
  8
Object
100
AcDbLine
 10
5.983
 20
13.64403296034573
 30
0.0
 11
5.931
 21
13.69403296034573
 31
0.0
  0
LINE
  5
9F7
330
18
100
AcDbEntity
  8
Object
100
AcDbLine
 10
5.931
 20
13.69403296034573
 30
0.0
 11
5.83
 21
13.76703296034573
 31
0.0
  0
LINE
  5
9F8
330
18
100
AcDbEntity
  8
Object
100
AcDbLine
 10
5.83
 20
13.76703296034573
 30
0.0
 11
5.719999999999999
 21
13.82703296034573
 31
0.0
  0
LINE
  5
9F9
330
18
100
AcDbEntity
  8
Object
100
AcDbLine
 10
5.719999999999999
 20
13.82703296034573
 30
0.0
 11
5.604
 21
13.87303296034573
 31
0.0
  0
LINE
  5
9FA
330
18
100
AcDbEntity
  8
Object
100
AcDbLine
 10
5.604
 20
13.87303296034573
 30
0.0
 11
5.573999999999999
 21
13.88103296034573
 31
0.0
  0
LINE
  5
9FB
330
18
100
AcDbEntity
  8
Object
100
AcDbLine
 10
6.02
 20
12.14303296034573
 30
0.0
 11
5.995
 21
12.11903296034573
 31
0.0
  0
LINE
  5
9FC
330
18
100
AcDbEntity
  8
Object
100
AcDbLine
 10
5.995
 20
12.11903296034573
 30
0.0
 11
5.908
 21
12.05103296034573
 31
0.0
  0
LINE
  5
9FD
330
18
100
AcDbEntity
  8
Object
100
AcDbLine
 10
5.844999999999999
 20
13.84103296034573
 30
0.0
 11
5.871
 21
13.82503296034573
 31
0.0
  0
LINE
  5
9FE
330
18
100
AcDbEntity
  8
Object
100
AcDbLine
 10
5.871
 20
13.82503296034573
 30
0.0
 11
5.897
 21
13.80803296034573
 31
0.0
  0
LINE
  5
9FF
330
18
100
AcDbEntity
  8
Object
100
AcDbLine
 10
5.897
 20
13.80803296034573
 30
0.0
 11
5.921999999999999
 21
13.79003296034573
 31
0.0
  0
LINE
  5
A00
330
18
100
AcDbEntity
  8
Object
100
AcDbLine
 10
5.931
 20
12.15803296034573
 30
0.0
 11
5.83
 21
12.08403296034573
 31
0.0
  0
LINE
  5
A01
330
18
100
AcDbEntity
  8
Object
100
AcDbLine
 10
5.814
 20
11.99303296034573
 30
0.0
 11
5.908
 21
12.05103296034573
 31
0.0
  0
LINE
  5
A02
330
18
100
AcDbEntity
  8
Object
100
AcDbLine
 10
5.844999999999999
 20
13.84103296034573
 30
0.0
 11
5.746999999999999
 21
13.89303296034573
 31
0.0
  0
LINE
  5
A03
330
18
100
AcDbEntity
  8
Object
100
AcDbLine
 10
5.814
 20
11.99303296034573
 30
0.0
 11
5.786999999999999
 21
11.97803296034573
 31
0.0
  0
LINE
  5
A04
330
18
100
AcDbEntity
  8
Object
100
AcDbLine
 10
5.786999999999999
 20
11.97803296034573
 30
0.0
 11
5.759
 21
11.96403296034572
 31
0.0
  0
LINE
  5
A05
330
18
100
AcDbEntity
  8
Object
100
AcDbLine
 10
5.759
 20
11.96403296034572
 30
0.0
 11
5.730999999999999
 21
11.95103296034573
 31
0.0
  0
LINE
  5
A06
330
18
100
AcDbEntity
  8
Object
100
AcDbLine
 10
5.730999999999999
 20
11.95103296034573
 30
0.0
 11
5.79
 21
11.82403296034573
 31
0.0
  0
LINE
  5
A07
330
18
100
AcDbEntity
  8
Object
100
AcDbLine
 10
5.746999999999999
 20
13.89303296034573
 30
0.0
 11
5.644
 21
13.93503296034573
 31
0.0
  0
LINE
  5
A08
330
18
100
AcDbEntity
  8
Object
100
AcDbLine
 10
5.644
 20
13.93503296034573
 30
0.0
 11
5.610999999999999
 21
13.94403296034573
 31
0.0
  0
LINE
  5
A09
330
18
100
AcDbEntity
  8
Object
100
AcDbLine
 10
5.604
 20
11.97803296034573
 30
0.0
 11
5.573999999999999
 21
11.97003296034573
 31
0.0
  0
LINE
  5
A0A
330
18
100
AcDbEntity
  8
Object
100
AcDbLine
 10
4.328
 20
12.68903296034572
 30
0.0
 11
4.307
 21
12.80103296034573
 31
0.0
  0
LINE
  5
A0B
330
18
100
AcDbEntity
  8
Object
100
AcDbLine
 10
4.307
 20
13.05103296034572
 30
0.0
 11
4.328
 21
13.16203296034573
 31
0.0
  0
LINE
  5
A0C
330
18
100
AcDbEntity
  8
Object
100
AcDbLine
 10
4.307
 20
12.80103296034573
 30
0.0
 11
4.299
 21
12.92603296034573
 31
0.0
  0
LINE
  5
A0D
330
18
100
AcDbEntity
  8
Object
100
AcDbLine
 10
4.299
 20
12.92603296034573
 30
0.0
 11
4.307
 21
13.05103296034572
 31
0.0
  0
LINE
  5
A0E
330
18
100
AcDbEntity
  8
Object
100
AcDbLine
 10
4.094
 20
13.04803296034573
 30
0.0
 11
4.233999999999999
 21
13.03603296034573
 31
0.0
  0
LINE
  5
A0F
330
18
100
AcDbEntity
  8
Object
100
AcDbLine
 10
4.088
 20
12.92603296034573
 30
0.0
 11
4.211
 21
12.92603296034573
 31
0.0
  0
LINE
  5
A10
330
18
100
AcDbEntity
  8
Object
100
AcDbLine
 10
4.256
 20
12.68903296034572
 30
0.0
 11
4.248
 21
12.72303296034573
 31
0.0
  0
LINE
  5
A11
330
18
100
AcDbEntity
  8
Object
100
AcDbLine
 10
4.248
 20
12.72303296034573
 30
0.0
 11
4.232
 21
12.83303296034573
 31
0.0
  0
LINE
  5
A12
330
18
100
AcDbEntity
  8
Object
100
AcDbLine
 10
4.211
 20
12.92603296034573
 30
0.0
 11
4.229
 21
12.94303296034573
 31
0.0
  0
LINE
  5
A13
330
18
100
AcDbEntity
  8
Object
100
AcDbLine
 10
4.229
 20
12.94303296034573
 30
0.0
 11
4.232
 21
12.83303296034573
 31
0.0
  0
LINE
  5
A14
330
18
100
AcDbEntity
  8
Object
100
AcDbLine
 10
5.814
 20
11.99303296034573
 30
0.0
 11
5.838
 21
11.98603296034573
 31
0.0
  0
LINE
  5
A15
330
18
100
AcDbEntity
  8
Object
100
AcDbLine
 10
5.838
 20
11.98603296034573
 30
0.0
 11
5.899
 21
11.88003296034572
 31
0.0
  0
LINE
  5
A16
330
18
100
AcDbEntity
  8
Object
100
AcDbLine
 10
5.899
 20
11.88003296034572
 30
0.0
 11
5.838
 21
11.98603296034573
 31
0.0
  0
LINE
  5
A17
330
18
100
AcDbEntity
  8
Object
100
AcDbLine
 10
5.838
 20
11.98603296034573
 30
0.0
 11
5.899
 21
11.88003296034572
 31
0.0
  0
LINE
  5
A18
330
18
100
AcDbEntity
  8
Object
100
AcDbLine
 10
5.899
 20
13.97103296034573
 30
0.0
 11
5.838
 21
13.86503296034573
 31
0.0
  0
LINE
  5
A19
330
18
100
AcDbEntity
  8
Object
100
AcDbLine
 10
5.838
 20
13.86503296034573
 30
0.0
 11
5.844999999999999
 21
13.84103296034573
 31
0.0
  0
LINE
  5
A1A
330
18
100
AcDbEntity
  8
Object
100
AcDbLine
 10
5.743999999999999
 20
13.91403296034573
 30
0.0
 11
5.645999999999999
 21
13.95303296034573
 31
0.0
  0
LINE
  5
A1B
330
18
100
AcDbEntity
  8
Object
100
AcDbLine
 10
5.645999999999999
 20
13.95303296034573
 30
0.0
 11
5.62
 21
13.96003296034573
 31
0.0
  0
LINE
  5
A1C
330
18
100
AcDbEntity
  8
Object
100
AcDbLine
 10
5.921999999999999
 20
13.79003296034573
 30
0.0
 11
6.003
 21
13.90403296034573
 31
0.0
  0
LINE
  5
A1D
330
18
100
AcDbEntity
  8
Object
100
AcDbLine
 10
4.233999999999999
 20
13.03603296034573
 30
0.0
 11
4.230999999999999
 21
13.00503296034573
 31
0.0
  0
LINE
  5
A1E
330
18
100
AcDbEntity
  8
Object
100
AcDbLine
 10
4.230999999999999
 20
13.00503296034573
 30
0.0
 11
4.23
 21
12.97403296034573
 31
0.0
  0
LINE
  5
A1F
330
18
100
AcDbEntity
  8
Object
100
AcDbLine
 10
4.23
 20
12.97403296034573
 30
0.0
 11
4.229
 21
12.94303296034573
 31
0.0
  0
LINE
  5
A20
330
18
100
AcDbEntity
  8
Object
100
AcDbLine
 10
5.905999999999999
 20
13.82303296034573
 30
0.0
 11
5.913
 21
13.81703296034572
 31
0.0
  0
LINE
  5
A21
330
18
100
AcDbEntity
  8
Object
100
AcDbLine
 10
5.913
 20
13.81703296034572
 30
0.0
 11
5.916999999999999
 21
13.81203296034573
 31
0.0
  0
LINE
  5
A22
330
18
100
AcDbEntity
  8
Object
100
AcDbLine
 10
5.916999999999999
 20
13.81203296034573
 30
0.0
 11
5.919
 21
13.80803296034573
 31
0.0
  0
LINE
  5
A23
330
18
100
AcDbEntity
  8
Object
100
AcDbLine
 10
5.905999999999999
 20
13.82303296034573
 30
0.0
 11
5.897
 21
13.82903296034573
 31
0.0
  0
LINE
  5
A24
330
18
100
AcDbEntity
  8
Object
100
AcDbLine
 10
5.921999999999999
 20
13.79003296034573
 30
0.0
 11
5.919
 21
13.80803296034573
 31
0.0
  0
LINE
  5
A25
330
18
100
AcDbEntity
  8
Object
100
AcDbLine
 10
5.897
 20
13.82903296034573
 30
0.0
 11
5.878
 21
13.84103296034573
 31
0.0
  0
LINE
  5
A26
330
18
100
AcDbEntity
  8
Object
100
AcDbLine
 10
5.878
 20
13.84103296034573
 30
0.0
 11
5.858
 21
13.85303296034573
 31
0.0
  0
LINE
  5
A27
330
18
100
AcDbEntity
  8
Object
100
AcDbLine
 10
5.858
 20
13.85303296034573
 30
0.0
 11
5.838
 21
13.86503296034573
 31
0.0
  0
LINE
  5
A28
330
18
100
AcDbEntity
  8
Object
100
AcDbLine
 10
4.233999999999999
 20
13.03603296034573
 30
0.0
 11
4.219999999999999
 21
13.02403296034573
 31
0.0
  0
LINE
  5
A29
330
18
100
AcDbEntity
  8
Object
100
AcDbLine
 10
4.219999999999999
 20
13.02403296034573
 30
0.0
 11
4.092999999999999
 21
13.03503296034573
 31
0.0
  0
LINE
  5
A2A
330
18
100
AcDbEntity
  8
Object
100
AcDbLine
 10
5.838
 20
11.98603296034573
 30
0.0
 11
5.818
 21
11.97503296034573
 31
0.0
  0
LINE
  5
A2B
330
18
100
AcDbEntity
  8
Object
100
AcDbLine
 10
5.818
 20
11.97503296034573
 30
0.0
 11
5.798
 21
11.96403296034572
 31
0.0
  0
LINE
  5
A2C
330
18
100
AcDbEntity
  8
Object
100
AcDbLine
 10
5.767999999999999
 20
11.94903296034573
 30
0.0
 11
5.759
 21
11.94603296034573
 31
0.0
  0
LINE
  5
A2D
330
18
100
AcDbEntity
  8
Object
100
AcDbLine
 10
5.759
 20
11.94603296034573
 30
0.0
 11
5.751999999999999
 21
11.94403296034573
 31
0.0
  0
LINE
  5
A2E
330
18
100
AcDbEntity
  8
Object
100
AcDbLine
 10
5.798
 20
11.96403296034572
 30
0.0
 11
5.777
 21
11.95303296034573
 31
0.0
  0
LINE
  5
A2F
330
18
100
AcDbEntity
  8
Object
100
AcDbLine
 10
5.777
 20
11.95303296034573
 30
0.0
 11
5.767999999999999
 21
11.94903296034573
 31
0.0
  0
LINE
  5
A30
330
18
100
AcDbEntity
  8
Object
100
AcDbLine
 10
5.751999999999999
 20
11.94403296034573
 30
0.0
 11
5.749
 21
11.94403296034573
 31
0.0
  0
LINE
  5
A31
330
18
100
AcDbEntity
  8
Object
100
AcDbLine
 10
5.749
 20
11.94403296034573
 30
0.0
 11
5.802
 21
11.82903296034573
 31
0.0
  0
LINE
  5
A32
330
18
100
AcDbEntity
  8
Object
100
AcDbLine
 10
5.749
 20
11.94403296034573
 30
0.0
 11
5.730999999999999
 21
11.95103296034573
 31
0.0
  0
LINE
  5
A33
330
18
100
AcDbEntity
  8
Object
100
AcDbLine
 10
4.092
 20
13.00603296034573
 30
0.0
 11
4.213
 21
12.99503296034573
 31
0.0
  0
LINE
  5
A34
330
18
100
AcDbEntity
  8
Object
100
AcDbLine
 10
4.213
 20
12.99503296034573
 30
0.0
 11
4.211999999999999
 21
12.97203296034573
 31
0.0
  0
LINE
  5
A35
330
18
100
AcDbEntity
  8
Object
100
AcDbLine
 10
4.211999999999999
 20
12.97203296034573
 30
0.0
 11
4.211
 21
12.94903296034573
 31
0.0
  0
LINE
  5
A36
330
18
100
AcDbEntity
  8
Object
100
AcDbLine
 10
4.211
 20
12.94903296034573
 30
0.0
 11
4.211
 21
12.92603296034573
 31
0.0
  0
LINE
  5
A37
330
18
100
AcDbEntity
  8
Object
100
AcDbLine
 10
4.211
 20
12.92603296034573
 30
0.0
 11
4.088
 21
12.92603296034573
 31
0.0
  0
LINE
  5
A38
330
18
100
AcDbEntity
  8
Object
100
AcDbLine
 10
5.899
 20
11.88003296034572
 30
0.0
 11
5.838
 21
11.98603296034573
 31
0.0
  0
LINE
  5
A39
330
18
100
AcDbEntity
  8
Object
100
AcDbLine
 10
5.897
 20
13.82903296034573
 30
0.0
 11
5.967999999999999
 21
13.92903296034573
 31
0.0
  0
LINE
  5
A3A
330
18
100
AcDbEntity
  8
Object
100
AcDbLine
 10
5.899
 20
13.97103296034573
 30
0.0
 11
5.838
 21
13.86503296034573
 31
0.0
  0
LINE
  5
A3B
330
18
100
AcDbEntity
  8
Object
100
AcDbLine
 10
5.828999999999999
 20
11.84203296034572
 30
0.0
 11
5.777
 21
11.95303296034573
 31
0.0
  0
LINE
  5
A3C
330
18
100
AcDbEntity
  8
Object
100
AcDbLine
 10
5.919
 20
13.80803296034573
 30
0.0
 11
5.991999999999999
 21
13.91203296034573
 31
0.0
  0
LINE
  5
A3D
330
18
100
AcDbEntity
  8
Object
100
AcDbLine
 10
4.216
 20
13.01403296034573
 30
0.0
 11
4.214
 21
13.00503296034573
 31
0.0
  0
LINE
  5
A3E
330
18
100
AcDbEntity
  8
Object
100
AcDbLine
 10
4.214
 20
13.00503296034573
 30
0.0
 11
4.213
 21
12.99503296034573
 31
0.0
  0
LINE
  5
A3F
330
18
100
AcDbEntity
  8
Object
100
AcDbLine
 10
4.216
 20
13.01403296034573
 30
0.0
 11
4.217999999999999
 21
13.02103296034573
 31
0.0
  0
LINE
  5
A40
330
18
100
AcDbEntity
  8
Object
100
AcDbLine
 10
4.217999999999999
 20
13.02103296034573
 30
0.0
 11
4.219999999999999
 21
13.02403296034573
 31
0.0
  0
DIMENSION
  5
A41
330
18
100
AcDbEntity
  8
Dimension
100
AcDbDimension
  2
*D0
 10
7.878415325764478
 20
10.26103296034573
 30
0.0
 11
7.878415325764477
 21
12.92603296034573
 31
0.0
 70
    32
 71
     5
 42
5.33
  3
STANDARD
100
AcDbAlignedDimension
 13
6.698999999999999
 23
15.59103296034573
 33
0.0
 14
6.698999999999998
 24
10.26103296034573
 34
0.0
 50
90.0
100
AcDbRotatedDimension
  0
DIMENSION
  5
A4F
330
18
100
AcDbEntity
  8
Dimension
100
AcDbDimension
  2
*D1
 10
6.796
 20
7.754550625453283
 30
0.0
 11
5.2335
 21
7.754550625453283
 31
0.0
 70
    32
  1
3.12 [79.4mm]
 71
     5
 42
3.125
  3
STANDARD
100
AcDbAlignedDimension
 13
3.671
 23
7.004032960345727
 33
0.0
 14
6.796
 24
6.504032960345727
 34
0.0
100
AcDbRotatedDimension
  0
DIMENSION
  5
A5D
330
18
100
AcDbEntity
  8
Dimension
100
AcDbDimension
  2
*D2
 10
12.5882727089748
 20
4.849032960345728
 30
0.0
 11
12.58827270897479
 21
5.92653296034573
 31
0.0
 70
    32
 71
     5
 42
2.155
  3
STANDARD
100
AcDbAlignedDimension
 13
14.184
 23
7.004032960345727
 33
0.0
 14
14.925
 24
4.849032960345727
 34
0.0
 50
90.0
100
AcDbRotatedDimension
  0
ENDSEC
  0
SECTION
  2
OBJECTS
  0
DICTIONARY
  5
C
330
0
100
AcDbDictionary
281
     1
  3
ACAD_COLOR
350
10D
  3
ACAD_GROUP
350
D
  3
ACAD_LAYOUT
350
110
  3
ACAD_MATERIAL
350
10C
  3
ACAD_MLINESTYLE
350
1B
  3
ACAD_PLOTSETTINGS
350
111
  3
ACAD_PLOTSTYLENAME
350
10A
  3
ACAD_TABLESTYLE
350
10E
  3
ACDBHEADERROUNDTRIPXREC
350
A8C
  3
AcDbVariableDictionary
350
13E
  3
ASE_INDEX_DICTIONARY
350
148
  0
DICTIONARY
  5
154
330
2
100
AcDbDictionary
280
     1
281
     1
  3
ACAD_LAYERFILTERS
360
158
  3
ACLYDICTIONARY
360
157
  0
DICTIONARY
  5
10D
102
{ACAD_REACTORS
330
C
102
}
330
C
100
AcDbDictionary
281
     1
  0
DICTIONARY
  5
D
102
{ACAD_REACTORS
330
C
102
}
330
C
100
AcDbDictionary
281
     1
  0
DICTIONARY
  5
110
102
{ACAD_REACTORS
330
C
102
}
330
C
100
AcDbDictionary
281
     1
  3
Layout1
350
113
  3
Model
350
112
  0
DICTIONARY
  5
10C
102
{ACAD_REACTORS
330
C
102
}
330
C
100
AcDbDictionary
281
     1
  0
DICTIONARY
  5
1B
102
{ACAD_REACTORS
330
C
102
}
330
C
100
AcDbDictionary
281
     1
  3
STANDARD
350
1C
  0
DICTIONARY
  5
111
102
{ACAD_REACTORS
330
C
102
}
330
C
100
AcDbDictionary
281
     1
  0
ACDBDICTIONARYWDFLT
  5
10A
102
{ACAD_REACTORS
330
C
102
}
330
C
100
AcDbDictionary
281
     1
  3
Normal
350
10B
100
AcDbDictionaryWithDefault
340
10B
  0
DICTIONARY
  5
10E
102
{ACAD_REACTORS
330
C
102
}
330
C
100
AcDbDictionary
281
     1
  3
Standard
350
10F
  0
DICTIONARY
  5
A8C
102
{ACAD_REACTORS
330
C
102
}
330
C
100
AcDbDictionary
281
     1
  0
DICTIONARY
  5
13E
102
{ACAD_REACTORS
330
C
102
}
330
C
100
AcDbDictionary
281
     1
  3
CTABLESTYLE
350
13F
  3
DIMASSOC
350
A89
  3
PROJECTNAME
350
A8A
  0
DICTIONARY
  5
148
102
{ACAD_REACTORS
330
C
102
}
330
C
100
AcDbDictionary
281
     1
  3
ASEBlockHierarchyIndexRecord
350
14A
1001
DCO15
1040
1529148047.148
  0
DICTIONARY
  5
158
102
{ACAD_REACTORS
330
154
102
}
330
154
100
AcDbDictionary
281
     1
  0
DICTIONARY
  5
157
102
{ACAD_REACTORS
330
154
102
}
330
154
100
AcDbDictionary
281
     1
1001
ACAD
1000
<All
  0
LAYOUT
  5
113
102
{ACAD_XDICTIONARY
360
A8F
102
}
102
{ACAD_REACTORS
330
110
102
}
330
110
100
AcDbPlotSettings
  1

  2
\\RSENG\RSplotter4NT
  4

  6

 40
0.0
 41
0.0
 42
0.0
 43
0.0
 44
0.0
 45
0.0
 46
0.0
 47
0.0
 48
0.0
 49
0.0
140
0.0
141
0.0
142
1.0
143
1.0
 70
   688
 72
     0
 73
     0
 74
     5
  7
Symantec Fax Starter Edition
 75
    16
147
1.0
148
0.0
149
0.0
100
AcDbLayout
  1
Layout1
 70
     1
 71
     1
 10
0.0
 20
0.0
 11
12.0
 21
9.0
 12
0.0
 22
0.0
 32
0.0
 14
1.000000000000000E+20
 24
1.000000000000000E+20
 34
1.000000000000000E+20
 15
-1.000000000000000E+20
 25
-1.000000000000000E+20
 35
-1.000000000000000E+20
146
0.0
 13
0.0
 23
0.0
 33
0.0
 16
1.0
 26
0.0
 36
0.0
 17
0.0
 27
1.0
 37
0.0
 76
     0
330
15
  0
LAYOUT
  5
112
102
{ACAD_XDICTIONARY
360
A8D
102
}
102
{ACAD_REACTORS
330
110
102
}
330
110
100
AcDbPlotSettings
  1

  2
\\RSENG\RSplotter4NT
  4

  6

 40
0.0
 41
0.0
 42
0.0
 43
0.0
 44
0.0
 45
0.0
 46
0.0
 47
0.0
 48
0.0
 49
0.0
140
0.0
141
0.0
142
1.0
143
1.0
 70
  1712
 72
     0
 73
     0
 74
     0
  7
Symantec Fax Starter Edition
 75
     0
147
1.0
148
0.0
149
0.0
100
AcDbLayout
  1
Model
 70
     1
 71
     0
 10
0.0
 20
0.0
 11
12.0
 21
9.0
 12
0.0
 22
0.0
 32
0.0
 14
0.0
 24
0.0
 34
0.0
 15
0.0
 25
0.0
 35
0.0
146
0.0
 13
0.0
 23
0.0
 33
0.0
 16
1.0
 26
0.0
 36
0.0
 17
0.0
 27
1.0
 37
0.0
 76
     0
330
18
  0
MLINESTYLE
  5
1C
102
{ACAD_REACTORS
330
1B
102
}
330
1B
100
AcDbMlineStyle
  2
STANDARD
 70
     0
  3

 62
   256
 51
90.0
 52
90.0
 71
     2
 49
0.5
 62
   256
  6
BYLAYER
 49
-0.5
 62
   256
  6
BYLAYER
  0
ACDBPLACEHOLDER
  5
10B
102
{ACAD_REACTORS
330
10A
102
}
330
10A
  0
TABLESTYLE
  5
10F
102
{ACAD_REACTORS
330
10E
102
}
330
10E
100
AcDbTableStyle
  3
Standard
 70
     0
 71
     0
 40
0.06
 41
0.06
280
     0
281
     0
  7
STANDARD
140
0.18
170
     2
 62
     0
 63
     7
283
     0
274
    -2
284
     1
 64
     0
275
    -2
285
     1
 65
     0
276
    -2
286
     1
 66
     0
277
    -2
287
     1
 67
     0
278
    -2
288
     1
 68
     0
279
    -2
289
     1
 69
     0
  7
STANDARD
140
0.25
170
     5
 62
     0
 63
     7
283
     0
274
    -2
284
     1
 64
     0
275
    -2
285
     1
 65
     0
276
    -2
286
     1
 66
     0
277
    -2
287
     1
 67
     0
278
    -2
288
     1
 68
     0
279
    -2
289
     1
 69
     0
  7
STANDARD
140
0.18
170
     5
 62
     0
 63
     7
283
     0
274
    -2
284
     1
 64
     0
275
    -2
285
     1
 65
     0
276
    -2
286
     1
 66
     0
277
    -2
287
     1
 67
     0
278
    -2
288
     1
 68
     0
279
    -2
289
     1
 69
     0
  0
DICTIONARYVAR
  5
13F
102
{ACAD_REACTORS
330
13E
102
}
330
13E
100
DictionaryVariables
280
     0
  1
STANDARD
  0
DICTIONARYVAR
  5
A89
102
{ACAD_REACTORS
330
13E
102
}
330
13E
100
DictionaryVariables
280
     0
  1
1
  0
DICTIONARYVAR
  5
A8A
102
{ACAD_REACTORS
330
13E
102
}
330
13E
100
DictionaryVariables
280
     0
  1

  0
XRECORD
  5
14A
102
{ACAD_REACTORS
330
148
102
}
330
148
100
AcDbXrecord
280
     1
  0
DICTIONARY
  5
A8F
330
113
100
AcDbDictionary
280
     1
281
     1
  3
ACAD_XREC_ROUNDTRIP
360
A90
  0
DICTIONARY
  5
A8D
330
112
100
AcDbDictionary
280
     1
281
     1
  3
ACAD_XREC_ROUNDTRIP
360
A8E
  0
XRECORD
  5
A90
102
{ACAD_REACTORS
330
A8F
102
}
330
A8F
100
AcDbXrecord
280
     1
102
SHADEPLOT
 70
     0
102
SHADEPLOTRESLEVEL
 70
     2
102
SHADEPLOTCUSTOMDPI
 70
   300
  0
XRECORD
  5
A8E
102
{ACAD_REACTORS
330
A8D
102
}
330
A8D
100
AcDbXrecord
280
     1
102
SHADEPLOT
 70
     0
102
SHADEPLOTRESLEVEL
 70
     2
102
SHADEPLOTCUSTOMDPI
 70
   300
  0
ENDSEC
  0
EOF
