  0
SECTION
  2
HEADER
  9
$ACADVER
  1
AC1015
  9
$ACADMAINTVER
 70
    20
  9
$DWGCODEPAGE
  3
ANSI_1252
  9
$INSBASE
 10
0.0
 20
0.0
 30
0.0
  9
$EXTMIN
 10
-0.075
 20
-0.075
 30
0.0
  9
$EXTMAX
 10
11.075
 20
8.575000000000001
 30
0.0
  9
$LIMMIN
 10
0.0
 20
0.0
  9
$LIMMAX
 10
12.0
 20
9.0
  9
$ORTHOMODE
 70
     0
  9
$REGENMODE
 70
     1
  9
$FILLMODE
 70
     1
  9
$QTEXTMODE
 70
     0
  9
$MIRRTEXT
 70
     0
  9
$LTSCALE
 40
1.0
  9
$ATTMODE
 70
     1
  9
$TEXTSIZE
 40
0.09
  9
$TRACEWID
 40
0.05
  9
$TEXTSTYLE
  7
Standard
  9
$CLAYER
  8
0
  9
$CELTYPE
  6
ByLayer
  9
$CECOLOR
 62
   256
  9
$CELTSCALE
 40
1.0
  9
$DISPSILH
 70
     0
  9
$DIMSCALE
 40
1.0
  9
$DIMASZ
 40
0.1875
  9
$DIMEXO
 40
0.0625
  9
$DIMDLI
 40
0.38
  9
$DIMRND
 40
0.0
  9
$DIMDLE
 40
0.0
  9
$DIMEXE
 40
0.125
  9
$DIMTP
 40
0.0
  9
$DIMTM
 40
0.0
  9
$DIMTXT
 40
0.09
  9
$DIMCEN
 40
0.09
  9
$DIMTSZ
 40
0.0
  9
$DIMTOL
 70
     0
  9
$DIMLIM
 70
     0
  9
$DIMTIH
 70
     1
  9
$DIMTOH
 70
     1
  9
$DIMSE1
 70
     0
  9
$DIMSE2
 70
     0
  9
$DIMTAD
 70
     0
  9
$DIMZIN
 70
     0
  9
$DIMBLK
  1

  9
$DIMASO
 70
     1
  9
$DIMSHO
 70
     1
  9
$DIMPOST
  1

  9
$DIMAPOST
  1
mm
  9
$DIMALT
 70
     1
  9
$DIMALTD
 70
     1
  9
$DIMALTF
 40
25.4
  9
$DIMLFAC
 40
1.0
  9
$DIMTOFL
 70
     0
  9
$DIMTVP
 40
0.0
  9
$DIMTIX
 70
     0
  9
$DIMSOXD
 70
     0
  9
$DIMSAH
 70
     0
  9
$DIMBLK1
  1

  9
$DIMBLK2
  1

  9
$DIMSTYLE
  2
Standard
  9
$DIMCLRD
 70
     0
  9
$DIMCLRE
 70
     0
  9
$DIMCLRT
 70
     0
  9
$DIMTFAC
 40
1.0
  9
$DIMGAP
 40
0.09
  9
$DIMJUST
 70
     0
  9
$DIMSD1
 70
     0
  9
$DIMSD2
 70
     0
  9
$DIMTOLJ
 70
     1
  9
$DIMTZIN
 70
     0
  9
$DIMALTZ
 70
     0
  9
$DIMALTTZ
 70
     0
  9
$DIMUPT
 70
     0
  9
$DIMDEC
 70
     2
  9
$DIMTDEC
 70
     2
  9
$DIMALTU
 70
     2
  9
$DIMALTTD
 70
     1
  9
$DIMTXSTY
  7
Standard
  9
$DIMAUNIT
 70
     0
  9
$DIMADEC
 70
     0
  9
$DIMALTRND
 40
0.0
  9
$DIMAZIN
 70
     0
  9
$DIMDSEP
 70
    46
  9
$DIMATFIT
 70
     3
  9
$DIMFRAC
 70
     0
  9
$DIMLDRBLK
  1

  9
$DIMLUNIT
 70
     2
  9
$DIMLWD
 70
    -2
  9
$DIMLWE
 70
    -2
  9
$DIMTMOVE
 70
     0
  9
$LUNITS
 70
     2
  9
$LUPREC
 70
     4
  9
$SKETCHINC
 40
0.1
  9
$FILLETRAD
 40
0.0
  9
$AUNITS
 70
     0
  9
$AUPREC
 70
     0
  9
$MENU
  1
.
  9
$ELEVATION
 40
0.0
  9
$PELEVATION
 40
0.0
  9
$THICKNESS
 40
0.0
  9
$LIMCHECK
 70
     0
  9
$CHAMFERA
 40
0.0
  9
$CHAMFERB
 40
0.0
  9
$CHAMFERC
 40
0.0
  9
$CHAMFERD
 40
0.0
  9
$SKPOLY
 70
     0
  9
$TDCREATE
 40
2453733.612312813
  9
$TDUCREATE
 40
2453733.820646146
  9
$TDUPDATE
 40
2454294.641247165
  9
$TDUUPDATE
 40
2454294.849580497
  9
$TDINDWG
 40
0.0282707060
  9
$TDUSRTIMER
 40
0.0282705324
  9
$USRTIMER
 70
     1
  9
$ANGBASE
 50
0.0
  9
$ANGDIR
 70
     0
  9
$PDMODE
 70
     2
  9
$PDSIZE
 40
0.075
  9
$PLINEWID
 40
0.0
  9
$SPLFRAME
 70
     0
  9
$SPLINETYPE
 70
     6
  9
$SPLINESEGS
 70
     8
  9
$HANDSEED
  5
E13
  9
$SURFTAB1
 70
     6
  9
$SURFTAB2
 70
     6
  9
$SURFTYPE
 70
     6
  9
$SURFU
 70
     6
  9
$SURFV
 70
     6
  9
$UCSBASE
  2

  9
$UCSNAME
  2

  9
$UCSORG
 10
0.0
 20
0.0
 30
0.0
  9
$UCSXDIR
 10
1.0
 20
0.0
 30
0.0
  9
$UCSYDIR
 10
0.0
 20
1.0
 30
0.0
  9
$UCSORTHOREF
  2

  9
$UCSORTHOVIEW
 70
     0
  9
$UCSORGTOP
 10
0.0
 20
0.0
 30
0.0
  9
$UCSORGBOTTOM
 10
0.0
 20
0.0
 30
0.0
  9
$UCSORGLEFT
 10
0.0
 20
0.0
 30
0.0
  9
$UCSORGRIGHT
 10
0.0
 20
0.0
 30
0.0
  9
$UCSORGFRONT
 10
0.0
 20
0.0
 30
0.0
  9
$UCSORGBACK
 10
0.0
 20
0.0
 30
0.0
  9
$PUCSBASE
  2

  9
$PUCSNAME
  2

  9
$PUCSORG
 10
0.0
 20
0.0
 30
0.0
  9
$PUCSXDIR
 10
1.0
 20
0.0
 30
0.0
  9
$PUCSYDIR
 10
0.0
 20
1.0
 30
0.0
  9
$PUCSORTHOREF
  2

  9
$PUCSORTHOVIEW
 70
     0
  9
$PUCSORGTOP
 10
0.0
 20
0.0
 30
0.0
  9
$PUCSORGBOTTOM
 10
0.0
 20
0.0
 30
0.0
  9
$PUCSORGLEFT
 10
0.0
 20
0.0
 30
0.0
  9
$PUCSORGRIGHT
 10
0.0
 20
0.0
 30
0.0
  9
$PUCSORGFRONT
 10
0.0
 20
0.0
 30
0.0
  9
$PUCSORGBACK
 10
0.0
 20
0.0
 30
0.0
  9
$USERI1
 70
     0
  9
$USERI2
 70
     0
  9
$USERI3
 70
     0
  9
$USERI4
 70
     0
  9
$USERI5
 70
     0
  9
$USERR1
 40
0.0
  9
$USERR2
 40
0.0
  9
$USERR3
 40
0.0
  9
$USERR4
 40
0.0
  9
$USERR5
 40
0.0
  9
$WORLDVIEW
 70
     1
  9
$SHADEDGE
 70
     3
  9
$SHADEDIF
 70
    70
  9
$TILEMODE
 70
     1
  9
$MAXACTVP
 70
    64
  9
$PINSBASE
 10
0.0
 20
0.0
 30
0.0
  9
$PLIMCHECK
 70
     0
  9
$PEXTMIN
 10
0.0
 20
0.0
 30
0.0
  9
$PEXTMAX
 10
0.0
 20
0.0
 30
0.0
  9
$PLIMMIN
 10
0.0
 20
0.0
  9
$PLIMMAX
 10
12.0
 20
9.0
  9
$UNITMODE
 70
     0
  9
$VISRETAIN
 70
     1
  9
$PLINEGEN
 70
     0
  9
$PSLTSCALE
 70
     1
  9
$TREEDEPTH
 70
  3020
  9
$CMLSTYLE
  2
Standard
  9
$CMLJUST
 70
     0
  9
$CMLSCALE
 40
1.0
  9
$PROXYGRAPHICS
 70
     1
  9
$MEASUREMENT
 70
     0
  9
$CELWEIGHT
370
    -1
  9
$ENDCAPS
280
     0
  9
$JOINSTYLE
280
     0
  9
$LWDISPLAY
290
     0
  9
$INSUNITS
 70
     1
  9
$HYPERLINKBASE
  1

  9
$STYLESHEET
  1

  9
$XEDIT
290
     1
  9
$CEPSNTYPE
380
     0
  9
$PSTYLEMODE
290
     1
  9
$FINGERPRINTGUID
  2
{95EE7B5B-A2E3-4B4D-B3B9-A556AECA9C79}
  9
$VERSIONGUID
  2
{77CDB757-49E2-446A-A213-87A6EE887E57}
  9
$EXTNAMES
290
     1
  9
$PSVPSCALE
 40
0.0
  9
$OLESTARTUP
290
     0
  0
ENDSEC
  0
SECTION
  2
CLASSES
  0
CLASS
  1
ACDBDICTIONARYWDFLT
  2
AcDbDictionaryWithDefault
  3
ObjectDBX Classes
 90
        0
280
     0
281
     0
  0
CLASS
  1
ACDBPLACEHOLDER
  2
AcDbPlaceHolder
  3
ObjectDBX Classes
 90
        0
280
     0
281
     0
  0
CLASS
  1
LAYOUT
  2
AcDbLayout
  3
ObjectDBX Classes
 90
        0
280
     0
281
     0
  0
CLASS
  1
DICTIONARYVAR
  2
AcDbDictionaryVar
  3
ObjectDBX Classes
 90
        0
280
     0
281
     0
  0
CLASS
  1
TABLESTYLE
  2
AcDbTableStyle
  3
ObjectDBX Classes
 90
     2047
280
     0
281
     0
  0
CLASS
  1
SORTENTSTABLE
  2
AcDbSortentsTable
  3
ObjectDBX Classes
 90
        0
280
     0
281
     0
  0
CLASS
  1
DIMASSOC
  2
AcDbDimAssoc
  3
"AcDbDimAssoc|Product Desc:     AcDim ARX App For Dimension|Company:          Autodesk, Inc.|WEB Address:      www.autodesk.com"
 90
        0
280
     0
281
     0
  0
ENDSEC
  0
SECTION
  2
TABLES
  0
TABLE
  2
VPORT
  5
8
330
0
100
AcDbSymbolTable
 70
     2
  0
VPORT
  5
E09
330
8
100
AcDbSymbolTableRecord
100
AcDbViewportTableRecord
  2
*Active
 70
     0
 10
0.0
 20
0.0
 11
1.0
 21
1.0
 12
5.499943496390738
 22
4.554574012307608
 13
0.0
 23
0.0
 14
0.5
 24
0.5
 15
0.5
 25
0.5
 16
0.0
 26
0.0
 36
1.0
 17
0.0
 27
0.0
 37
0.0
 40
9.314889980451676
 41
1.499364675984752
 42
50.0
 43
0.0
 44
0.0
 50
0.0
 51
0.0
 71
     0
 72
  1000
 73
     1
 74
     3
 75
     0
 76
     0
 77
     0
 78
     0
281
     0
 65
     1
110
0.0
120
0.0
130
0.0
111
1.0
121
0.0
131
0.0
112
0.0
122
1.0
132
0.0
 79
     0
146
0.0
  0
ENDTAB
  0
TABLE
  2
LTYPE
  5
5
330
0
100
AcDbSymbolTable
 70
     1
  0
LTYPE
  5
14
330
5
100
AcDbSymbolTableRecord
100
AcDbLinetypeTableRecord
  2
ByBlock
 70
     0
  3

 72
    65
 73
     0
 40
0.0
  0
LTYPE
  5
15
330
5
100
AcDbSymbolTableRecord
100
AcDbLinetypeTableRecord
  2
ByLayer
 70
     0
  3

 72
    65
 73
     0
 40
0.0
  0
LTYPE
  5
16
330
5
100
AcDbSymbolTableRecord
100
AcDbLinetypeTableRecord
  2
Continuous
 70
     0
  3
Solid line
 72
    65
 73
     0
 40
0.0
  0
ENDTAB
  0
TABLE
  2
LAYER
  5
2
102
{ACAD_XDICTIONARY
360
582
102
}
330
0
100
AcDbSymbolTable
 70
     6
  0
LAYER
  5
10
330
2
100
AcDbSymbolTableRecord
100
AcDbLayerTableRecord
  2
0
 70
     0
 62
     7
  6
Continuous
370
    -3
390
F
  0
LAYER
  5
8B
330
2
100
AcDbSymbolTableRecord
100
AcDbLayerTableRecord
  2
Title Block
 70
     0
 62
     3
  6
Continuous
370
    -3
390
F
  0
LAYER
  5
8D
330
2
100
AcDbSymbolTableRecord
100
AcDbLayerTableRecord
  2
Text
 70
     0
 62
     1
  6
Continuous
370
    -3
390
F
  0
LAYER
  5
8E
330
2
100
AcDbSymbolTableRecord
100
AcDbLayerTableRecord
  2
Object
 70
     0
 62
     5
  6
Continuous
370
    -3
390
F
  0
LAYER
  5
581
330
2
100
AcDbSymbolTableRecord
100
AcDbLayerTableRecord
  2
Dimension
 70
     0
 62
     6
  6
Continuous
370
    -3
390
F
1001
AcAecLayerStandard
1000

1000

  0
LAYER
  5
8DE
330
2
100
AcDbSymbolTableRecord
100
AcDbLayerTableRecord
  2
Defpoints
 70
     0
 62
     7
  6
Continuous
290
     0
370
    -3
390
F
  0
ENDTAB
  0
TABLE
  2
STYLE
  5
3
330
0
100
AcDbSymbolTable
 70
     1
  0
STYLE
  5
11
330
3
100
AcDbSymbolTableRecord
100
AcDbTextStyleTableRecord
  2
Standard
 70
     0
 40
0.0
 41
1.0
 50
0.0
 71
     0
 42
0.09
  3
technic_.ttf
  4

1001
ACAD
1000
Technic
1071
      514
  0
ENDTAB
  0
TABLE
  2
VIEW
  5
6
330
0
100
AcDbSymbolTable
 70
     0
  0
ENDTAB
  0
TABLE
  2
UCS
  5
7
330
0
100
AcDbSymbolTable
 70
     0
  0
ENDTAB
  0
TABLE
  2
APPID
  5
9
330
0
100
AcDbSymbolTable
 70
     4
  0
APPID
  5
12
330
9
100
AcDbSymbolTableRecord
100
AcDbRegAppTableRecord
  2
ACAD
 70
     0
  0
APPID
  5
90
330
9
100
AcDbSymbolTableRecord
100
AcDbRegAppTableRecord
  2
DCO15
 70
     0
  0
APPID
  5
91
330
9
100
AcDbSymbolTableRecord
100
AcDbRegAppTableRecord
  2
AcAecLayerStandard
 70
     0
  0
APPID
  5
E0
330
9
100
AcDbSymbolTableRecord
100
AcDbRegAppTableRecord
  2
ACAD_DSTYLE_DIMTEXT_FILL
 70
     0
  0
ENDTAB
  0
TABLE
  2
DIMSTYLE
  5
A
330
0
100
AcDbSymbolTable
 70
     1
100
AcDbDimStyleTable
 71
     1
340
27
  0
DIMSTYLE
105
27
102
{ACAD_REACTORS
330
8DD
330
94D
330
97B
102
}
330
A
100
AcDbSymbolTableRecord
100
AcDbDimStyleTableRecord
  2
Standard
 70
     0
  4
mm
 41
0.1875
 44
0.125
140
0.09
170
     1
171
     1
271
     2
272
     2
274
     1
340
11
  0
ENDTAB
  0
TABLE
  2
BLOCK_RECORD
  5
1
330
0
100
AcDbSymbolTable
 70
     4
  0
BLOCK_RECORD
  5
1F
102
{ACAD_XDICTIONARY
360
57F
102
}
330
1
100
AcDbSymbolTableRecord
100
AcDbBlockTableRecord
  2
*Model_Space
340
22
  0
BLOCK_RECORD
  5
58
330
1
100
AcDbSymbolTableRecord
100
AcDbBlockTableRecord
  2
*Paper_Space
340
59
  0
BLOCK_RECORD
  5
5D
330
1
100
AcDbSymbolTableRecord
100
AcDbBlockTableRecord
  2
*Paper_Space0
340
5E
  0
BLOCK_RECORD
  5
8DF
330
1
100
AcDbSymbolTableRecord
100
AcDbBlockTableRecord
  2
*D1
340
0
  0
BLOCK_RECORD
  5
94E
330
1
100
AcDbSymbolTableRecord
100
AcDbBlockTableRecord
  2
*D2
340
0
  0
BLOCK_RECORD
  5
97C
330
1
100
AcDbSymbolTableRecord
100
AcDbBlockTableRecord
  2
*D3
340
0
  0
ENDTAB
  0
ENDSEC
  0
SECTION
  2
BLOCKS
  0
BLOCK
  5
20
330
1F
100
AcDbEntity
  8
0
100
AcDbBlockBegin
  2
*Model_Space
 70
     0
 10
0.0
 20
0.0
 30
0.0
  3
*Model_Space
  1

  0
ENDBLK
  5
21
330
1F
100
AcDbEntity
  8
0
100
AcDbBlockEnd
  0
BLOCK
  5
5A
330
58
100
AcDbEntity
 67
     1
  8
0
100
AcDbBlockBegin
  2
*Paper_Space
 70
     0
 10
0.0
 20
0.0
 30
0.0
  3
*Paper_Space
  1

  0
ENDBLK
  5
5B
330
58
100
AcDbEntity
 67
     1
  8
0
100
AcDbBlockEnd
  0
BLOCK
  5
5F
330
5D
100
AcDbEntity
  8
0
100
AcDbBlockBegin
  2
*Paper_Space0
 70
     0
 10
0.0
 20
0.0
 30
0.0
  3
*Paper_Space0
  1

  0
ENDBLK
  5
60
330
5D
100
AcDbEntity
  8
0
100
AcDbBlockEnd
  0
BLOCK
  5
8EA
330
8DF
100
AcDbEntity
  8
0
100
AcDbBlockBegin
  2
*D1
 70
     1
 10
0.0
 20
0.0
 30
0.0
  3
*D1
  1

  0
LINE
  5
DDC
330
8DF
100
AcDbEntity
  8
Dimension
 62
     0
370
    -2
100
AcDbLine
 10
3.679401684902704
 20
8.117887631876234
 30
0.0
 11
4.809709153533784
 21
8.117887631876232
 31
0.0
  0
LINE
  5
DDD
330
8DF
100
AcDbEntity
  8
Dimension
 62
     0
370
    -2
100
AcDbLine
 10
3.679401684902704
 20
6.417887631876234
 30
0.0
 11
4.809709153533784
 21
6.417887631876234
 31
0.0
  0
LINE
  5
DDE
330
8DF
100
AcDbEntity
  8
Dimension
 62
     0
370
    -2
100
AcDbLine
 10
4.684709153533784
 20
7.930387631876233
 30
0.0
 11
4.684709153533784
 21
7.420913947665707
 31
0.0
  0
LINE
  5
DDF
330
8DF
100
AcDbEntity
  8
Dimension
 62
     0
370
    -2
100
AcDbLine
 10
4.684709153533784
 20
6.605387631876234
 30
0.0
 11
4.684709153533784
 21
7.11486131608676
 31
0.0
  0
SOLID
  5
DE0
330
8DF
100
AcDbEntity
  8
Dimension
 62
     0
100
AcDbTrace
 10
4.653459153533784
 20
7.930387631876233
 30
0.0
 11
4.715959153533784
 21
7.930387631876233
 31
0.0
 12
4.684709153533784
 22
8.117887631876232
 32
0.0
 13
4.684709153533784
 23
8.117887631876232
 33
0.0
  0
SOLID
  5
DE1
330
8DF
100
AcDbEntity
  8
Dimension
 62
     0
100
AcDbTrace
 10
4.653459153533784
 20
6.605387631876234
 30
0.0
 11
4.715959153533784
 21
6.605387631876234
 31
0.0
 12
4.684709153533784
 22
6.417887631876234
 32
0.0
 13
4.684709153533784
 23
6.417887631876234
 33
0.0
  0
MTEXT
  5
DE2
330
8DF
100
AcDbEntity
  8
Dimension
 62
     0
100
AcDbMText
 10
4.684709153533783
 20
7.267887631876234
 30
0.0
 40
0.09
 41
0.0
 71
     5
 72
     1
  1
\A1;1.70 [43.2mm]
 73
     1
 44
1.0
1001
ACAD
1000
MTEXTBEGIN
1070
    73
1070
     1
1070
    44
1040
1.0
1070
    74
1070
     0
1000
MTEXTEND
  0
POINT
  5
DE3
330
8DF
100
AcDbEntity
  8
Defpoints
 62
     0
100
AcDbPoint
 10
3.616901684902704
 20
8.117887631876234
 30
0.0
  0
POINT
  5
DE4
330
8DF
100
AcDbEntity
  8
Defpoints
 62
     0
100
AcDbPoint
 10
3.616901684902704
 20
6.417887631876234
 30
0.0
  0
POINT
  5
DE5
330
8DF
100
AcDbEntity
  8
Defpoints
 62
     0
100
AcDbPoint
 10
4.684709153533784
 20
6.417887631876234
 30
0.0
  0
ENDBLK
  5
8EB
330
8DF
100
AcDbEntity
  8
0
100
AcDbBlockEnd
  0
BLOCK
  5
959
330
94E
100
AcDbEntity
  8
0
100
AcDbBlockBegin
  2
*D2
 70
     1
 10
0.0
 20
0.0
 30
0.0
  3
*D2
  1

  0
LINE
  5
DC8
330
94E
100
AcDbEntity
  8
Dimension
 62
     0
370
    -2
100
AcDbLine
 10
1.964901684902704
 20
4.971190076017197
 30
0.0
 11
1.964901684902704
 21
5.674171160968576
 31
0.0
  0
LINE
  5
DC9
330
94E
100
AcDbEntity
  8
Dimension
 62
     0
370
    -2
100
AcDbLine
 10
3.766901684902704
 20
4.821190076017197
 30
0.0
 11
3.766901684902704
 21
5.674171160968576
 31
0.0
  0
LINE
  5
DCA
330
94E
100
AcDbEntity
  8
Dimension
 62
     0
370
    -2
100
AcDbLine
 10
2.152401684902704
 20
5.549171160968576
 30
0.0
 11
2.388664842797441
 21
5.549171160968576
 31
0.0
  0
LINE
  5
DCB
330
94E
100
AcDbEntity
  8
Dimension
 62
     0
370
    -2
100
AcDbLine
 10
3.579401684902704
 20
5.549171160968576
 30
0.0
 11
3.343138527007967
 21
5.549171160968576
 31
0.0
  0
SOLID
  5
DCC
330
94E
100
AcDbEntity
  8
Dimension
 62
     0
100
AcDbTrace
 10
2.152401684902704
 20
5.580421160968576
 30
0.0
 11
2.152401684902704
 21
5.517921160968576
 31
0.0
 12
1.964901684902704
 22
5.549171160968576
 32
0.0
 13
1.964901684902704
 23
5.549171160968576
 33
0.0
  0
SOLID
  5
DCD
330
94E
100
AcDbEntity
  8
Dimension
 62
     0
100
AcDbTrace
 10
3.579401684902704
 20
5.580421160968576
 30
0.0
 11
3.579401684902704
 21
5.517921160968576
 31
0.0
 12
3.766901684902704
 22
5.549171160968576
 32
0.0
 13
3.766901684902704
 23
5.549171160968576
 33
0.0
  0
MTEXT
  5
DCE
330
94E
100
AcDbEntity
  8
Dimension
 62
     0
100
AcDbMText
 10
2.865901684902704
 20
5.549171160968576
 30
0.0
 40
0.09
 41
0.0
 71
     5
 72
     1
  1
\A1;1.80 [45.8mm]
 73
     1
 44
1.0
1001
ACAD
1000
MTEXTBEGIN
1070
    73
1070
     1
1070
    44
1040
1.0
1070
    74
1070
     0
1000
MTEXTEND
  0
POINT
  5
DCF
330
94E
100
AcDbEntity
  8
Defpoints
 62
     0
100
AcDbPoint
 10
1.964901684902704
 20
4.908690076017197
 30
0.0
  0
POINT
  5
DD0
330
94E
100
AcDbEntity
  8
Defpoints
 62
     0
100
AcDbPoint
 10
3.766901684902704
 20
4.758690076017197
 30
0.0
  0
POINT
  5
DD1
330
94E
100
AcDbEntity
  8
Defpoints
 62
     0
100
AcDbPoint
 10
3.766901684902704
 20
5.549171160968576
 30
0.0
  0
ENDBLK
  5
95A
330
94E
100
AcDbEntity
  8
0
100
AcDbBlockEnd
  0
BLOCK
  5
987
330
97C
100
AcDbEntity
  8
0
100
AcDbBlockBegin
  2
*D3
 70
     1
 10
0.0
 20
0.0
 30
0.0
  3
*D3
  1

  0
LINE
  5
DD2
330
97C
100
AcDbEntity
  8
Dimension
 62
     0
370
    -2
100
AcDbLine
 10
7.203401684902704
 20
3.248690076017197
 30
0.0
 11
6.044723238250245
 21
3.248690076017198
 31
0.0
  0
LINE
  5
DD3
330
97C
100
AcDbEntity
  8
Dimension
 62
     0
370
    -2
100
AcDbLine
 10
7.353401684902704
 20
4.908690076017197
 30
0.0
 11
6.044723238250245
 21
4.908690076017197
 31
0.0
  0
LINE
  5
DD4
330
97C
100
AcDbEntity
  8
Dimension
 62
     0
370
    -2
100
AcDbLine
 10
6.169723238250245
 20
3.436190076017198
 30
0.0
 11
6.169723238250245
 21
3.925663760227724
 31
0.0
  0
LINE
  5
DD5
330
97C
100
AcDbEntity
  8
Dimension
 62
     0
370
    -2
100
AcDbLine
 10
6.169723238250245
 20
4.721190076017197
 30
0.0
 11
6.169723238250245
 21
4.231716391806671
 31
0.0
  0
SOLID
  5
DD6
330
97C
100
AcDbEntity
  8
Dimension
 62
     0
100
AcDbTrace
 10
6.138473238250245
 20
3.436190076017198
 30
0.0
 11
6.200973238250245
 21
3.436190076017198
 31
0.0
 12
6.169723238250245
 22
3.248690076017198
 32
0.0
 13
6.169723238250245
 23
3.248690076017198
 33
0.0
  0
SOLID
  5
DD7
330
97C
100
AcDbEntity
  8
Dimension
 62
     0
100
AcDbTrace
 10
6.138473238250245
 20
4.721190076017197
 30
0.0
 11
6.200973238250245
 21
4.721190076017197
 31
0.0
 12
6.169723238250245
 22
4.908690076017197
 32
0.0
 13
6.169723238250245
 23
4.908690076017197
 33
0.0
  0
MTEXT
  5
DD8
330
97C
100
AcDbEntity
  8
Dimension
 62
     0
100
AcDbMText
 10
6.169723238250244
 20
4.078690076017199
 30
0.0
 40
0.09
 41
0.0
 71
     5
 72
     1
  1
\A1;1.66 [42.2mm]
 73
     1
 44
1.0
1001
ACAD
1000
MTEXTBEGIN
1070
    73
1070
     1
1070
    44
1040
1.0
1070
    74
1070
     0
1000
MTEXTEND
  0
POINT
  5
DD9
330
97C
100
AcDbEntity
  8
Defpoints
 62
     0
100
AcDbPoint
 10
7.265901684902704
 20
3.248690076017197
 30
0.0
  0
POINT
  5
DDA
330
97C
100
AcDbEntity
  8
Defpoints
 62
     0
100
AcDbPoint
 10
7.415901684902704
 20
4.908690076017197
 30
0.0
  0
POINT
  5
DDB
330
97C
100
AcDbEntity
  8
Defpoints
 62
     0
100
AcDbPoint
 10
6.169723238250245
 20
4.908690076017197
 30
0.0
  0
ENDBLK
  5
988
330
97C
100
AcDbEntity
  8
0
100
AcDbBlockEnd
  0
ENDSEC
  0
SECTION
  2
ENTITIES
  0
TEXT
  5
537
330
1F
100
AcDbEntity
  8
Title Block
100
AcDbText
 10
6.776695012655547
 20
2.672489851525508
 30
0.0
 40
0.05
  1
FILENAME:
100
AcDbText
  0
TEXT
  5
538
330
1F
100
AcDbEntity
  8
Title Block
100
AcDbText
 10
6.769285028728251
 20
2.076224967549325
 30
0.0
 40
0.35
  1
PANDUIT
100
AcDbText
  0
TEXT
  5
539
330
1F
100
AcDbEntity
  8
Title Block
100
AcDbText
 10
8.721820398821382
 20
2.061410940562986
 30
0.0
 40
0.125
  1
CORP. TINLEY PARK, IL
100
AcDbText
  0
TEXT
  5
53A
330
1F
100
AcDbEntity
  8
Title Block
100
AcDbText
 10
6.780399976708615
 20
1.91697409709392
 30
0.0
 40
0.05
  1
TITLE:
100
AcDbText
  0
MTEXT
  5
53B
330
1F
100
AcDbEntity
  8
Title Block
100
AcDbMText
 10
8.0
 20
1.372215793536348
 30
0.0
 40
0.075
 41
2.5
 71
     5
 72
     5
  1
UNLESS OTHERWISE SPECIFIED,\PDIMENSIONAL TOLERANCES ARE:       
 73
     1
 44
1.0
1001
ACAD
1000
MTEXTBEGIN
1070
    73
1070
     1
1070
    44
1040
1.0
1070
    74
1070
     0
1000
MTEXTEND
  0
MTEXT
  5
53C
330
1F
100
AcDbEntity
  8
Title Block
100
AcDbMText
 10
7.392379866610014
 20
1.131487708483632
 30
0.0
 40
0.075
 41
2.5
 71
     5
 72
     5
  1
(.X)\P(.XX)
 73
     1
 44
1.0
1001
ACAD
1000
MTEXTBEGIN
1070
    73
1070
     1
1070
    44
1040
1.0
1070
    74
1070
     0
1000
MTEXTEND
  0
MTEXT
  5
53D
330
1F
100
AcDbEntity
  8
Title Block
100
AcDbMText
 10
8.400140053124118
 20
1.131487708483632
 30
0.0
 40
0.075
 41
2.5
 71
     5
 72
     5
  1
(.XXX)\PANGLES:
 73
     1
 44
1.0
1001
ACAD
1000
MTEXTBEGIN
1070
    73
1070
     1
1070
    44
1040
1.0
1070
    74
1070
     0
1000
MTEXTEND
  0
MTEXT
  5
53E
330
1F
100
AcDbEntity
  8
Title Block
100
AcDbMText
 10
10.0
 20
1.25
 30
0.0
 40
0.06
 41
1.5
 71
     5
 72
     5
  1
UNLESS OTHERWISE SPECIFIED,\PALL DIMENSIONS ARE GIVEN IN INCHES, THIRD ANGLE PROJECTION
 73
     1
 44
1.0
1001
ACAD
1000
MTEXTBEGIN
1070
    73
1070
     1
1070
    44
1040
1.0
1070
    74
1070
     0
1000
MTEXTEND
  0
TEXT
  5
53F
330
1F
100
AcDbEntity
  8
Title Block
100
AcDbText
 10
6.760764454306187
 20
0.9281373372752312
 30
0.0
 40
0.05
  1
DRAWN BY:
100
AcDbText
  0
TEXT
  5
540
330
1F
100
AcDbEntity
  8
Title Block
100
AcDbText
 10
6.764469474180437
 20
0.6811431865635028
 30
0.0
 40
0.05
  1
DATE:
100
AcDbText
  0
TEXT
  5
541
330
1F
100
AcDbEntity
  8
Title Block
100
AcDbText
 10
6.768174438233497
 20
0.4304455338317968
 30
0.0
 40
0.05
  1
CHECKED BY:
100
AcDbText
  0
TEXT
  5
542
330
1F
100
AcDbEntity
  8
Title Block
100
AcDbText
 10
7.520289593133067
 20
0.9281373372752312
 30
0.0
 40
0.05
  1
MATERIAL:
100
AcDbText
  0
TEXT
  5
543
330
1F
100
AcDbEntity
  8
Title Block
100
AcDbText
 10
9.265344938781542
 20
0.9281373372752312
 30
0.0
 40
0.05
  1
SCALE:
100
AcDbText
  0
TEXT
  5
544
330
1F
100
AcDbEntity
  8
Title Block
100
AcDbText
 10
9.265344938781542
 20
0.6725952630490007
 30
0.0
 40
0.05
  1
DRAWING NUMBER:
100
AcDbText
  0
TEXT
  5
545
330
1F
100
AcDbEntity
  8
Title Block
100
AcDbText
 10
10.34942622928998
 20
0.6762987650689816
 30
0.0
 40
0.05
  1
DRAWING
100
AcDbText
  0
TEXT
  5
546
330
1F
100
AcDbEntity
  8
Title Block
100
AcDbText
 10
10.42723125590085
 20
0.2811642688682026
 30
0.0
 40
0.05
  1
SIZE
100
AcDbText
  0
TEXT
  5
547
330
1F
100
AcDbEntity
  8
Title Block
100
AcDbText
 10
10.38647626056889
 20
0.3911285990572359
 30
0.0
 40
0.25
  1
A
100
AcDbText
  0
MTEXT
  5
548
330
1F
100
AcDbEntity
  8
Title Block
100
AcDbMText
 10
0.375
 20
0.375
 30
0.0
 40
0.05
 41
0.25
 71
     5
 72
     5
  1
REV
 73
     1
 44
1.0
1001
ACAD
1000
MTEXTBEGIN
1070
    73
1070
     1
1070
    44
1040
1.0
1070
    74
1070
     0
1000
MTEXTEND
  0
MTEXT
  5
549
330
1F
100
AcDbEntity
  8
Title Block
100
AcDbMText
 10
0.75
 20
0.375
 30
0.0
 40
0.05
 41
0.5
 71
     5
 72
     5
  1
DATE
 73
     1
 44
1.0
1001
ACAD
1000
MTEXTBEGIN
1070
    73
1070
     1
1070
    44
1040
1.0
1070
    74
1070
     0
1000
MTEXTEND
  0
MTEXT
  5
54A
330
1F
100
AcDbEntity
  8
Title Block
100
AcDbMText
 10
1.189999999999999
 20
0.375
 30
0.0
 40
0.05
 41
0.38
 71
     5
 72
     5
  1
BY
 73
     1
 44
1.0
1001
ACAD
1000
MTEXTBEGIN
1070
    73
1070
     1
1070
    44
1040
1.0
1070
    74
1070
     0
1000
MTEXTEND
  0
MTEXT
  5
54B
330
1F
100
AcDbEntity
  8
Title Block
100
AcDbMText
 10
1.564999999999999
 20
0.375
 30
0.0
 40
0.05
 41
0.38
 71
     5
 72
     5
  1
CHK
 73
     1
 44
1.0
1001
ACAD
1000
MTEXTBEGIN
1070
    73
1070
     1
1070
    44
1040
1.0
1070
    74
1070
     0
1000
MTEXTEND
  0
MTEXT
  5
54C
330
1F
100
AcDbEntity
  8
Title Block
100
AcDbMText
 10
3.125
 20
0.375
 30
0.0
 40
0.05
 41
2.75
 71
     5
 72
     5
  1
DESCRIPTION
 73
     1
 44
1.0
1001
ACAD
1000
MTEXTBEGIN
1070
    73
1070
     1
1070
    44
1040
1.0
1070
    74
1070
     0
1000
MTEXTEND
  0
MTEXT
  5
54D
330
1F
100
AcDbEntity
  8
Title Block
100
AcDbMText
 10
5.064999999999999
 20
0.375
 30
0.0
 40
0.05
 41
1.129999999999999
 71
     5
 72
     5
  1
ECN   -   R
 73
     1
 44
1.0
1001
ACAD
1000
MTEXTBEGIN
1070
    73
1070
     1
1070
    44
1040
1.0
1070
    74
1070
     0
1000
MTEXTEND
  0
MTEXT
  5
54E
330
1F
100
AcDbEntity
  8
Title Block
100
AcDbMText
 10
5.815
 20
0.375
 30
0.0
 40
0.05
 41
0.38
 71
     5
 72
     5
  1
CUST
 73
     1
 44
1.0
1001
ACAD
1000
MTEXTBEGIN
1070
    73
1070
     1
1070
    44
1040
1.0
1070
    74
1070
     0
1000
MTEXTEND
  0
MTEXT
  5
54F
330
1F
100
AcDbEntity
  8
Title Block
100
AcDbMText
 10
6.19
 20
0.375
 30
0.0
 40
0.05
 41
0.38
 71
     5
 72
     5
  1
SUP
 73
     1
 44
1.0
1001
ACAD
1000
MTEXTBEGIN
1070
    73
1070
     1
1070
    44
1040
1.0
1070
    74
1070
     0
1000
MTEXTEND
  0
LWPOLYLINE
  5
550
330
1F
100
AcDbEntity
  8
Title Block
100
AcDbPolyline
 90
        4
 70
     1
 43
0.01
 10
0.25
 20
8.250000000000001
 10
0.25
 20
0.25
 10
10.75
 20
0.25
 10
10.75
 20
8.25
  0
LINE
  5
551
330
1F
100
AcDbEntity
  8
Title Block
100
AcDbLine
 10
10.75
 20
2.749999999999999
 30
0.0
 11
0.25
 21
2.75
 31
0.0
  0
LINE
  5
552
330
1F
100
AcDbEntity
  8
Title Block
100
AcDbLine
 10
6.75
 20
2.75
 30
0.0
 11
6.75
 21
0.25
 31
0.0
  0
LINE
  5
553
330
1F
100
AcDbEntity
  8
Title Block
100
AcDbLine
 10
10.75
 20
2.499999999999999
 30
0.0
 11
0.25
 21
2.5
 31
0.0
  0
LINE
  5
554
330
1F
100
AcDbEntity
  8
Title Block
100
AcDbLine
 10
6.75
 20
2.25
 30
0.0
 11
0.25
 21
2.25
 31
0.0
  0
LINE
  5
555
330
1F
100
AcDbEntity
  8
Title Block
100
AcDbLine
 10
10.75
 20
1.999999999999999
 30
0.0
 11
0.25
 21
2.0
 31
0.0
  0
LINE
  5
556
330
1F
100
AcDbEntity
  8
Title Block
100
AcDbLine
 10
6.75
 20
1.75
 30
0.0
 11
0.25
 21
1.75
 31
0.0
  0
LINE
  5
557
330
1F
100
AcDbEntity
  8
Title Block
100
AcDbLine
 10
10.75
 20
1.499999999999999
 30
0.0
 11
0.25
 21
1.5
 31
0.0
  0
LINE
  5
558
330
1F
100
AcDbEntity
  8
Title Block
100
AcDbLine
 10
6.75
 20
1.25
 30
0.0
 11
0.25
 21
1.25
 31
0.0
  0
LINE
  5
559
330
1F
100
AcDbEntity
  8
Title Block
100
AcDbLine
 10
10.75
 20
0.9999999999999996
 30
0.0
 11
0.25
 21
1.0
 31
0.0
  0
LINE
  5
55A
330
1F
100
AcDbEntity
  8
Title Block
100
AcDbLine
 10
7.5
 20
0.75
 30
0.0
 11
0.25
 21
0.7500000000000009
 31
0.0
  0
LINE
  5
55B
330
1F
100
AcDbEntity
  8
Title Block
100
AcDbLine
 10
7.5
 20
0.5
 30
0.0
 11
0.25
 21
0.5000000000000009
 31
0.0
  0
LINE
  5
55C
330
1F
100
AcDbEntity
  8
Title Block
100
AcDbLine
 10
0.25
 20
0.25
 30
0.0
 11
0.25
 21
2.75
 31
0.0
  0
LINE
  5
55D
330
1F
100
AcDbEntity
  8
Title Block
100
AcDbLine
 10
0.5
 20
0.25
 30
0.0
 11
0.5
 21
2.750000000000001
 31
0.0
  0
LINE
  5
55E
330
1F
100
AcDbEntity
  8
Title Block
100
AcDbLine
 10
1.0
 20
0.25
 30
0.0
 11
1.0
 21
2.750000000000001
 31
0.0
  0
LINE
  5
55F
330
1F
100
AcDbEntity
  8
Title Block
100
AcDbLine
 10
1.375
 20
0.25
 30
0.0
 11
1.375
 21
2.750000000000001
 31
0.0
  0
LINE
  5
560
330
1F
100
AcDbEntity
  8
Title Block
100
AcDbLine
 10
1.75
 20
0.25
 30
0.0
 11
1.75
 21
2.750000000000001
 31
0.0
  0
LINE
  5
561
330
1F
100
AcDbEntity
  8
Title Block
100
AcDbLine
 10
6.375
 20
2.75
 30
0.0
 11
6.375
 21
0.25
 31
0.0
  0
LINE
  5
562
330
1F
100
AcDbEntity
  8
Title Block
100
AcDbLine
 10
6.0
 20
2.75
 30
0.0
 11
6.0
 21
0.25
 31
0.0
  0
LINE
  5
563
330
1F
100
AcDbEntity
  8
Title Block
100
AcDbLine
 10
5.625
 20
2.75
 30
0.0
 11
5.625
 21
0.25
 31
0.0
  0
LINE
  5
564
330
1F
100
AcDbEntity
  8
Title Block
100
AcDbLine
 10
5.25
 20
2.75
 30
0.0
 11
5.25
 21
0.5000000000000002
 31
0.0
  0
LINE
  5
565
330
1F
100
AcDbEntity
  8
Title Block
100
AcDbLine
 10
4.5
 20
2.75
 30
0.0
 11
4.5
 21
0.25
 31
0.0
  0
LINE
  5
566
330
1F
100
AcDbEntity
  8
Title Block
100
AcDbLine
 10
9.25
 20
0.75
 30
0.0
 11
9.25
 21
1.499999999999999
 31
0.0
  0
LINE
  5
567
330
1F
100
AcDbEntity
  8
Title Block
100
AcDbLine
 10
9.25
 20
0.75
 30
0.0
 11
9.25
 21
0.25
 31
0.0
  0
LINE
  5
568
330
1F
100
AcDbEntity
  8
Title Block
100
AcDbLine
 10
9.25
 20
0.75
 30
0.0
 11
10.75
 21
0.75
 31
0.0
  0
LINE
  5
569
330
1F
100
AcDbEntity
  8
Title Block
100
AcDbLine
 10
7.5
 20
0.5
 30
0.0
 11
7.5
 21
0.25
 31
0.0
  0
LINE
  5
56A
330
1F
100
AcDbEntity
  8
Title Block
100
AcDbLine
 10
7.5
 20
0.5
 30
0.0
 11
7.5
 21
1.0
 31
0.0
  0
LINE
  5
56B
330
1F
100
AcDbEntity
  8
Title Block
100
AcDbLine
 10
10.25
 20
0.75
 30
0.0
 11
10.25
 21
0.25
 31
0.0
  0
POINT
  5
56C
330
1F
100
AcDbEntity
  8
Title Block
100
AcDbPoint
 10
11.0
 20
8.5
 30
0.0
  0
POINT
  5
56D
330
1F
100
AcDbEntity
  8
Title Block
100
AcDbPoint
 10
11.0
 20
0.0
 30
0.0
  0
POINT
  5
56E
330
1F
100
AcDbEntity
  8
Title Block
100
AcDbPoint
 10
0.0
 20
0.0
 30
0.0
  0
POINT
  5
56F
330
1F
100
AcDbEntity
  8
Title Block
100
AcDbPoint
 10
0.0
 20
8.500000000000001
 30
0.0
  0
MTEXT
  5
570
330
1F
100
AcDbEntity
  8
Text
100
AcDbMText
 10
0.375
 20
0.6250000000000009
 30
0.0
 40
0.09
 41
0.25
 71
     5
 72
     5
  1
R
 73
     1
 44
1.0
1001
ACAD
1000
MTEXTBEGIN
1070
    73
1070
     1
1070
    44
1040
1.0
1070
    74
1070
     0
1000
MTEXTEND
  0
MTEXT
  5
571
330
1F
100
AcDbEntity
  8
Text
100
AcDbMText
 10
0.75
 20
0.6250000000000009
 30
0.0
 40
0.07
 41
0.5
 71
     5
 72
     5
  1
12-28-05
 73
     1
 44
1.0
1001
ACAD
1000
MTEXTBEGIN
1070
    73
1070
     1
1070
    44
1040
1.0
1070
    74
1070
     0
1000
MTEXTEND
  0
MTEXT
  5
572
330
1F
100
AcDbEntity
  8
Text
100
AcDbMText
 10
1.1875
 20
0.6250000000000009
 30
0.0
 40
0.09
 41
0.375
 71
     5
 72
     5
  1
MSO
 73
     1
 44
1.0
1001
ACAD
1000
MTEXTBEGIN
1070
    73
1070
     1
1070
    44
1040
1.0
1070
    74
1070
     0
1000
MTEXTEND
  0
MTEXT
  5
573
330
1F
100
AcDbEntity
  8
Text
100
AcDbMText
 10
1.5625
 20
0.6250000000000009
 30
0.0
 40
0.07
 41
0.375
 71
     5
 72
     5
  1
DJWA
 73
     1
 44
1.0
1001
ACAD
1000
MTEXTBEGIN
1070
    73
1070
     1
1070
    44
1040
1.0
1070
    74
1070
     0
1000
MTEXTEND
  0
MTEXT
  5
574
330
1F
100
AcDbEntity
  8
Text
100
AcDbMText
 10
3.125
 20
0.6250000000000005
 30
0.0
 40
0.09
 41
2.75
 71
     5
 72
     5
  1
DRAWING RELEASED
 73
     1
 44
1.0
1001
ACAD
1000
MTEXTBEGIN
1070
    73
1070
     1
1070
    44
1040
1.0
1070
    74
1070
     0
1000
MTEXTEND
  0
MTEXT
  5
577
330
1F
100
AcDbEntity
  8
Text
100
AcDbMText
 10
7.474999999999999
 20
0.85
 30
0.0
 40
0.09
 41
0.75
 71
     6
 72
     5
  1
MSO
 73
     1
 44
1.0
1001
ACAD
1000
MTEXTBEGIN
1070
    73
1070
     1
1070
    44
1040
1.0
1070
    74
1070
     0
1000
MTEXTEND
  0
MTEXT
  5
578
330
1F
100
AcDbEntity
  8
Text
100
AcDbMText
 10
7.474999999999999
 20
0.5999999999999999
 30
0.0
 40
0.09
 41
0.75
 71
     6
 72
     5
  1
12-28-05
 73
     1
 44
1.0
1001
ACAD
1000
MTEXTBEGIN
1070
    73
1070
     1
1070
    44
1040
1.0
1070
    74
1070
     0
1000
MTEXTEND
  0
MTEXT
  5
579
330
1F
100
AcDbEntity
  8
Text
100
AcDbMText
 10
7.474999999999999
 20
0.3500000000000001
 30
0.0
 40
0.09
 41
0.75
 71
     6
 72
     5
  1
DJWA
 73
     1
 44
1.0
1001
ACAD
1000
MTEXTBEGIN
1070
    73
1070
     1
1070
    44
1040
1.0
1070
    74
1070
     0
1000
MTEXTEND
  0
MTEXT
  5
57A
330
1F
100
AcDbEntity
  8
Text
100
AcDbMText
 10
8.75
 20
2.625
 30
0.0
 40
0.09
 41
4.0
 71
     5
 72
     5
  1
F2PCLB58.dwg
 73
     1
 44
1.0
1001
ACAD
1000
MTEXTBEGIN
1070
    73
1070
     1
1070
    44
1040
1.0
1070
    74
1070
     0
1000
MTEXTEND
  0
MTEXT
  5
57B
330
1F
100
AcDbEntity
  8
Text
100
AcDbMText
 10
8.75
 20
1.75
 30
0.0
 40
0.09
 41
4.0
 71
     5
 72
     5
  1
FIBER ROUTING 2-PIECE LADDER RACK BRACKET\P-{\H0.75x;\S5#8;}" (M16) THREADED ROD (F2PCLB58, F2PCLB58M)\PMARKETING DRAWING
 73
     1
 44
1.0
1001
ACAD
1000
MTEXTBEGIN
1070
    73
1070
     1
1070
    44
1040
1.0
1070
    74
1070
     1
1000
MTEXTEND
  0
MTEXT
  5
57C
330
1F
100
AcDbEntity
  8
Text
100
AcDbMText
 10
10.0
 20
0.8749999999999998
 30
0.0
 40
0.12
 41
1.5
 71
     5
 72
     5
  1
FULL
 73
     1
 44
1.0
1001
ACAD
1000
MTEXTBEGIN
1070
    73
1070
     1
1070
    44
1040
1.0
1070
    74
1070
     0
1000
MTEXTEND
  0
MTEXT
  5
57D
330
1F
100
AcDbEntity
  8
Text
100
AcDbMText
 10
9.75
 20
0.5
 30
0.0
 40
0.12
 41
1.0
 71
     5
 72
     5
  1
36897-1099
 73
     1
 44
1.0
1001
ACAD
1000
MTEXTBEGIN
1070
    73
1070
     1
1070
    44
1040
1.0
1070
    74
1070
     0
1000
MTEXTEND
  0
DIMENSION
  5
8DD
330
1F
100
AcDbEntity
  8
Dimension
100
AcDbDimension
  2
*D1
 10
4.684709153533784
 20
6.417887631876234
 30
0.0
 11
4.684709153533783
 21
7.267887631876234
 31
0.0
 70
    32
 71
     5
 42
1.699999999999999
  3
Standard
100
AcDbAlignedDimension
 13
3.616901684902704
 23
8.117887631876234
 33
0.0
 14
3.616901684902704
 24
6.417887631876234
 34
0.0
 50
90.0
100
AcDbRotatedDimension
  0
DIMENSION
  5
94D
330
1F
100
AcDbEntity
  8
Dimension
100
AcDbDimension
  2
*D2
 10
3.766901684902704
 20
5.549171160968576
 30
0.0
 11
2.865901684902704
 21
5.549171160968576
 31
0.0
 70
    32
 71
     5
 42
1.801999999999999
  3
Standard
100
AcDbAlignedDimension
 13
1.964901684902704
 23
4.908690076017197
 33
0.0
 14
3.766901684902704
 24
4.758690076017197
 34
0.0
100
AcDbRotatedDimension
  0
DIMENSION
  5
97B
330
1F
100
AcDbEntity
  8
Dimension
100
AcDbDimension
  2
*D3
 10
6.169723238250245
 20
4.908690076017197
 30
0.0
 11
6.169723238250244
 21
4.078690076017199
 31
0.0
 70
    32
 71
     5
 42
1.66
  3
Standard
100
AcDbAlignedDimension
 13
7.265901684902704
 23
3.248690076017197
 33
0.0
 14
7.415901684902704
 24
4.908690076017197
 34
0.0
 50
90.0
100
AcDbRotatedDimension
  0
TEXT
  5
995
330
1F
100
AcDbEntity
  8
Text
100
AcDbText
 10
1.701877936164361
 20
5.876099703416354
 30
0.0
 40
0.125
  1
TOP VIEW - BRACKET CLIP
100
AcDbText
  0
TEXT
  5
996
330
1F
100
AcDbEntity
  8
Text
100
AcDbText
 10
1.657760204633355
 20
2.890729921649701
 30
0.0
 40
0.125
  1
FRONT VIEW - BRACKET CLIP
100
AcDbText
  0
TEXT
  5
997
330
1F
100
AcDbEntity
  8
Text
100
AcDbText
 10
6.664502521966664
 20
2.881537019548337
 30
0.0
 40
0.125
  1
RIGHT SIDE VIEW - BRACKET CLIP
100
AcDbText
  0
MTEXT
  5
99C
102
{ACAD_XDICTIONARY
360
E11
102
}
330
1F
100
AcDbEntity
  8
Text
100
AcDbMText
 10
6.417901730363258
 20
8.007508248891838
 30
0.0
 40
0.09
 41
4.178027144776841
 71
     1
 72
     5
  3
\A1;{\LNOTES:\P\P}1.  THE FIBER ROUTING 2-PIECE LADDER RACK BRACKET -{\H0.75x;\S5#8;}" (M16)\P   THREADED ROD INCLUDES:\P\P   TWO (2) BRACKET CLIPS,\P   TWO (2) {\H0.75x;\S5#8;}" HELICAL SPRING LOCKWASHERS,\P   TWO (2) {\H0.75x;\S5#8;}-11 HEAVY HEX N
  1
UTS (F2PCLB58 ONLY),\P   TWO (2) M16x2 HEX NUTS (F2PCLB58M ONLY).
 73
     1
 44
1.0
1001
ACAD
1000
MTEXTBEGIN
1070
    73
1070
     1
1070
    44
1040
1.0
1070
    74
1070
     1
1000
MTEXTEND
  0
LINE
  5
9DA
330
1F
100
AcDbEntity
  8
Object
100
AcDbLine
 10
8.965901684902704
 20
3.248690076017197
 30
0.0
 11
8.965901684902704
 21
3.254690076017197
 31
0.0
  0
LINE
  5
9DB
330
1F
100
AcDbEntity
  8
Object
100
AcDbLine
 10
8.965901684902704
 20
3.254690076017197
 30
0.0
 11
8.965901684902704
 21
3.272690076017197
 31
0.0
  0
LINE
  5
9DC
330
1F
100
AcDbEntity
  8
Object
100
AcDbLine
 10
8.965901684902704
 20
3.272690076017197
 30
0.0
 11
8.965901684902704
 21
3.299690076017197
 31
0.0
  0
LINE
  5
9DD
330
1F
100
AcDbEntity
  8
Object
100
AcDbLine
 10
8.965901684902704
 20
3.299690076017197
 30
0.0
 11
8.965901684902704
 21
3.334690076017198
 31
0.0
  0
LINE
  5
9DE
330
1F
100
AcDbEntity
  8
Object
100
AcDbLine
 10
8.965901684902704
 20
3.334690076017198
 30
0.0
 11
8.965901684902704
 21
3.373690076017197
 31
0.0
  0
LINE
  5
9DF
330
1F
100
AcDbEntity
  8
Object
100
AcDbLine
 10
8.965901684902704
 20
3.373690076017197
 30
0.0
 11
8.965901684902704
 21
3.598690076017197
 31
0.0
  0
LINE
  5
9E0
330
1F
100
AcDbEntity
  8
Object
100
AcDbLine
 10
8.965901684902704
 20
3.598690076017197
 30
0.0
 11
8.965901684902704
 21
3.608690076017198
 31
0.0
  0
LINE
  5
9E1
330
1F
100
AcDbEntity
  8
Object
100
AcDbLine
 10
8.965901684902704
 20
3.608690076017198
 30
0.0
 11
8.965901684902704
 21
3.598690076017197
 31
0.0
  0
LINE
  5
9E2
330
1F
100
AcDbEntity
  8
Object
100
AcDbLine
 10
8.965901684902704
 20
3.608690076017198
 30
0.0
 11
8.965901684902704
 21
4.758690076017197
 31
0.0
  0
LINE
  5
9E3
330
1F
100
AcDbEntity
  8
Object
100
AcDbLine
 10
8.845901684902704
 20
3.334690076017198
 30
0.0
 11
8.845901684902704
 21
3.299690076017197
 31
0.0
  0
LINE
  5
9E4
330
1F
100
AcDbEntity
  8
Object
100
AcDbLine
 10
8.965901684902704
 20
3.334690076017198
 30
0.0
 11
8.965901684902704
 21
3.299690076017197
 31
0.0
  0
LINE
  5
9E5
330
1F
100
AcDbEntity
  8
Object
100
AcDbLine
 10
8.965901684902704
 20
3.299690076017197
 30
0.0
 11
8.965901684902704
 21
3.272690076017197
 31
0.0
  0
LINE
  5
9E6
330
1F
100
AcDbEntity
  8
Object
100
AcDbLine
 10
8.965901684902704
 20
3.272690076017197
 30
0.0
 11
8.965901684902704
 21
3.254690076017197
 31
0.0
  0
LINE
  5
9E7
330
1F
100
AcDbEntity
  8
Object
100
AcDbLine
 10
8.845901684902704
 20
3.254690076017197
 30
0.0
 11
8.845901684902704
 21
3.272690076017197
 31
0.0
  0
LINE
  5
9E8
330
1F
100
AcDbEntity
  8
Object
100
AcDbLine
 10
8.845901684902704
 20
3.272690076017197
 30
0.0
 11
8.845901684902704
 21
3.299690076017197
 31
0.0
  0
LINE
  5
9E9
330
1F
100
AcDbEntity
  8
Object
100
AcDbLine
 10
8.965901684902704
 20
3.334690076017198
 30
0.0
 11
8.965901684902704
 21
3.373690076017197
 31
0.0
  0
LINE
  5
9EA
330
1F
100
AcDbEntity
  8
Object
100
AcDbLine
 10
8.845901684902704
 20
3.334690076017198
 30
0.0
 11
8.845901684902704
 21
3.373690076017197
 31
0.0
  0
LINE
  5
9EB
330
1F
100
AcDbEntity
  8
Object
100
AcDbLine
 10
8.845901684902704
 20
3.373690076017197
 30
0.0
 11
8.965901684902704
 21
3.373690076017197
 31
0.0
  0
LINE
  5
9EC
330
1F
100
AcDbEntity
  8
Object
100
AcDbLine
 10
8.965901684902704
 20
3.254690076017197
 30
0.0
 11
8.965901684902704
 21
3.248690076017197
 31
0.0
  0
LINE
  5
9ED
330
1F
100
AcDbEntity
  8
Object
100
AcDbLine
 10
8.965901684902704
 20
3.248690076017197
 30
0.0
 11
8.845901684902704
 21
3.248690076017197
 31
0.0
  0
LINE
  5
9EE
330
1F
100
AcDbEntity
  8
Object
100
AcDbLine
 10
8.845901684902704
 20
3.248690076017197
 30
0.0
 11
8.845901684902704
 21
3.254690076017197
 31
0.0
  0
LINE
  5
9EF
330
1F
100
AcDbEntity
  8
Object
100
AcDbLine
 10
8.965901684902704
 20
3.601690076017197
 30
0.0
 11
8.965901684902704
 21
3.604690076017197
 31
0.0
  0
LINE
  5
9F0
330
1F
100
AcDbEntity
  8
Object
100
AcDbLine
 10
8.965901684902704
 20
3.604690076017197
 30
0.0
 11
8.965901684902704
 21
3.608690076017198
 31
0.0
  0
LINE
  5
9F1
330
1F
100
AcDbEntity
  8
Object
100
AcDbLine
 10
8.965901684902704
 20
3.608690076017198
 30
0.0
 11
8.965901684902704
 21
3.601690076017197
 31
0.0
  0
LINE
  5
9F2
330
1F
100
AcDbEntity
  8
Object
100
AcDbLine
 10
8.965901684902704
 20
3.601690076017197
 30
0.0
 11
8.965901684902704
 21
3.608690076017198
 31
0.0
  0
LINE
  5
9F3
330
1F
100
AcDbEntity
  8
Object
100
AcDbLine
 10
8.965901684902704
 20
3.608690076017198
 30
0.0
 11
8.965901684902704
 21
3.604690076017197
 31
0.0
  0
LINE
  5
9F4
330
1F
100
AcDbEntity
  8
Object
100
AcDbLine
 10
8.965901684902704
 20
3.604690076017197
 30
0.0
 11
8.965901684902704
 21
3.608690076017198
 31
0.0
  0
LINE
  5
9F5
330
1F
100
AcDbEntity
  8
Object
100
AcDbLine
 10
8.965901684902704
 20
3.601690076017197
 30
0.0
 11
8.965901684902704
 21
3.598690076017197
 31
0.0
  0
LINE
  5
9F6
330
1F
100
AcDbEntity
  8
Object
100
AcDbLine
 10
8.965901684902704
 20
3.598690076017197
 30
0.0
 11
8.965901684902704
 21
3.608690076017198
 31
0.0
  0
LINE
  5
9F7
330
1F
100
AcDbEntity
  8
Object
100
AcDbLine
 10
8.965901684902704
 20
3.608690076017198
 30
0.0
 11
8.965901684902704
 21
3.598690076017197
 31
0.0
  0
LINE
  5
9F8
330
1F
100
AcDbEntity
  8
Object
100
AcDbLine
 10
8.965901684902704
 20
3.598690076017197
 30
0.0
 11
8.958901684902704
 21
3.561690076017197
 31
0.0
  0
LINE
  5
9F9
330
1F
100
AcDbEntity
  8
Object
100
AcDbLine
 10
8.958901684902704
 20
3.561690076017197
 30
0.0
 11
8.955901684902704
 21
3.554690076017197
 31
0.0
  0
LINE
  5
9FA
330
1F
100
AcDbEntity
  8
Object
100
AcDbLine
 10
8.955901684902704
 20
3.554690076017197
 30
0.0
 11
8.937901684902703
 21
3.520690076017197
 31
0.0
  0
LINE
  5
9FB
330
1F
100
AcDbEntity
  8
Object
100
AcDbLine
 10
8.937901684902703
 20
3.520690076017197
 30
0.0
 11
8.933901684902703
 21
3.515690076017198
 31
0.0
  0
LINE
  5
9FC
330
1F
100
AcDbEntity
  8
Object
100
AcDbLine
 10
8.933901684902703
 20
3.515690076017198
 30
0.0
 11
8.904901684902704
 21
3.486690076017198
 31
0.0
  0
LINE
  5
9FD
330
1F
100
AcDbEntity
  8
Object
100
AcDbLine
 10
8.904901684902704
 20
3.486690076017198
 30
0.0
 11
8.900901684902704
 21
3.484690076017197
 31
0.0
  0
LINE
  5
9FE
330
1F
100
AcDbEntity
  8
Object
100
AcDbLine
 10
8.900901684902704
 20
3.484690076017197
 30
0.0
 11
8.862901684902704
 21
3.465690076017197
 31
0.0
  0
LINE
  5
9FF
330
1F
100
AcDbEntity
  8
Object
100
AcDbLine
 10
8.862901684902704
 20
3.465690076017197
 30
0.0
 11
8.860901684902703
 21
3.465690076017197
 31
0.0
  0
LINE
  5
A00
330
1F
100
AcDbEntity
  8
Object
100
AcDbLine
 10
8.860901684902703
 20
3.465690076017197
 30
0.0
 11
8.815901684902703
 21
3.458690076017197
 31
0.0
  0
LINE
  5
A01
330
1F
100
AcDbEntity
  8
Object
100
AcDbLine
 10
8.815901684902703
 20
3.458690076017197
 30
0.0
 11
8.862901684902704
 21
3.465690076017197
 31
0.0
  0
LINE
  5
A02
330
1F
100
AcDbEntity
  8
Object
100
AcDbLine
 10
8.815901684902703
 20
3.458690076017197
 30
0.0
 11
8.860901684902703
 21
3.465690076017197
 31
0.0
  0
LINE
  5
A03
330
1F
100
AcDbEntity
  8
Object
100
AcDbLine
 10
8.965901684902704
 20
3.601690076017197
 30
0.0
 11
8.965901684902704
 21
3.604690076017197
 31
0.0
  0
LINE
  5
A04
330
1F
100
AcDbEntity
  8
Object
100
AcDbLine
 10
8.965901684902704
 20
3.604690076017197
 30
0.0
 11
8.965901684902704
 21
3.608690076017198
 31
0.0
  0
LINE
  5
A05
330
1F
100
AcDbEntity
  8
Object
100
AcDbLine
 10
8.965901684902704
 20
3.608690076017198
 30
0.0
 11
8.965901684902704
 21
3.598690076017197
 31
0.0
  0
LINE
  5
A06
330
1F
100
AcDbEntity
  8
Object
100
AcDbLine
 10
8.965901684902704
 20
3.598690076017197
 30
0.0
 11
8.965901684902704
 21
3.601690076017197
 31
0.0
  0
LINE
  5
A07
330
1F
100
AcDbEntity
  8
Object
100
AcDbLine
 10
8.965901684902704
 20
3.373690076017197
 30
0.0
 11
8.965901684902704
 21
3.598690076017197
 31
0.0
  0
LINE
  5
A08
330
1F
100
AcDbEntity
  8
Object
100
AcDbLine
 10
8.845901684902704
 20
3.462690076017198
 30
0.0
 11
8.845901684902704
 21
3.373690076017197
 31
0.0
  0
LINE
  5
A09
330
1F
100
AcDbEntity
  8
Object
100
AcDbLine
 10
8.845901684902704
 20
4.758690076017197
 30
0.0
 11
8.965901684902704
 21
4.758690076017197
 31
0.0
  0
LINE
  5
A0A
330
1F
100
AcDbEntity
  8
Object
100
AcDbLine
 10
8.965901684902704
 20
4.758690076017197
 30
0.0
 11
8.965901684902704
 21
3.608690076017198
 31
0.0
  0
LINE
  5
A0B
330
1F
100
AcDbEntity
  8
Object
100
AcDbLine
 10
8.965901684902704
 20
3.608690076017198
 30
0.0
 11
8.845901684902704
 21
3.608690076017198
 31
0.0
  0
LINE
  5
A0C
330
1F
100
AcDbEntity
  8
Object
100
AcDbLine
 10
8.845901684902704
 20
3.608690076017198
 30
0.0
 11
8.845901684902704
 21
4.758690076017197
 31
0.0
  0
LINE
  5
A0D
330
1F
100
AcDbEntity
  8
Object
100
AcDbLine
 10
8.965901684902704
 20
4.758690076017197
 30
0.0
 11
8.958901684902704
 21
4.805690076017198
 31
0.0
  0
LINE
  5
A0E
330
1F
100
AcDbEntity
  8
Object
100
AcDbLine
 10
8.958901684902704
 20
4.805690076017198
 30
0.0
 11
8.937901684902703
 21
4.846690076017198
 31
0.0
  0
LINE
  5
A0F
330
1F
100
AcDbEntity
  8
Object
100
AcDbLine
 10
8.937901684902703
 20
4.846690076017198
 30
0.0
 11
8.904901684902704
 21
4.880690076017197
 31
0.0
  0
LINE
  5
A10
330
1F
100
AcDbEntity
  8
Object
100
AcDbLine
 10
8.904901684902704
 20
4.880690076017197
 30
0.0
 11
8.862901684902704
 21
4.901690076017198
 31
0.0
  0
LINE
  5
A11
330
1F
100
AcDbEntity
  8
Object
100
AcDbLine
 10
8.862901684902704
 20
4.901690076017198
 30
0.0
 11
8.815901684902703
 21
4.908690076017197
 31
0.0
  0
LINE
  5
A12
330
1F
100
AcDbEntity
  8
Object
100
AcDbLine
 10
8.845901684902704
 20
3.248690076017197
 30
0.0
 11
8.965901684902704
 21
3.248690076017197
 31
0.0
  0
LINE
  5
A13
330
1F
100
AcDbEntity
  8
Object
100
AcDbLine
 10
8.845901684902704
 20
4.758690076017197
 30
0.0
 11
8.845901684902704
 21
3.608690076017198
 31
0.0
  0
LINE
  5
A14
330
1F
100
AcDbEntity
  8
Object
100
AcDbLine
 10
8.845901684902704
 20
3.462690076017198
 30
0.0
 11
8.845901684902704
 21
3.373690076017197
 31
0.0
  0
LINE
  5
A15
330
1F
100
AcDbEntity
  8
Object
100
AcDbLine
 10
8.845901684902704
 20
3.299690076017197
 30
0.0
 11
8.845901684902704
 21
3.334690076017198
 31
0.0
  0
LINE
  5
A16
330
1F
100
AcDbEntity
  8
Object
100
AcDbLine
 10
8.845901684902704
 20
3.334690076017198
 30
0.0
 11
8.845901684902704
 21
3.373690076017197
 31
0.0
  0
LINE
  5
A17
330
1F
100
AcDbEntity
  8
Object
100
AcDbLine
 10
8.845901684902704
 20
3.299690076017197
 30
0.0
 11
8.845901684902704
 21
3.272690076017197
 31
0.0
  0
LINE
  5
A18
330
1F
100
AcDbEntity
  8
Object
100
AcDbLine
 10
8.845901684902704
 20
3.272690076017197
 30
0.0
 11
8.845901684902704
 21
3.254690076017197
 31
0.0
  0
LINE
  5
A19
330
1F
100
AcDbEntity
  8
Object
100
AcDbLine
 10
8.845901684902704
 20
3.254690076017197
 30
0.0
 11
8.845901684902704
 21
3.248690076017197
 31
0.0
  0
LINE
  5
A1A
330
1F
100
AcDbEntity
  8
Object
100
AcDbLine
 10
8.815901684902703
 20
3.458690076017197
 30
0.0
 11
8.575901684902703
 21
3.458690076017197
 31
0.0
  0
LINE
  5
A1B
330
1F
100
AcDbEntity
  8
Object
100
AcDbLine
 10
8.575901684902703
 20
3.458690076017197
 30
0.0
 11
8.560901684902704
 21
3.458690076017197
 31
0.0
  0
LINE
  5
A1C
330
1F
100
AcDbEntity
  8
Object
100
AcDbLine
 10
8.560901684902704
 20
3.458690076017197
 30
0.0
 11
8.549901684902703
 21
3.458690076017197
 31
0.0
  0
LINE
  5
A1D
330
1F
100
AcDbEntity
  8
Object
100
AcDbLine
 10
8.549901684902703
 20
3.458690076017197
 30
0.0
 11
8.545901684902704
 21
3.458690076017197
 31
0.0
  0
LINE
  5
A1E
330
1F
100
AcDbEntity
  8
Object
100
AcDbLine
 10
8.958901684902704
 20
3.561690076017197
 30
0.0
 11
8.965901684902704
 21
3.608690076017198
 31
0.0
  0
LINE
  5
A1F
330
1F
100
AcDbEntity
  8
Object
100
AcDbLine
 10
8.845901684902704
 20
3.608690076017198
 30
0.0
 11
8.841901684902703
 21
3.593690076017197
 31
0.0
  0
LINE
  5
A20
330
1F
100
AcDbEntity
  8
Object
100
AcDbLine
 10
8.937901684902703
 20
3.520690076017197
 30
0.0
 11
8.958901684902704
 21
3.561690076017197
 31
0.0
  0
LINE
  5
A21
330
1F
100
AcDbEntity
  8
Object
100
AcDbLine
 10
8.841901684902703
 20
3.593690076017197
 30
0.0
 11
8.830901684902704
 21
3.582690076017197
 31
0.0
  0
LINE
  5
A22
330
1F
100
AcDbEntity
  8
Object
100
AcDbLine
 10
8.937901684902703
 20
3.520690076017197
 30
0.0
 11
8.904901684902704
 21
3.486690076017198
 31
0.0
  0
LINE
  5
A23
330
1F
100
AcDbEntity
  8
Object
100
AcDbLine
 10
8.904901684902704
 20
3.486690076017198
 30
0.0
 11
8.862901684902704
 21
3.465690076017197
 31
0.0
  0
LINE
  5
A24
330
1F
100
AcDbEntity
  8
Object
100
AcDbLine
 10
8.830901684902704
 20
3.582690076017197
 30
0.0
 11
8.815901684902703
 21
3.578690076017197
 31
0.0
  0
LINE
  5
A25
330
1F
100
AcDbEntity
  8
Object
100
AcDbLine
 10
8.965901684902704
 20
4.758690076017197
 30
0.0
 11
8.958901684902704
 21
4.805690076017198
 31
0.0
  0
LINE
  5
A26
330
1F
100
AcDbEntity
  8
Object
100
AcDbLine
 10
8.904901684902704
 20
4.880690076017197
 30
0.0
 11
8.937901684902703
 21
4.846690076017198
 31
0.0
  0
LINE
  5
A27
330
1F
100
AcDbEntity
  8
Object
100
AcDbLine
 10
8.937901684902703
 20
4.846690076017198
 30
0.0
 11
8.958901684902704
 21
4.805690076017198
 31
0.0
  0
LINE
  5
A28
330
1F
100
AcDbEntity
  8
Object
100
AcDbLine
 10
8.845901684902704
 20
4.758690076017197
 30
0.0
 11
8.841901684902703
 21
4.773690076017198
 31
0.0
  0
LINE
  5
A29
330
1F
100
AcDbEntity
  8
Object
100
AcDbLine
 10
8.841901684902703
 20
4.773690076017198
 30
0.0
 11
8.830901684902704
 21
4.784690076017197
 31
0.0
  0
LINE
  5
A2A
330
1F
100
AcDbEntity
  8
Object
100
AcDbLine
 10
8.904901684902704
 20
4.880690076017197
 30
0.0
 11
8.862901684902704
 21
4.901690076017198
 31
0.0
  0
LINE
  5
A2B
330
1F
100
AcDbEntity
  8
Object
100
AcDbLine
 10
8.815901684902703
 20
4.788690076017197
 30
0.0
 11
8.830901684902704
 21
4.784690076017197
 31
0.0
  0
LINE
  5
A2C
330
1F
100
AcDbEntity
  8
Object
100
AcDbLine
 10
8.862901684902704
 20
4.901690076017198
 30
0.0
 11
8.815901684902703
 21
4.908690076017197
 31
0.0
  0
LINE
  5
A2D
330
1F
100
AcDbEntity
  8
Object
100
AcDbLine
 10
7.415901684902704
 20
4.908690076017197
 30
0.0
 11
7.369901684902703
 21
4.901690076017198
 31
0.0
  0
LINE
  5
A2E
330
1F
100
AcDbEntity
  8
Object
100
AcDbLine
 10
7.369901684902703
 20
4.901690076017198
 30
0.0
 11
7.327901684902704
 21
4.880690076017197
 31
0.0
  0
LINE
  5
A2F
330
1F
100
AcDbEntity
  8
Object
100
AcDbLine
 10
7.327901684902704
 20
4.880690076017197
 30
0.0
 11
7.294901684902703
 21
4.846690076017198
 31
0.0
  0
LINE
  5
A30
330
1F
100
AcDbEntity
  8
Object
100
AcDbLine
 10
7.294901684902703
 20
4.846690076017198
 30
0.0
 11
7.273901684902703
 21
4.805690076017198
 31
0.0
  0
LINE
  5
A31
330
1F
100
AcDbEntity
  8
Object
100
AcDbLine
 10
7.273901684902703
 20
4.805690076017198
 30
0.0
 11
7.265901684902703
 21
4.758690076017197
 31
0.0
  0
LINE
  5
A32
330
1F
100
AcDbEntity
  8
Object
100
AcDbLine
 10
7.385901684902703
 20
3.272690076017197
 30
0.0
 11
7.385901684902703
 21
3.299690076017197
 31
0.0
  0
LINE
  5
A33
330
1F
100
AcDbEntity
  8
Object
100
AcDbLine
 10
7.385901684902703
 20
3.863690076017197
 30
0.0
 11
7.385901684902703
 21
3.878690076017198
 31
0.0
  0
LINE
  5
A34
330
1F
100
AcDbEntity
  8
Object
100
AcDbLine
 10
7.385901684902703
 20
3.623690076017197
 30
0.0
 11
7.385901684902703
 21
3.638690076017197
 31
0.0
  0
LINE
  5
A35
330
1F
100
AcDbEntity
  8
Object
100
AcDbLine
 10
7.385901684902703
 20
3.248690076017197
 30
0.0
 11
7.385901684902703
 21
3.254690076017197
 31
0.0
  0
LINE
  5
A36
330
1F
100
AcDbEntity
  8
Object
100
AcDbLine
 10
7.385901684902703
 20
3.254690076017197
 30
0.0
 11
7.385901684902703
 21
3.272690076017197
 31
0.0
  0
LINE
  5
A37
330
1F
100
AcDbEntity
  8
Object
100
AcDbLine
 10
7.385901684902703
 20
3.299690076017197
 30
0.0
 11
7.385901684902703
 21
3.334690076017198
 31
0.0
  0
LINE
  5
A38
330
1F
100
AcDbEntity
  8
Object
100
AcDbLine
 10
7.385901684902703
 20
3.334690076017198
 30
0.0
 11
7.385901684902703
 21
3.373690076017197
 31
0.0
  0
LINE
  5
A39
330
1F
100
AcDbEntity
  8
Object
100
AcDbLine
 10
7.385901684902703
 20
3.608690076017198
 30
0.0
 11
7.385901684902703
 21
3.612690076017197
 31
0.0
  0
LINE
  5
A3A
330
1F
100
AcDbEntity
  8
Object
100
AcDbLine
 10
7.385901684902703
 20
3.373690076017197
 30
0.0
 11
7.385901684902703
 21
3.578690076017197
 31
0.0
  0
LINE
  5
A3B
330
1F
100
AcDbEntity
  8
Object
100
AcDbLine
 10
7.385901684902703
 20
3.578690076017197
 30
0.0
 11
7.385901684902703
 21
3.593690076017197
 31
0.0
  0
LINE
  5
A3C
330
1F
100
AcDbEntity
  8
Object
100
AcDbLine
 10
7.385901684902703
 20
3.593690076017197
 30
0.0
 11
7.385901684902703
 21
3.604690076017197
 31
0.0
  0
LINE
  5
A3D
330
1F
100
AcDbEntity
  8
Object
100
AcDbLine
 10
7.385901684902703
 20
3.604690076017197
 30
0.0
 11
7.385901684902703
 21
3.608690076017198
 31
0.0
  0
LINE
  5
A3E
330
1F
100
AcDbEntity
  8
Object
100
AcDbLine
 10
7.385901684902703
 20
3.612690076017197
 30
0.0
 11
7.385901684902703
 21
3.623690076017197
 31
0.0
  0
LINE
  5
A3F
330
1F
100
AcDbEntity
  8
Object
100
AcDbLine
 10
7.385901684902703
 20
3.638690076017197
 30
0.0
 11
7.385901684902703
 21
3.818690076017198
 31
0.0
  0
LINE
  5
A40
330
1F
100
AcDbEntity
  8
Object
100
AcDbLine
 10
7.385901684902703
 20
3.818690076017198
 30
0.0
 11
7.385901684902703
 21
3.833690076017197
 31
0.0
  0
LINE
  5
A41
330
1F
100
AcDbEntity
  8
Object
100
AcDbLine
 10
7.385901684902703
 20
4.123690076017197
 30
0.0
 11
7.385901684902703
 21
4.138690076017198
 31
0.0
  0
LINE
  5
A42
330
1F
100
AcDbEntity
  8
Object
100
AcDbLine
 10
7.385901684902703
 20
3.833690076017197
 30
0.0
 11
7.385901684902703
 21
3.844690076017197
 31
0.0
  0
LINE
  5
A43
330
1F
100
AcDbEntity
  8
Object
100
AcDbLine
 10
7.385901684902703
 20
4.108690076017198
 30
0.0
 11
7.385901684902703
 21
4.112690076017198
 31
0.0
  0
LINE
  5
A44
330
1F
100
AcDbEntity
  8
Object
100
AcDbLine
 10
7.385901684902703
 20
3.848690076017197
 30
0.0
 11
7.385901684902703
 21
3.852690076017197
 31
0.0
  0
LINE
  5
A45
330
1F
100
AcDbEntity
  8
Object
100
AcDbLine
 10
7.385901684902703
 20
3.852690076017197
 30
0.0
 11
7.385901684902703
 21
3.863690076017197
 31
0.0
  0
LINE
  5
A46
330
1F
100
AcDbEntity
  8
Object
100
AcDbLine
 10
7.385901684902703
 20
3.878690076017198
 30
0.0
 11
7.385901684902703
 21
4.078690076017197
 31
0.0
  0
LINE
  5
A47
330
1F
100
AcDbEntity
  8
Object
100
AcDbLine
 10
7.385901684902703
 20
4.078690076017197
 30
0.0
 11
7.385901684902703
 21
4.093690076017198
 31
0.0
  0
LINE
  5
A48
330
1F
100
AcDbEntity
  8
Object
100
AcDbLine
 10
7.385901684902703
 20
4.093690076017198
 30
0.0
 11
7.385901684902703
 21
4.104690076017197
 31
0.0
  0
LINE
  5
A49
330
1F
100
AcDbEntity
  8
Object
100
AcDbLine
 10
7.385901684902703
 20
4.104690076017197
 30
0.0
 11
7.385901684902703
 21
4.108690076017198
 31
0.0
  0
LINE
  5
A4A
330
1F
100
AcDbEntity
  8
Object
100
AcDbLine
 10
7.385901684902703
 20
3.844690076017197
 30
0.0
 11
7.385901684902703
 21
3.848690076017197
 31
0.0
  0
LINE
  5
A4B
330
1F
100
AcDbEntity
  8
Object
100
AcDbLine
 10
7.385901684902703
 20
4.112690076017198
 30
0.0
 11
7.385901684902703
 21
4.123690076017197
 31
0.0
  0
LINE
  5
A4C
330
1F
100
AcDbEntity
  8
Object
100
AcDbLine
 10
7.385901684902703
 20
4.138690076017198
 30
0.0
 11
7.385901684902703
 21
4.318690076017198
 31
0.0
  0
LINE
  5
A4D
330
1F
100
AcDbEntity
  8
Object
100
AcDbLine
 10
7.385901684902703
 20
4.318690076017198
 30
0.0
 11
7.385901684902703
 21
4.333690076017197
 31
0.0
  0
LINE
  5
A4E
330
1F
100
AcDbEntity
  8
Object
100
AcDbLine
 10
7.385901684902703
 20
4.333690076017197
 30
0.0
 11
7.385901684902703
 21
4.344690076017197
 31
0.0
  0
LINE
  5
A4F
330
1F
100
AcDbEntity
  8
Object
100
AcDbLine
 10
7.385901684902703
 20
4.344690076017197
 30
0.0
 11
7.385901684902703
 21
4.348690076017197
 31
0.0
  0
LINE
  5
A50
330
1F
100
AcDbEntity
  8
Object
100
AcDbLine
 10
7.385901684902703
 20
4.363690076017197
 30
0.0
 11
7.385901684902703
 21
4.378690076017198
 31
0.0
  0
LINE
  5
A51
330
1F
100
AcDbEntity
  8
Object
100
AcDbLine
 10
7.385901684902703
 20
4.348690076017197
 30
0.0
 11
7.385901684902703
 21
4.352690076017197
 31
0.0
  0
LINE
  5
A52
330
1F
100
AcDbEntity
  8
Object
100
AcDbLine
 10
7.385901684902703
 20
4.352690076017197
 30
0.0
 11
7.385901684902703
 21
4.363690076017197
 31
0.0
  0
LINE
  5
A53
330
1F
100
AcDbEntity
  8
Object
100
AcDbLine
 10
7.385901684902703
 20
4.378690076017198
 30
0.0
 11
7.385901684902703
 21
4.758690076017197
 31
0.0
  0
LINE
  5
A54
330
1F
100
AcDbEntity
  8
Object
100
AcDbLine
 10
7.415901684902704
 20
4.788690076017197
 30
0.0
 11
7.400901684902704
 21
4.784690076017197
 31
0.0
  0
LINE
  5
A55
330
1F
100
AcDbEntity
  8
Object
100
AcDbLine
 10
7.400901684902704
 20
4.784690076017197
 30
0.0
 11
7.389901684902704
 21
4.773690076017198
 31
0.0
  0
LINE
  5
A56
330
1F
100
AcDbEntity
  8
Object
100
AcDbLine
 10
7.389901684902704
 20
4.773690076017198
 30
0.0
 11
7.385901684902703
 21
4.758690076017197
 31
0.0
  0
LINE
  5
A57
330
1F
100
AcDbEntity
  8
Object
100
AcDbLine
 10
7.265901684902703
 20
4.093690076017198
 30
0.0
 11
7.265901684902703
 21
4.078690076017197
 31
0.0
  0
LINE
  5
A58
330
1F
100
AcDbEntity
  8
Object
100
AcDbLine
 10
7.265901684902703
 20
3.612690076017197
 30
0.0
 11
7.265901684902703
 21
3.608690076017198
 31
0.0
  0
LINE
  5
A59
330
1F
100
AcDbEntity
  8
Object
100
AcDbLine
 10
7.265901684902703
 20
4.348690076017197
 30
0.0
 11
7.265901684902703
 21
4.344690076017197
 31
0.0
  0
LINE
  5
A5A
330
1F
100
AcDbEntity
  8
Object
100
AcDbLine
 10
7.265901684902703
 20
4.758690076017197
 30
0.0
 11
7.265901684902703
 21
4.378690076017198
 31
0.0
  0
LINE
  5
A5B
330
1F
100
AcDbEntity
  8
Object
100
AcDbLine
 10
7.265901684902703
 20
4.378690076017198
 30
0.0
 11
7.265901684902703
 21
4.363690076017197
 31
0.0
  0
LINE
  5
A5C
330
1F
100
AcDbEntity
  8
Object
100
AcDbLine
 10
7.265901684902703
 20
4.363690076017197
 30
0.0
 11
7.265901684902703
 21
4.352690076017197
 31
0.0
  0
LINE
  5
A5D
330
1F
100
AcDbEntity
  8
Object
100
AcDbLine
 10
7.265901684902703
 20
4.352690076017197
 30
0.0
 11
7.265901684902703
 21
4.348690076017197
 31
0.0
  0
LINE
  5
A5E
330
1F
100
AcDbEntity
  8
Object
100
AcDbLine
 10
7.265901684902703
 20
4.344690076017197
 30
0.0
 11
7.265901684902703
 21
4.333690076017197
 31
0.0
  0
LINE
  5
A5F
330
1F
100
AcDbEntity
  8
Object
100
AcDbLine
 10
7.265901684902703
 20
4.333690076017197
 30
0.0
 11
7.265901684902703
 21
4.318690076017198
 31
0.0
  0
LINE
  5
A60
330
1F
100
AcDbEntity
  8
Object
100
AcDbLine
 10
7.265901684902703
 20
4.318690076017198
 30
0.0
 11
7.265901684902703
 21
4.138690076017198
 31
0.0
  0
LINE
  5
A61
330
1F
100
AcDbEntity
  8
Object
100
AcDbLine
 10
7.265901684902703
 20
3.848690076017197
 30
0.0
 11
7.265901684902703
 21
3.844690076017197
 31
0.0
  0
LINE
  5
A62
330
1F
100
AcDbEntity
  8
Object
100
AcDbLine
 10
7.265901684902703
 20
4.112690076017198
 30
0.0
 11
7.265901684902703
 21
4.108690076017198
 31
0.0
  0
LINE
  5
A63
330
1F
100
AcDbEntity
  8
Object
100
AcDbLine
 10
7.265901684902703
 20
4.108690076017198
 30
0.0
 11
7.265901684902703
 21
4.104690076017197
 31
0.0
  0
LINE
  5
A64
330
1F
100
AcDbEntity
  8
Object
100
AcDbLine
 10
7.265901684902703
 20
4.104690076017197
 30
0.0
 11
7.265901684902703
 21
4.093690076017198
 31
0.0
  0
LINE
  5
A65
330
1F
100
AcDbEntity
  8
Object
100
AcDbLine
 10
7.265901684902703
 20
4.078690076017197
 30
0.0
 11
7.265901684902703
 21
3.878690076017198
 31
0.0
  0
LINE
  5
A66
330
1F
100
AcDbEntity
  8
Object
100
AcDbLine
 10
7.265901684902703
 20
3.878690076017198
 30
0.0
 11
7.265901684902703
 21
3.863690076017197
 31
0.0
  0
LINE
  5
A67
330
1F
100
AcDbEntity
  8
Object
100
AcDbLine
 10
7.265901684902703
 20
3.863690076017197
 30
0.0
 11
7.265901684902703
 21
3.852690076017197
 31
0.0
  0
LINE
  5
A68
330
1F
100
AcDbEntity
  8
Object
100
AcDbLine
 10
7.265901684902703
 20
3.852690076017197
 30
0.0
 11
7.265901684902703
 21
3.848690076017197
 31
0.0
  0
LINE
  5
A69
330
1F
100
AcDbEntity
  8
Object
100
AcDbLine
 10
7.265901684902703
 20
4.123690076017197
 30
0.0
 11
7.265901684902703
 21
4.112690076017198
 31
0.0
  0
LINE
  5
A6A
330
1F
100
AcDbEntity
  8
Object
100
AcDbLine
 10
7.265901684902703
 20
3.844690076017197
 30
0.0
 11
7.265901684902703
 21
3.833690076017197
 31
0.0
  0
LINE
  5
A6B
330
1F
100
AcDbEntity
  8
Object
100
AcDbLine
 10
7.265901684902703
 20
3.593690076017197
 30
0.0
 11
7.265901684902703
 21
3.604690076017197
 31
0.0
  0
LINE
  5
A6C
330
1F
100
AcDbEntity
  8
Object
100
AcDbLine
 10
7.265901684902703
 20
3.604690076017197
 30
0.0
 11
7.265901684902703
 21
3.608690076017198
 31
0.0
  0
LINE
  5
A6D
330
1F
100
AcDbEntity
  8
Object
100
AcDbLine
 10
7.265901684902703
 20
3.593690076017197
 30
0.0
 11
7.265901684902703
 21
3.578690076017197
 31
0.0
  0
LINE
  5
A6E
330
1F
100
AcDbEntity
  8
Object
100
AcDbLine
 10
7.265901684902703
 20
3.578690076017197
 30
0.0
 11
7.265901684902703
 21
3.373690076017197
 31
0.0
  0
LINE
  5
A6F
330
1F
100
AcDbEntity
  8
Object
100
AcDbLine
 10
7.265901684902703
 20
3.373690076017197
 30
0.0
 11
7.265901684902703
 21
3.334690076017198
 31
0.0
  0
LINE
  5
A70
330
1F
100
AcDbEntity
  8
Object
100
AcDbLine
 10
7.265901684902703
 20
3.334690076017198
 30
0.0
 11
7.265901684902703
 21
3.299690076017197
 31
0.0
  0
LINE
  5
A71
330
1F
100
AcDbEntity
  8
Object
100
AcDbLine
 10
7.265901684902703
 20
3.299690076017197
 30
0.0
 11
7.265901684902703
 21
3.272690076017197
 31
0.0
  0
LINE
  5
A72
330
1F
100
AcDbEntity
  8
Object
100
AcDbLine
 10
7.265901684902703
 20
3.272690076017197
 30
0.0
 11
7.265901684902703
 21
3.254690076017197
 31
0.0
  0
LINE
  5
A73
330
1F
100
AcDbEntity
  8
Object
100
AcDbLine
 10
7.265901684902703
 20
3.254690076017197
 30
0.0
 11
7.265901684902703
 21
3.248690076017197
 31
0.0
  0
LINE
  5
A74
330
1F
100
AcDbEntity
  8
Object
100
AcDbLine
 10
7.265901684902703
 20
3.623690076017197
 30
0.0
 11
7.265901684902703
 21
3.612690076017197
 31
0.0
  0
LINE
  5
A75
330
1F
100
AcDbEntity
  8
Object
100
AcDbLine
 10
7.265901684902703
 20
4.138690076017198
 30
0.0
 11
7.265901684902703
 21
4.123690076017197
 31
0.0
  0
LINE
  5
A76
330
1F
100
AcDbEntity
  8
Object
100
AcDbLine
 10
7.265901684902703
 20
3.833690076017197
 30
0.0
 11
7.265901684902703
 21
3.818690076017198
 31
0.0
  0
LINE
  5
A77
330
1F
100
AcDbEntity
  8
Object
100
AcDbLine
 10
7.265901684902703
 20
3.818690076017198
 30
0.0
 11
7.265901684902703
 21
3.638690076017197
 31
0.0
  0
LINE
  5
A78
330
1F
100
AcDbEntity
  8
Object
100
AcDbLine
 10
7.265901684902703
 20
3.638690076017197
 30
0.0
 11
7.265901684902703
 21
3.623690076017197
 31
0.0
  0
LINE
  5
A79
330
1F
100
AcDbEntity
  8
Object
100
AcDbLine
 10
8.815901684902703
 20
4.908690076017197
 30
0.0
 11
7.415901684902704
 21
4.908690076017197
 31
0.0
  0
LINE
  5
A7A
330
1F
100
AcDbEntity
  8
Object
100
AcDbLine
 10
8.845901684902704
 20
4.758690076017197
 30
0.0
 11
8.841901684902703
 21
4.773690076017198
 31
0.0
  0
LINE
  5
A7B
330
1F
100
AcDbEntity
  8
Object
100
AcDbLine
 10
8.841901684902703
 20
4.773690076017198
 30
0.0
 11
8.830901684902704
 21
4.784690076017197
 31
0.0
  0
LINE
  5
A7C
330
1F
100
AcDbEntity
  8
Object
100
AcDbLine
 10
8.830901684902704
 20
4.784690076017197
 30
0.0
 11
8.815901684902703
 21
4.788690076017197
 31
0.0
  0
LINE
  5
A7D
330
1F
100
AcDbEntity
  8
Object
100
AcDbLine
 10
8.845901684902704
 20
3.608690076017198
 30
0.0
 11
8.841901684902703
 21
3.593690076017197
 31
0.0
  0
LINE
  5
A7E
330
1F
100
AcDbEntity
  8
Object
100
AcDbLine
 10
8.841901684902703
 20
3.593690076017197
 30
0.0
 11
8.830901684902704
 21
3.582690076017197
 31
0.0
  0
LINE
  5
A7F
330
1F
100
AcDbEntity
  8
Object
100
AcDbLine
 10
8.830901684902704
 20
3.582690076017197
 30
0.0
 11
8.815901684902703
 21
3.578690076017197
 31
0.0
  0
LINE
  5
A80
330
1F
100
AcDbEntity
  8
Object
100
AcDbLine
 10
8.545901684902704
 20
3.578690076017197
 30
0.0
 11
8.545901684902704
 21
3.458690076017197
 31
0.0
  0
LINE
  5
A81
330
1F
100
AcDbEntity
  8
Object
100
AcDbLine
 10
8.560901684902704
 20
3.578690076017197
 30
0.0
 11
8.575901684902703
 21
3.578690076017197
 31
0.0
  0
LINE
  5
A82
330
1F
100
AcDbEntity
  8
Object
100
AcDbLine
 10
8.575901684902703
 20
3.578690076017197
 30
0.0
 11
8.575901684902703
 21
3.458690076017197
 31
0.0
  0
LINE
  5
A83
330
1F
100
AcDbEntity
  8
Object
100
AcDbLine
 10
8.575901684902703
 20
3.458690076017197
 30
0.0
 11
8.560901684902704
 21
3.458690076017197
 31
0.0
  0
LINE
  5
A84
330
1F
100
AcDbEntity
  8
Object
100
AcDbLine
 10
8.560901684902704
 20
3.458690076017197
 30
0.0
 11
8.549901684902703
 21
3.458690076017197
 31
0.0
  0
LINE
  5
A85
330
1F
100
AcDbEntity
  8
Object
100
AcDbLine
 10
8.560901684902704
 20
3.578690076017197
 30
0.0
 11
8.549901684902703
 21
3.578690076017197
 31
0.0
  0
LINE
  5
A86
330
1F
100
AcDbEntity
  8
Object
100
AcDbLine
 10
8.549901684902703
 20
3.458690076017197
 30
0.0
 11
8.545901684902704
 21
3.458690076017197
 31
0.0
  0
LINE
  5
A87
330
1F
100
AcDbEntity
  8
Object
100
AcDbLine
 10
8.545901684902704
 20
3.458690076017197
 30
0.0
 11
8.545901684902704
 21
3.578690076017197
 31
0.0
  0
LINE
  5
A88
330
1F
100
AcDbEntity
  8
Object
100
AcDbLine
 10
8.545901684902704
 20
3.578690076017197
 30
0.0
 11
8.549901684902703
 21
3.578690076017197
 31
0.0
  0
LINE
  5
A89
330
1F
100
AcDbEntity
  8
Object
100
AcDbLine
 10
8.815901684902703
 20
3.578690076017197
 30
0.0
 11
8.815901684902703
 21
3.458690076017197
 31
0.0
  0
LINE
  5
A8A
330
1F
100
AcDbEntity
  8
Object
100
AcDbLine
 10
8.815901684902703
 20
3.458690076017197
 30
0.0
 11
8.575901684902703
 21
3.458690076017197
 31
0.0
  0
LINE
  5
A8B
330
1F
100
AcDbEntity
  8
Object
100
AcDbLine
 10
8.815901684902703
 20
3.578690076017197
 30
0.0
 11
8.575901684902703
 21
3.578690076017197
 31
0.0
  0
LINE
  5
A8C
330
1F
100
AcDbEntity
  8
Object
100
AcDbLine
 10
8.815901684902703
 20
4.846690076017198
 30
0.0
 11
8.815901684902703
 21
4.880690076017197
 31
0.0
  0
LINE
  5
A8D
330
1F
100
AcDbEntity
  8
Object
100
AcDbLine
 10
8.815901684902703
 20
4.758690076017197
 30
0.0
 11
8.815901684902703
 21
4.805690076017198
 31
0.0
  0
LINE
  5
A8E
330
1F
100
AcDbEntity
  8
Object
100
AcDbLine
 10
8.815901684902703
 20
4.805690076017198
 30
0.0
 11
8.815901684902703
 21
4.846690076017198
 31
0.0
  0
LINE
  5
A8F
330
1F
100
AcDbEntity
  8
Object
100
AcDbLine
 10
8.815901684902703
 20
4.880690076017197
 30
0.0
 11
8.815901684902703
 21
4.901690076017198
 31
0.0
  0
LINE
  5
A90
330
1F
100
AcDbEntity
  8
Object
100
AcDbLine
 10
8.815901684902703
 20
4.901690076017198
 30
0.0
 11
8.815901684902703
 21
4.908690076017197
 31
0.0
  0
LINE
  5
A91
330
1F
100
AcDbEntity
  8
Object
100
AcDbLine
 10
7.400901684902704
 20
4.784690076017197
 30
0.0
 11
7.415901684902704
 21
4.788690076017197
 31
0.0
  0
LINE
  5
A92
330
1F
100
AcDbEntity
  8
Object
100
AcDbLine
 10
7.415901684902704
 20
4.908690076017197
 30
0.0
 11
7.369901684902703
 21
4.901690076017198
 31
0.0
  0
LINE
  5
A93
330
1F
100
AcDbEntity
  8
Object
100
AcDbLine
 10
7.369901684902703
 20
4.901690076017198
 30
0.0
 11
7.327901684902704
 21
4.880690076017197
 31
0.0
  0
LINE
  5
A94
330
1F
100
AcDbEntity
  8
Object
100
AcDbLine
 10
7.327901684902704
 20
4.880690076017197
 30
0.0
 11
7.294901684902703
 21
4.846690076017198
 31
0.0
  0
LINE
  5
A95
330
1F
100
AcDbEntity
  8
Object
100
AcDbLine
 10
7.400901684902704
 20
4.784690076017197
 30
0.0
 11
7.389901684902704
 21
4.773690076017198
 31
0.0
  0
LINE
  5
A96
330
1F
100
AcDbEntity
  8
Object
100
AcDbLine
 10
7.389901684902704
 20
4.773690076017198
 30
0.0
 11
7.385901684902703
 21
4.758690076017197
 31
0.0
  0
LINE
  5
A97
330
1F
100
AcDbEntity
  8
Object
100
AcDbLine
 10
7.294901684902703
 20
4.846690076017198
 30
0.0
 11
7.273901684902703
 21
4.805690076017198
 31
0.0
  0
LINE
  5
A98
330
1F
100
AcDbEntity
  8
Object
100
AcDbLine
 10
7.273901684902703
 20
4.805690076017198
 30
0.0
 11
7.265901684902703
 21
4.758690076017197
 31
0.0
  0
LINE
  5
A99
330
1F
100
AcDbEntity
  8
Object
100
AcDbLine
 10
7.385901684902703
 20
3.818690076017198
 30
0.0
 11
7.385901684902703
 21
3.833690076017197
 31
0.0
  0
LINE
  5
A9A
330
1F
100
AcDbEntity
  8
Object
100
AcDbLine
 10
7.265901684902703
 20
3.833690076017197
 30
0.0
 11
7.265901684902703
 21
3.844690076017197
 31
0.0
  0
LINE
  5
A9B
330
1F
100
AcDbEntity
  8
Object
100
AcDbLine
 10
7.265901684902703
 20
3.844690076017197
 30
0.0
 11
7.265901684902703
 21
3.848690076017197
 31
0.0
  0
LINE
  5
A9C
330
1F
100
AcDbEntity
  8
Object
100
AcDbLine
 10
7.385901684902703
 20
3.848690076017197
 30
0.0
 11
7.385901684902703
 21
3.844690076017197
 31
0.0
  0
LINE
  5
A9D
330
1F
100
AcDbEntity
  8
Object
100
AcDbLine
 10
7.385901684902703
 20
3.844690076017197
 30
0.0
 11
7.385901684902703
 21
3.833690076017197
 31
0.0
  0
LINE
  5
A9E
330
1F
100
AcDbEntity
  8
Object
100
AcDbLine
 10
7.265901684902703
 20
3.833690076017197
 30
0.0
 11
7.265901684902703
 21
3.818690076017198
 31
0.0
  0
LINE
  5
A9F
330
1F
100
AcDbEntity
  8
Object
100
AcDbLine
 10
7.265901684902703
 20
3.848690076017197
 30
0.0
 11
7.385901684902703
 21
3.848690076017197
 31
0.0
  0
LINE
  5
AA0
330
1F
100
AcDbEntity
  8
Object
100
AcDbLine
 10
7.385901684902703
 20
4.108690076017198
 30
0.0
 11
7.265901684902703
 21
4.108690076017198
 31
0.0
  0
LINE
  5
AA1
330
1F
100
AcDbEntity
  8
Object
100
AcDbLine
 10
7.385901684902703
 20
3.578690076017197
 30
0.0
 11
7.385901684902703
 21
3.593690076017197
 31
0.0
  0
LINE
  5
AA2
330
1F
100
AcDbEntity
  8
Object
100
AcDbLine
 10
7.265901684902703
 20
3.593690076017197
 30
0.0
 11
7.265901684902703
 21
3.604690076017197
 31
0.0
  0
LINE
  5
AA3
330
1F
100
AcDbEntity
  8
Object
100
AcDbLine
 10
7.265901684902703
 20
3.604690076017197
 30
0.0
 11
7.265901684902703
 21
3.608690076017198
 31
0.0
  0
LINE
  5
AA4
330
1F
100
AcDbEntity
  8
Object
100
AcDbLine
 10
7.265901684902703
 20
3.608690076017198
 30
0.0
 11
7.385901684902703
 21
3.608690076017198
 31
0.0
  0
LINE
  5
AA5
330
1F
100
AcDbEntity
  8
Object
100
AcDbLine
 10
7.385901684902703
 20
3.608690076017198
 30
0.0
 11
7.385901684902703
 21
3.604690076017197
 31
0.0
  0
LINE
  5
AA6
330
1F
100
AcDbEntity
  8
Object
100
AcDbLine
 10
7.385901684902703
 20
3.604690076017197
 30
0.0
 11
7.385901684902703
 21
3.593690076017197
 31
0.0
  0
LINE
  5
AA7
330
1F
100
AcDbEntity
  8
Object
100
AcDbLine
 10
7.265901684902703
 20
3.593690076017197
 30
0.0
 11
7.265901684902703
 21
3.578690076017197
 31
0.0
  0
LINE
  5
AA8
330
1F
100
AcDbEntity
  8
Object
100
AcDbLine
 10
7.385901684902703
 20
3.848690076017197
 30
0.0
 11
7.385901684902703
 21
3.852690076017197
 31
0.0
  0
LINE
  5
AA9
330
1F
100
AcDbEntity
  8
Object
100
AcDbLine
 10
7.265901684902703
 20
3.852690076017197
 30
0.0
 11
7.265901684902703
 21
3.863690076017197
 31
0.0
  0
LINE
  5
AAA
330
1F
100
AcDbEntity
  8
Object
100
AcDbLine
 10
7.265901684902703
 20
3.863690076017197
 30
0.0
 11
7.265901684902703
 21
3.878690076017198
 31
0.0
  0
LINE
  5
AAB
330
1F
100
AcDbEntity
  8
Object
100
AcDbLine
 10
7.265901684902703
 20
3.878690076017198
 30
0.0
 11
7.385901684902703
 21
3.878690076017198
 31
0.0
  0
LINE
  5
AAC
330
1F
100
AcDbEntity
  8
Object
100
AcDbLine
 10
7.385901684902703
 20
3.878690076017198
 30
0.0
 11
7.385901684902703
 21
3.863690076017197
 31
0.0
  0
LINE
  5
AAD
330
1F
100
AcDbEntity
  8
Object
100
AcDbLine
 10
7.385901684902703
 20
3.863690076017197
 30
0.0
 11
7.385901684902703
 21
3.852690076017197
 31
0.0
  0
LINE
  5
AAE
330
1F
100
AcDbEntity
  8
Object
100
AcDbLine
 10
7.385901684902703
 20
3.848690076017197
 30
0.0
 11
7.265901684902703
 21
3.848690076017197
 31
0.0
  0
LINE
  5
AAF
330
1F
100
AcDbEntity
  8
Object
100
AcDbLine
 10
7.265901684902703
 20
3.848690076017197
 30
0.0
 11
7.265901684902703
 21
3.852690076017197
 31
0.0
  0
LINE
  5
AB0
330
1F
100
AcDbEntity
  8
Object
100
AcDbLine
 10
7.385901684902703
 20
4.108690076017198
 30
0.0
 11
7.385901684902703
 21
4.112690076017198
 31
0.0
  0
LINE
  5
AB1
330
1F
100
AcDbEntity
  8
Object
100
AcDbLine
 10
7.265901684902703
 20
4.112690076017198
 30
0.0
 11
7.265901684902703
 21
4.123690076017197
 31
0.0
  0
LINE
  5
AB2
330
1F
100
AcDbEntity
  8
Object
100
AcDbLine
 10
7.265901684902703
 20
4.123690076017197
 30
0.0
 11
7.265901684902703
 21
4.138690076017198
 31
0.0
  0
LINE
  5
AB3
330
1F
100
AcDbEntity
  8
Object
100
AcDbLine
 10
7.265901684902703
 20
4.138690076017198
 30
0.0
 11
7.385901684902703
 21
4.138690076017198
 31
0.0
  0
LINE
  5
AB4
330
1F
100
AcDbEntity
  8
Object
100
AcDbLine
 10
7.385901684902703
 20
4.138690076017198
 30
0.0
 11
7.385901684902703
 21
4.123690076017197
 31
0.0
  0
LINE
  5
AB5
330
1F
100
AcDbEntity
  8
Object
100
AcDbLine
 10
7.385901684902703
 20
4.123690076017197
 30
0.0
 11
7.385901684902703
 21
4.112690076017198
 31
0.0
  0
LINE
  5
AB6
330
1F
100
AcDbEntity
  8
Object
100
AcDbLine
 10
7.265901684902703
 20
4.112690076017198
 30
0.0
 11
7.265901684902703
 21
4.108690076017198
 31
0.0
  0
LINE
  5
AB7
330
1F
100
AcDbEntity
  8
Object
100
AcDbLine
 10
7.265901684902703
 20
4.758690076017197
 30
0.0
 11
7.385901684902703
 21
4.758690076017197
 31
0.0
  0
LINE
  5
AB8
330
1F
100
AcDbEntity
  8
Object
100
AcDbLine
 10
7.385901684902703
 20
4.758690076017197
 30
0.0
 11
7.385901684902703
 21
4.378690076017198
 31
0.0
  0
LINE
  5
AB9
330
1F
100
AcDbEntity
  8
Object
100
AcDbLine
 10
7.385901684902703
 20
4.378690076017198
 30
0.0
 11
7.265901684902703
 21
4.378690076017198
 31
0.0
  0
LINE
  5
ABA
330
1F
100
AcDbEntity
  8
Object
100
AcDbLine
 10
7.265901684902703
 20
4.378690076017198
 30
0.0
 11
7.265901684902703
 21
4.758690076017197
 31
0.0
  0
LINE
  5
ABB
330
1F
100
AcDbEntity
  8
Object
100
AcDbLine
 10
7.385901684902703
 20
3.818690076017198
 30
0.0
 11
7.385901684902703
 21
3.638690076017197
 31
0.0
  0
LINE
  5
ABC
330
1F
100
AcDbEntity
  8
Object
100
AcDbLine
 10
7.385901684902703
 20
3.638690076017197
 30
0.0
 11
7.265901684902703
 21
3.638690076017197
 31
0.0
  0
LINE
  5
ABD
330
1F
100
AcDbEntity
  8
Object
100
AcDbLine
 10
7.265901684902703
 20
3.638690076017197
 30
0.0
 11
7.265901684902703
 21
3.818690076017198
 31
0.0
  0
LINE
  5
ABE
330
1F
100
AcDbEntity
  8
Object
100
AcDbLine
 10
7.265901684902703
 20
3.818690076017198
 30
0.0
 11
7.385901684902703
 21
3.818690076017198
 31
0.0
  0
LINE
  5
ABF
330
1F
100
AcDbEntity
  8
Object
100
AcDbLine
 10
7.265901684902703
 20
4.348690076017197
 30
0.0
 11
7.265901684902703
 21
4.344690076017197
 31
0.0
  0
LINE
  5
AC0
330
1F
100
AcDbEntity
  8
Object
100
AcDbLine
 10
7.385901684902703
 20
4.344690076017197
 30
0.0
 11
7.385901684902703
 21
4.348690076017197
 31
0.0
  0
LINE
  5
AC1
330
1F
100
AcDbEntity
  8
Object
100
AcDbLine
 10
7.385901684902703
 20
4.318690076017198
 30
0.0
 11
7.385901684902703
 21
4.333690076017197
 31
0.0
  0
LINE
  5
AC2
330
1F
100
AcDbEntity
  8
Object
100
AcDbLine
 10
7.265901684902703
 20
4.344690076017197
 30
0.0
 11
7.265901684902703
 21
4.333690076017197
 31
0.0
  0
LINE
  5
AC3
330
1F
100
AcDbEntity
  8
Object
100
AcDbLine
 10
7.385901684902703
 20
4.333690076017197
 30
0.0
 11
7.385901684902703
 21
4.344690076017197
 31
0.0
  0
LINE
  5
AC4
330
1F
100
AcDbEntity
  8
Object
100
AcDbLine
 10
7.385901684902703
 20
4.318690076017198
 30
0.0
 11
7.265901684902703
 21
4.318690076017198
 31
0.0
  0
LINE
  5
AC5
330
1F
100
AcDbEntity
  8
Object
100
AcDbLine
 10
7.265901684902703
 20
4.318690076017198
 30
0.0
 11
7.265901684902703
 21
4.333690076017197
 31
0.0
  0
LINE
  5
AC6
330
1F
100
AcDbEntity
  8
Object
100
AcDbLine
 10
7.385901684902703
 20
4.138690076017198
 30
0.0
 11
7.385901684902703
 21
4.318690076017198
 31
0.0
  0
LINE
  5
AC7
330
1F
100
AcDbEntity
  8
Object
100
AcDbLine
 10
7.265901684902703
 20
4.318690076017198
 30
0.0
 11
7.265901684902703
 21
4.138690076017198
 31
0.0
  0
LINE
  5
AC8
330
1F
100
AcDbEntity
  8
Object
100
AcDbLine
 10
7.385901684902703
 20
3.608690076017198
 30
0.0
 11
7.385901684902703
 21
3.612690076017197
 31
0.0
  0
LINE
  5
AC9
330
1F
100
AcDbEntity
  8
Object
100
AcDbLine
 10
7.265901684902703
 20
3.612690076017197
 30
0.0
 11
7.265901684902703
 21
3.623690076017197
 31
0.0
  0
LINE
  5
ACA
330
1F
100
AcDbEntity
  8
Object
100
AcDbLine
 10
7.265901684902703
 20
3.623690076017197
 30
0.0
 11
7.265901684902703
 21
3.638690076017197
 31
0.0
  0
LINE
  5
ACB
330
1F
100
AcDbEntity
  8
Object
100
AcDbLine
 10
7.385901684902703
 20
3.638690076017197
 30
0.0
 11
7.385901684902703
 21
3.623690076017197
 31
0.0
  0
LINE
  5
ACC
330
1F
100
AcDbEntity
  8
Object
100
AcDbLine
 10
7.385901684902703
 20
3.623690076017197
 30
0.0
 11
7.385901684902703
 21
3.612690076017197
 31
0.0
  0
LINE
  5
ACD
330
1F
100
AcDbEntity
  8
Object
100
AcDbLine
 10
7.265901684902703
 20
3.612690076017197
 30
0.0
 11
7.265901684902703
 21
3.608690076017198
 31
0.0
  0
LINE
  5
ACE
330
1F
100
AcDbEntity
  8
Object
100
AcDbLine
 10
7.265901684902703
 20
3.373690076017197
 30
0.0
 11
7.265901684902703
 21
3.334690076017198
 31
0.0
  0
LINE
  5
ACF
330
1F
100
AcDbEntity
  8
Object
100
AcDbLine
 10
7.385901684902703
 20
3.299690076017197
 30
0.0
 11
7.385901684902703
 21
3.334690076017198
 31
0.0
  0
LINE
  5
AD0
330
1F
100
AcDbEntity
  8
Object
100
AcDbLine
 10
7.265901684902703
 20
3.272690076017197
 30
0.0
 11
7.265901684902703
 21
3.254690076017197
 31
0.0
  0
LINE
  5
AD1
330
1F
100
AcDbEntity
  8
Object
100
AcDbLine
 10
7.385901684902703
 20
3.254690076017197
 30
0.0
 11
7.385901684902703
 21
3.272690076017197
 31
0.0
  0
LINE
  5
AD2
330
1F
100
AcDbEntity
  8
Object
100
AcDbLine
 10
7.385901684902703
 20
3.272690076017197
 30
0.0
 11
7.385901684902703
 21
3.299690076017197
 31
0.0
  0
LINE
  5
AD3
330
1F
100
AcDbEntity
  8
Object
100
AcDbLine
 10
7.265901684902703
 20
3.272690076017197
 30
0.0
 11
7.265901684902703
 21
3.299690076017197
 31
0.0
  0
LINE
  5
AD4
330
1F
100
AcDbEntity
  8
Object
100
AcDbLine
 10
7.265901684902703
 20
3.299690076017197
 30
0.0
 11
7.265901684902703
 21
3.334690076017198
 31
0.0
  0
LINE
  5
AD5
330
1F
100
AcDbEntity
  8
Object
100
AcDbLine
 10
7.265901684902703
 20
3.373690076017197
 30
0.0
 11
7.385901684902703
 21
3.373690076017197
 31
0.0
  0
LINE
  5
AD6
330
1F
100
AcDbEntity
  8
Object
100
AcDbLine
 10
7.385901684902703
 20
3.373690076017197
 30
0.0
 11
7.385901684902703
 21
3.334690076017198
 31
0.0
  0
LINE
  5
AD7
330
1F
100
AcDbEntity
  8
Object
100
AcDbLine
 10
7.385901684902703
 20
3.254690076017197
 30
0.0
 11
7.385901684902703
 21
3.248690076017197
 31
0.0
  0
LINE
  5
AD8
330
1F
100
AcDbEntity
  8
Object
100
AcDbLine
 10
7.385901684902703
 20
3.248690076017197
 30
0.0
 11
7.265901684902703
 21
3.248690076017197
 31
0.0
  0
LINE
  5
AD9
330
1F
100
AcDbEntity
  8
Object
100
AcDbLine
 10
7.265901684902703
 20
3.248690076017197
 30
0.0
 11
7.265901684902703
 21
3.254690076017197
 31
0.0
  0
LINE
  5
ADA
330
1F
100
AcDbEntity
  8
Object
100
AcDbLine
 10
7.265901684902703
 20
4.348690076017197
 30
0.0
 11
7.385901684902703
 21
4.348690076017197
 31
0.0
  0
LINE
  5
ADB
330
1F
100
AcDbEntity
  8
Object
100
AcDbLine
 10
7.265901684902703
 20
4.078690076017197
 30
0.0
 11
7.385901684902703
 21
4.078690076017197
 31
0.0
  0
LINE
  5
ADC
330
1F
100
AcDbEntity
  8
Object
100
AcDbLine
 10
7.385901684902703
 20
4.078690076017197
 30
0.0
 11
7.385901684902703
 21
3.878690076017198
 31
0.0
  0
LINE
  5
ADD
330
1F
100
AcDbEntity
  8
Object
100
AcDbLine
 10
7.265901684902703
 20
4.078690076017197
 30
0.0
 11
7.265901684902703
 21
3.878690076017198
 31
0.0
  0
LINE
  5
ADE
330
1F
100
AcDbEntity
  8
Object
100
AcDbLine
 10
7.265901684902703
 20
3.248690076017197
 30
0.0
 11
7.385901684902703
 21
3.248690076017197
 31
0.0
  0
LINE
  5
ADF
330
1F
100
AcDbEntity
  8
Object
100
AcDbLine
 10
7.385901684902703
 20
4.348690076017197
 30
0.0
 11
7.385901684902703
 21
4.352690076017197
 31
0.0
  0
LINE
  5
AE0
330
1F
100
AcDbEntity
  8
Object
100
AcDbLine
 10
7.265901684902703
 20
4.352690076017197
 30
0.0
 11
7.265901684902703
 21
4.363690076017197
 31
0.0
  0
LINE
  5
AE1
330
1F
100
AcDbEntity
  8
Object
100
AcDbLine
 10
7.265901684902703
 20
4.363690076017197
 30
0.0
 11
7.265901684902703
 21
4.378690076017198
 31
0.0
  0
LINE
  5
AE2
330
1F
100
AcDbEntity
  8
Object
100
AcDbLine
 10
7.385901684902703
 20
4.378690076017198
 30
0.0
 11
7.385901684902703
 21
4.363690076017197
 31
0.0
  0
LINE
  5
AE3
330
1F
100
AcDbEntity
  8
Object
100
AcDbLine
 10
7.385901684902703
 20
4.363690076017197
 30
0.0
 11
7.385901684902703
 21
4.352690076017197
 31
0.0
  0
LINE
  5
AE4
330
1F
100
AcDbEntity
  8
Object
100
AcDbLine
 10
7.385901684902703
 20
4.348690076017197
 30
0.0
 11
7.265901684902703
 21
4.348690076017197
 31
0.0
  0
LINE
  5
AE5
330
1F
100
AcDbEntity
  8
Object
100
AcDbLine
 10
7.265901684902703
 20
4.348690076017197
 30
0.0
 11
7.265901684902703
 21
4.352690076017197
 31
0.0
  0
LINE
  5
AE6
330
1F
100
AcDbEntity
  8
Object
100
AcDbLine
 10
7.385901684902703
 20
4.078690076017197
 30
0.0
 11
7.385901684902703
 21
4.093690076017198
 31
0.0
  0
LINE
  5
AE7
330
1F
100
AcDbEntity
  8
Object
100
AcDbLine
 10
7.265901684902703
 20
4.093690076017198
 30
0.0
 11
7.265901684902703
 21
4.104690076017197
 31
0.0
  0
LINE
  5
AE8
330
1F
100
AcDbEntity
  8
Object
100
AcDbLine
 10
7.265901684902703
 20
4.104690076017197
 30
0.0
 11
7.265901684902703
 21
4.108690076017198
 31
0.0
  0
LINE
  5
AE9
330
1F
100
AcDbEntity
  8
Object
100
AcDbLine
 10
7.265901684902703
 20
4.108690076017198
 30
0.0
 11
7.385901684902703
 21
4.108690076017198
 31
0.0
  0
LINE
  5
AEA
330
1F
100
AcDbEntity
  8
Object
100
AcDbLine
 10
7.385901684902703
 20
4.108690076017198
 30
0.0
 11
7.385901684902703
 21
4.104690076017197
 31
0.0
  0
LINE
  5
AEB
330
1F
100
AcDbEntity
  8
Object
100
AcDbLine
 10
7.385901684902703
 20
4.104690076017197
 30
0.0
 11
7.385901684902703
 21
4.093690076017198
 31
0.0
  0
LINE
  5
AEC
330
1F
100
AcDbEntity
  8
Object
100
AcDbLine
 10
7.265901684902703
 20
4.093690076017198
 30
0.0
 11
7.265901684902703
 21
4.078690076017197
 31
0.0
  0
LINE
  5
AED
330
1F
100
AcDbEntity
  8
Object
100
AcDbLine
 10
7.265901684902703
 20
3.578690076017197
 30
0.0
 11
7.385901684902703
 21
3.578690076017197
 31
0.0
  0
LINE
  5
AEE
330
1F
100
AcDbEntity
  8
Object
100
AcDbLine
 10
7.385901684902703
 20
3.578690076017197
 30
0.0
 11
7.385901684902703
 21
3.373690076017197
 31
0.0
  0
LINE
  5
AEF
330
1F
100
AcDbEntity
  8
Object
100
AcDbLine
 10
7.265901684902703
 20
3.578690076017197
 30
0.0
 11
7.265901684902703
 21
3.373690076017197
 31
0.0
  0
LINE
  5
AF0
330
1F
100
AcDbEntity
  8
Object
100
AcDbLine
 10
7.385901684902703
 20
3.608690076017198
 30
0.0
 11
7.265901684902703
 21
3.608690076017198
 31
0.0
  0
LINE
  5
AF1
330
1F
100
AcDbEntity
  8
Object
100
AcDbLine
 10
7.415901684902704
 20
4.901690076017198
 30
0.0
 11
7.415901684902704
 21
4.908690076017197
 31
0.0
  0
LINE
  5
AF2
330
1F
100
AcDbEntity
  8
Object
100
AcDbLine
 10
7.415901684902704
 20
4.908690076017197
 30
0.0
 11
8.815901684902703
 21
4.908690076017197
 31
0.0
  0
LINE
  5
AF3
330
1F
100
AcDbEntity
  8
Object
100
AcDbLine
 10
8.815901684902703
 20
4.908690076017197
 30
0.0
 11
8.815901684902703
 21
4.901690076017198
 31
0.0
  0
LINE
  5
AF4
330
1F
100
AcDbEntity
  8
Object
100
AcDbLine
 10
7.415901684902704
 20
4.901690076017198
 30
0.0
 11
7.415901684902704
 21
4.880690076017197
 31
0.0
  0
LINE
  5
AF5
330
1F
100
AcDbEntity
  8
Object
100
AcDbLine
 10
8.815901684902703
 20
4.846690076017198
 30
0.0
 11
8.815901684902703
 21
4.880690076017197
 31
0.0
  0
LINE
  5
AF6
330
1F
100
AcDbEntity
  8
Object
100
AcDbLine
 10
7.415901684902704
 20
4.846690076017198
 30
0.0
 11
7.415901684902704
 21
4.805690076017198
 31
0.0
  0
LINE
  5
AF7
330
1F
100
AcDbEntity
  8
Object
100
AcDbLine
 10
8.815901684902703
 20
4.758690076017197
 30
0.0
 11
8.815901684902703
 21
4.805690076017198
 31
0.0
  0
LINE
  5
AF8
330
1F
100
AcDbEntity
  8
Object
100
AcDbLine
 10
7.415901684902704
 20
4.805690076017198
 30
0.0
 11
7.415901684902704
 21
4.758690076017197
 31
0.0
  0
LINE
  5
AF9
330
1F
100
AcDbEntity
  8
Object
100
AcDbLine
 10
8.815901684902703
 20
4.805690076017198
 30
0.0
 11
8.815901684902703
 21
4.846690076017198
 31
0.0
  0
LINE
  5
AFA
330
1F
100
AcDbEntity
  8
Object
100
AcDbLine
 10
7.415901684902704
 20
4.880690076017197
 30
0.0
 11
7.415901684902704
 21
4.846690076017198
 31
0.0
  0
LINE
  5
AFB
330
1F
100
AcDbEntity
  8
Object
100
AcDbLine
 10
8.815901684902703
 20
4.880690076017197
 30
0.0
 11
8.815901684902703
 21
4.901690076017198
 31
0.0
  0
LINE
  5
AFC
330
1F
100
AcDbEntity
  8
Object
100
AcDbLine
 10
8.815901684902703
 20
3.578690076017197
 30
0.0
 11
8.575901684902703
 21
3.578690076017197
 31
0.0
  0
LINE
  5
AFD
330
1F
100
AcDbEntity
  8
Object
100
AcDbLine
 10
8.575901684902703
 20
3.578690076017197
 30
0.0
 11
8.560901684902704
 21
3.578690076017197
 31
0.0
  0
LINE
  5
AFE
330
1F
100
AcDbEntity
  8
Object
100
AcDbLine
 10
8.560901684902704
 20
3.578690076017197
 30
0.0
 11
8.549901684902703
 21
3.578690076017197
 31
0.0
  0
LINE
  5
AFF
330
1F
100
AcDbEntity
  8
Object
100
AcDbLine
 10
8.549901684902703
 20
3.578690076017197
 30
0.0
 11
8.545901684902704
 21
3.578690076017197
 31
0.0
  0
LINE
  5
B00
330
1F
100
AcDbEntity
  8
Object
100
AcDbLine
 10
8.815901684902703
 20
4.253690076017198
 30
0.0
 11
8.815901684902703
 21
4.758690076017197
 31
0.0
  0
LINE
  5
B01
330
1F
100
AcDbEntity
  8
Object
100
AcDbLine
 10
7.415901684902704
 20
4.901690076017198
 30
0.0
 11
7.415901684902704
 21
4.880690076017197
 31
0.0
  0
LINE
  5
B02
330
1F
100
AcDbEntity
  8
Object
100
AcDbLine
 10
7.415901684902704
 20
4.880690076017197
 30
0.0
 11
7.415901684902704
 21
4.846690076017198
 31
0.0
  0
LINE
  5
B03
330
1F
100
AcDbEntity
  8
Object
100
AcDbLine
 10
7.415901684902704
 20
4.758690076017197
 30
0.0
 11
7.415901684902704
 21
4.805690076017198
 31
0.0
  0
LINE
  5
B04
330
1F
100
AcDbEntity
  8
Object
100
AcDbLine
 10
7.415901684902704
 20
4.805690076017198
 30
0.0
 11
7.415901684902704
 21
4.846690076017198
 31
0.0
  0
LINE
  5
B05
330
1F
100
AcDbEntity
  8
Object
100
AcDbLine
 10
7.415901684902704
 20
4.908690076017197
 30
0.0
 11
7.415901684902704
 21
4.901690076017198
 31
0.0
  0
LINE
  5
B06
330
1F
100
AcDbEntity
  8
Object
100
AcDbLine
 10
8.815901684902703
 20
4.253690076017198
 30
0.0
 11
8.809901684902703
 21
4.214690076017197
 31
0.0
  0
LINE
  5
B07
330
1F
100
AcDbEntity
  8
Object
100
AcDbLine
 10
8.809901684902703
 20
4.214690076017197
 30
0.0
 11
8.792901684902703
 21
4.180690076017198
 31
0.0
  0
LINE
  5
B08
330
1F
100
AcDbEntity
  8
Object
100
AcDbLine
 10
8.792901684902703
 20
4.180690076017198
 30
0.0
 11
8.764901684902703
 21
4.152690076017197
 31
0.0
  0
LINE
  5
B09
330
1F
100
AcDbEntity
  8
Object
100
AcDbLine
 10
8.764901684902703
 20
4.152690076017197
 30
0.0
 11
8.729901684902703
 21
4.134690076017197
 31
0.0
  0
LINE
  5
B0A
330
1F
100
AcDbEntity
  8
Object
100
AcDbLine
 10
8.815901684902703
 20
4.253690076017198
 30
0.0
 11
8.815901684902703
 21
4.758690076017197
 31
0.0
  0
LINE
  5
B0B
330
1F
100
AcDbEntity
  8
Object
100
AcDbLine
 10
8.690901684902703
 20
4.128690076017198
 30
0.0
 11
8.729901684902703
 21
4.134690076017197
 31
0.0
  0
LINE
  5
B0C
330
1F
100
AcDbEntity
  8
Object
100
AcDbLine
 10
7.540901684902704
 20
4.128690076017198
 30
0.0
 11
7.502901684902703
 21
4.134690076017197
 31
0.0
  0
LINE
  5
B0D
330
1F
100
AcDbEntity
  8
Object
100
AcDbLine
 10
7.502901684902703
 20
4.134690076017197
 30
0.0
 11
7.467901684902703
 21
4.152690076017197
 31
0.0
  0
LINE
  5
B0E
330
1F
100
AcDbEntity
  8
Object
100
AcDbLine
 10
7.467901684902703
 20
4.152690076017197
 30
0.0
 11
7.439901684902704
 21
4.180690076017198
 31
0.0
  0
LINE
  5
B0F
330
1F
100
AcDbEntity
  8
Object
100
AcDbLine
 10
7.439901684902704
 20
4.180690076017198
 30
0.0
 11
7.422901684902703
 21
4.214690076017197
 31
0.0
  0
LINE
  5
B10
330
1F
100
AcDbEntity
  8
Object
100
AcDbLine
 10
7.422901684902703
 20
4.214690076017197
 30
0.0
 11
7.415901684902704
 21
4.253690076017198
 31
0.0
  0
LINE
  5
B11
330
1F
100
AcDbEntity
  8
Object
100
AcDbLine
 10
7.415901684902704
 20
4.253690076017198
 30
0.0
 11
7.415901684902704
 21
4.758690076017197
 31
0.0
  0
LINE
  5
B12
330
1F
100
AcDbEntity
  8
Object
100
AcDbLine
 10
7.415901684902704
 20
4.758690076017197
 30
0.0
 11
8.815901684902703
 21
4.758690076017197
 31
0.0
  0
LINE
  5
B13
330
1F
100
AcDbEntity
  8
Object
100
AcDbLine
 10
7.540901684902704
 20
4.128690076017198
 30
0.0
 11
8.690901684902703
 21
4.128690076017198
 31
0.0
  0
LINE
  5
B14
330
1F
100
AcDbEntity
  8
Object
100
AcDbLine
 10
8.815901684902703
 20
4.253690076017198
 30
0.0
 11
8.809901684902703
 21
4.214690076017197
 31
0.0
  0
LINE
  5
B15
330
1F
100
AcDbEntity
  8
Object
100
AcDbLine
 10
8.809901684902703
 20
4.214690076017197
 30
0.0
 11
8.792901684902703
 21
4.180690076017198
 31
0.0
  0
LINE
  5
B16
330
1F
100
AcDbEntity
  8
Object
100
AcDbLine
 10
8.792901684902703
 20
4.180690076017198
 30
0.0
 11
8.764901684902703
 21
4.152690076017197
 31
0.0
  0
LINE
  5
B17
330
1F
100
AcDbEntity
  8
Object
100
AcDbLine
 10
8.764901684902703
 20
4.152690076017197
 30
0.0
 11
8.729901684902703
 21
4.134690076017197
 31
0.0
  0
LINE
  5
B18
330
1F
100
AcDbEntity
  8
Object
100
AcDbLine
 10
8.729901684902703
 20
4.134690076017197
 30
0.0
 11
8.690901684902703
 21
4.128690076017198
 31
0.0
  0
LINE
  5
B19
330
1F
100
AcDbEntity
  8
Object
100
AcDbLine
 10
7.415901684902704
 20
4.758690076017197
 30
0.0
 11
7.415901684902704
 21
4.253690076017198
 31
0.0
  0
LINE
  5
B1A
330
1F
100
AcDbEntity
  8
Object
100
AcDbLine
 10
7.540901684902704
 20
4.128690076017198
 30
0.0
 11
7.502901684902703
 21
4.134690076017197
 31
0.0
  0
LINE
  5
B1B
330
1F
100
AcDbEntity
  8
Object
100
AcDbLine
 10
7.502901684902703
 20
4.134690076017197
 30
0.0
 11
7.467901684902703
 21
4.152690076017197
 31
0.0
  0
LINE
  5
B1C
330
1F
100
AcDbEntity
  8
Object
100
AcDbLine
 10
7.467901684902703
 20
4.152690076017197
 30
0.0
 11
7.439901684902704
 21
4.180690076017198
 31
0.0
  0
LINE
  5
B1D
330
1F
100
AcDbEntity
  8
Object
100
AcDbLine
 10
7.439901684902704
 20
4.180690076017198
 30
0.0
 11
7.422901684902703
 21
4.214690076017197
 31
0.0
  0
LINE
  5
B1E
330
1F
100
AcDbEntity
  8
Object
100
AcDbLine
 10
7.422901684902703
 20
4.214690076017197
 30
0.0
 11
7.415901684902704
 21
4.253690076017198
 31
0.0
  0
LINE
  5
B1F
330
1F
100
AcDbEntity
  8
Object
100
AcDbLine
 10
7.540901684902704
 20
4.128690076017198
 30
0.0
 11
8.690901684902703
 21
4.128690076017198
 31
0.0
  0
LINE
  5
B20
330
1F
100
AcDbEntity
  8
Object
100
AcDbLine
 10
3.616901684902704
 20
4.078690076017197
 30
0.0
 11
3.616901684902704
 21
4.378690076017198
 31
0.0
  0
LINE
  5
B21
330
1F
100
AcDbEntity
  8
Object
100
AcDbLine
 10
3.616901684902704
 20
3.608690076017198
 30
0.0
 11
3.616901684902704
 21
3.878690076017198
 31
0.0
  0
LINE
  5
B22
330
1F
100
AcDbEntity
  8
Object
100
AcDbLine
 10
1.964901684902704
 20
4.901690076017198
 30
0.0
 11
1.964901684902704
 21
4.880690076017197
 31
0.0
  0
LINE
  5
B23
330
1F
100
AcDbEntity
  8
Object
100
AcDbLine
 10
1.964901684902704
 20
4.880690076017197
 30
0.0
 11
1.964901684902704
 21
4.846690076017198
 31
0.0
  0
LINE
  5
B24
330
1F
100
AcDbEntity
  8
Object
100
AcDbLine
 10
1.964901684902704
 20
4.805690076017198
 30
0.0
 11
1.964901684902704
 21
4.758690076017197
 31
0.0
  0
LINE
  5
B25
330
1F
100
AcDbEntity
  8
Object
100
AcDbLine
 10
1.964901684902704
 20
4.758690076017197
 30
0.0
 11
1.964901684902704
 21
4.308690076017198
 31
0.0
  0
LINE
  5
B26
330
1F
100
AcDbEntity
  8
Object
100
AcDbLine
 10
1.964901684902704
 20
4.846690076017198
 30
0.0
 11
1.964901684902704
 21
4.805690076017198
 31
0.0
  0
LINE
  5
B27
330
1F
100
AcDbEntity
  8
Object
100
AcDbLine
 10
1.964901684902704
 20
4.908690076017197
 30
0.0
 11
1.964901684902704
 21
4.901690076017198
 31
0.0
  0
LINE
  5
B28
330
1F
100
AcDbEntity
  8
Object
100
AcDbLine
 10
3.374901684902704
 20
3.608690076017198
 30
0.0
 11
3.370901684902705
 21
3.624690076017198
 31
0.0
  0
LINE
  5
B29
330
1F
100
AcDbEntity
  8
Object
100
AcDbLine
 10
3.370901684902705
 20
3.624690076017198
 30
0.0
 11
3.354901684902705
 21
3.645690076017197
 31
0.0
  0
LINE
  5
B2A
330
1F
100
AcDbEntity
  8
Object
100
AcDbLine
 10
3.354901684902705
 20
3.645690076017197
 30
0.0
 11
3.330901684902704
 21
3.656690076017198
 31
0.0
  0
LINE
  5
B2B
330
1F
100
AcDbEntity
  8
Object
100
AcDbLine
 10
3.330901684902704
 20
3.656690076017198
 30
0.0
 11
3.316901684902704
 21
3.656690076017198
 31
0.0
  0
LINE
  5
B2C
330
1F
100
AcDbEntity
  8
Object
100
AcDbLine
 10
3.586901684902704
 20
3.608690076017198
 30
0.0
 11
3.616901684902704
 21
3.608690076017198
 31
0.0
  0
LINE
  5
B2D
330
1F
100
AcDbEntity
  8
Object
100
AcDbLine
 10
3.374901684902704
 20
3.608690076017198
 30
0.0
 11
3.370901684902705
 21
3.624690076017198
 31
0.0
  0
LINE
  5
B2E
330
1F
100
AcDbEntity
  8
Object
100
AcDbLine
 10
3.370901684902705
 20
3.624690076017198
 30
0.0
 11
3.354901684902705
 21
3.645690076017197
 31
0.0
  0
LINE
  5
B2F
330
1F
100
AcDbEntity
  8
Object
100
AcDbLine
 10
3.616901684902704
 20
4.078690076017197
 30
0.0
 11
3.616901684902704
 21
4.378690076017198
 31
0.0
  0
LINE
  5
B30
330
1F
100
AcDbEntity
  8
Object
100
AcDbLine
 10
3.616901684902704
 20
3.608690076017198
 30
0.0
 11
3.616901684902704
 21
3.878690076017198
 31
0.0
  0
LINE
  5
B31
330
1F
100
AcDbEntity
  8
Object
100
AcDbLine
 10
3.354901684902705
 20
3.645690076017197
 30
0.0
 11
3.330901684902704
 21
3.656690076017198
 31
0.0
  0
LINE
  5
B32
330
1F
100
AcDbEntity
  8
Object
100
AcDbLine
 10
3.330901684902704
 20
3.656690076017198
 30
0.0
 11
3.316901684902704
 21
3.656690076017198
 31
0.0
  0
LINE
  5
B33
330
1F
100
AcDbEntity
  8
Object
100
AcDbLine
 10
3.616901684902704
 20
3.593690076017197
 30
0.0
 11
3.616901684902704
 21
3.582690076017197
 31
0.0
  0
LINE
  5
B34
330
1F
100
AcDbEntity
  8
Object
100
AcDbLine
 10
3.616901684902704
 20
3.582690076017197
 30
0.0
 11
3.616901684902704
 21
3.578690076017197
 31
0.0
  0
LINE
  5
B35
330
1F
100
AcDbEntity
  8
Object
100
AcDbLine
 10
3.616901684902704
 20
3.593690076017197
 30
0.0
 11
3.616901684902704
 21
3.608690076017198
 31
0.0
  0
LINE
  5
B36
330
1F
100
AcDbEntity
  8
Object
100
AcDbLine
 10
1.964901684902704
 20
4.901690076017198
 30
0.0
 11
1.964901684902704
 21
4.880690076017197
 31
0.0
  0
LINE
  5
B37
330
1F
100
AcDbEntity
  8
Object
100
AcDbLine
 10
3.616901684902704
 20
4.846690076017198
 30
0.0
 11
3.616901684902704
 21
4.880690076017197
 31
0.0
  0
LINE
  5
B38
330
1F
100
AcDbEntity
  8
Object
100
AcDbLine
 10
1.964901684902704
 20
4.846690076017198
 30
0.0
 11
1.964901684902704
 21
4.805690076017198
 31
0.0
  0
LINE
  5
B39
330
1F
100
AcDbEntity
  8
Object
100
AcDbLine
 10
3.616901684902704
 20
4.758690076017197
 30
0.0
 11
3.616901684902704
 21
4.805690076017198
 31
0.0
  0
LINE
  5
B3A
330
1F
100
AcDbEntity
  8
Object
100
AcDbLine
 10
1.964901684902704
 20
4.805690076017198
 30
0.0
 11
1.964901684902704
 21
4.758690076017197
 31
0.0
  0
LINE
  5
B3B
330
1F
100
AcDbEntity
  8
Object
100
AcDbLine
 10
3.616901684902704
 20
4.805690076017198
 30
0.0
 11
3.616901684902704
 21
4.846690076017198
 31
0.0
  0
LINE
  5
B3C
330
1F
100
AcDbEntity
  8
Object
100
AcDbLine
 10
1.964901684902704
 20
4.880690076017197
 30
0.0
 11
1.964901684902704
 21
4.846690076017198
 31
0.0
  0
LINE
  5
B3D
330
1F
100
AcDbEntity
  8
Object
100
AcDbLine
 10
3.616901684902704
 20
4.880690076017197
 30
0.0
 11
3.616901684902704
 21
4.901690076017198
 31
0.0
  0
LINE
  5
B3E
330
1F
100
AcDbEntity
  8
Object
100
AcDbLine
 10
1.964901684902704
 20
4.901690076017198
 30
0.0
 11
1.964901684902704
 21
4.908690076017197
 31
0.0
  0
LINE
  5
B3F
330
1F
100
AcDbEntity
  8
Object
100
AcDbLine
 10
1.964901684902704
 20
4.908690076017197
 30
0.0
 11
3.616901684902704
 21
4.908690076017197
 31
0.0
  0
LINE
  5
B40
330
1F
100
AcDbEntity
  8
Object
100
AcDbLine
 10
3.616901684902704
 20
4.908690076017197
 30
0.0
 11
3.616901684902704
 21
4.901690076017198
 31
0.0
  0
LINE
  5
B41
330
1F
100
AcDbEntity
  8
Object
100
AcDbLine
 10
1.994901684902704
 20
4.278690076017197
 30
0.0
 11
1.979901684902705
 21
4.282690076017198
 31
0.0
  0
LINE
  5
B42
330
1F
100
AcDbEntity
  8
Object
100
AcDbLine
 10
1.979901684902705
 20
4.282690076017198
 30
0.0
 11
1.968901684902704
 21
4.293690076017197
 31
0.0
  0
LINE
  5
B43
330
1F
100
AcDbEntity
  8
Object
100
AcDbLine
 10
1.968901684902704
 20
4.293690076017197
 30
0.0
 11
1.964901684902704
 21
4.308690076017198
 31
0.0
  0
LINE
  5
B44
330
1F
100
AcDbEntity
  8
Object
100
AcDbLine
 10
3.616901684902704
 20
4.378690076017198
 30
0.0
 11
3.612901684902704
 21
4.363690076017197
 31
0.0
  0
LINE
  5
B45
330
1F
100
AcDbEntity
  8
Object
100
AcDbLine
 10
3.612901684902704
 20
4.363690076017197
 30
0.0
 11
3.601901684902705
 21
4.352690076017197
 31
0.0
  0
LINE
  5
B46
330
1F
100
AcDbEntity
  8
Object
100
AcDbLine
 10
3.601901684902705
 20
4.352690076017197
 30
0.0
 11
3.586901684902704
 21
4.348690076017197
 31
0.0
  0
LINE
  5
B47
330
1F
100
AcDbEntity
  8
Object
100
AcDbLine
 10
3.616901684902704
 20
4.078690076017197
 30
0.0
 11
3.612901684902704
 21
4.093690076017198
 31
0.0
  0
LINE
  5
B48
330
1F
100
AcDbEntity
  8
Object
100
AcDbLine
 10
3.586901684902704
 20
4.108690076017198
 30
0.0
 11
3.601901684902705
 21
4.104690076017197
 31
0.0
  0
LINE
  5
B49
330
1F
100
AcDbEntity
  8
Object
100
AcDbLine
 10
3.601901684902705
 20
4.104690076017197
 30
0.0
 11
3.612901684902704
 21
4.093690076017198
 31
0.0
  0
LINE
  5
B4A
330
1F
100
AcDbEntity
  8
Object
100
AcDbLine
 10
3.616901684902704
 20
4.078690076017197
 30
0.0
 11
3.616901684902704
 21
3.878690076017198
 31
0.0
  0
LINE
  5
B4B
330
1F
100
AcDbEntity
  8
Object
100
AcDbLine
 10
3.616901684902704
 20
3.878690076017198
 30
0.0
 11
3.612901684902704
 21
3.863690076017197
 31
0.0
  0
LINE
  5
B4C
330
1F
100
AcDbEntity
  8
Object
100
AcDbLine
 10
3.612901684902704
 20
3.863690076017197
 30
0.0
 11
3.601901684902705
 21
3.852690076017197
 31
0.0
  0
LINE
  5
B4D
330
1F
100
AcDbEntity
  8
Object
100
AcDbLine
 10
3.601901684902705
 20
3.852690076017197
 30
0.0
 11
3.586901684902704
 21
3.848690076017197
 31
0.0
  0
LINE
  5
B4E
330
1F
100
AcDbEntity
  8
Object
100
AcDbLine
 10
3.586901684902704
 20
3.608690076017198
 30
0.0
 11
3.601901684902705
 21
3.604690076017197
 31
0.0
  0
LINE
  5
B4F
330
1F
100
AcDbEntity
  8
Object
100
AcDbLine
 10
3.601901684902705
 20
3.604690076017197
 30
0.0
 11
3.612901684902704
 21
3.593690076017197
 31
0.0
  0
LINE
  5
B50
330
1F
100
AcDbEntity
  8
Object
100
AcDbLine
 10
3.612901684902704
 20
3.593690076017197
 30
0.0
 11
3.616901684902704
 21
3.578690076017197
 31
0.0
  0
LINE
  5
B51
330
1F
100
AcDbEntity
  8
Object
100
AcDbLine
 10
3.616901684902704
 20
3.578690076017197
 30
0.0
 11
3.616901684902704
 21
3.373690076017197
 31
0.0
  0
LINE
  5
B52
330
1F
100
AcDbEntity
  8
Object
100
AcDbLine
 10
3.616901684902704
 20
3.373690076017197
 30
0.0
 11
3.610901684902704
 21
3.334690076017198
 31
0.0
  0
LINE
  5
B53
330
1F
100
AcDbEntity
  8
Object
100
AcDbLine
 10
3.610901684902704
 20
3.334690076017198
 30
0.0
 11
3.592901684902704
 21
3.299690076017197
 31
0.0
  0
LINE
  5
B54
330
1F
100
AcDbEntity
  8
Object
100
AcDbLine
 10
3.592901684902704
 20
3.299690076017197
 30
0.0
 11
3.565901684902704
 21
3.272690076017197
 31
0.0
  0
LINE
  5
B55
330
1F
100
AcDbEntity
  8
Object
100
AcDbLine
 10
3.565901684902704
 20
3.272690076017197
 30
0.0
 11
3.530901684902705
 21
3.254690076017197
 31
0.0
  0
LINE
  5
B56
330
1F
100
AcDbEntity
  8
Object
100
AcDbLine
 10
3.530901684902705
 20
3.254690076017197
 30
0.0
 11
3.491901684902704
 21
3.248690076017197
 31
0.0
  0
LINE
  5
B57
330
1F
100
AcDbEntity
  8
Object
100
AcDbLine
 10
3.616901684902704
 20
4.378690076017198
 30
0.0
 11
3.616901684902704
 21
4.758690076017197
 31
0.0
  0
LINE
  5
B58
330
1F
100
AcDbEntity
  8
Object
100
AcDbLine
 10
3.346901684902704
 20
4.348690076017197
 30
0.0
 11
3.586901684902704
 21
4.348690076017197
 31
0.0
  0
LINE
  5
B59
330
1F
100
AcDbEntity
  8
Object
100
AcDbLine
 10
3.586901684902704
 20
4.108690076017198
 30
0.0
 11
3.346901684902704
 21
4.108690076017198
 31
0.0
  0
LINE
  5
B5A
330
1F
100
AcDbEntity
  8
Object
100
AcDbLine
 10
3.346901684902704
 20
3.848690076017197
 30
0.0
 11
3.586901684902704
 21
3.848690076017197
 31
0.0
  0
LINE
  5
B5B
330
1F
100
AcDbEntity
  8
Object
100
AcDbLine
 10
3.586901684902704
 20
3.608690076017198
 30
0.0
 11
3.346901684902704
 21
3.608690076017198
 31
0.0
  0
LINE
  5
B5C
330
1F
100
AcDbEntity
  8
Object
100
AcDbLine
 10
3.331901684902704
 20
4.344690076017197
 30
0.0
 11
3.346901684902704
 21
4.348690076017197
 31
0.0
  0
LINE
  5
B5D
330
1F
100
AcDbEntity
  8
Object
100
AcDbLine
 10
3.331901684902704
 20
3.844690076017197
 30
0.0
 11
3.346901684902704
 21
3.848690076017197
 31
0.0
  0
LINE
  5
B5E
330
1F
100
AcDbEntity
  8
Object
100
AcDbLine
 10
3.346901684902704
 20
4.108690076017198
 30
0.0
 11
3.331901684902704
 21
4.112690076017198
 31
0.0
  0
LINE
  5
B5F
330
1F
100
AcDbEntity
  8
Object
100
AcDbLine
 10
3.346901684902704
 20
3.608690076017198
 30
0.0
 11
3.331901684902704
 21
3.612690076017197
 31
0.0
  0
LINE
  5
B60
330
1F
100
AcDbEntity
  8
Object
100
AcDbLine
 10
3.331901684902704
 20
4.112690076017198
 30
0.0
 11
3.320901684902704
 21
4.123690076017197
 31
0.0
  0
LINE
  5
B61
330
1F
100
AcDbEntity
  8
Object
100
AcDbLine
 10
3.320901684902704
 20
3.833690076017197
 30
0.0
 11
3.331901684902704
 21
3.844690076017197
 31
0.0
  0
LINE
  5
B62
330
1F
100
AcDbEntity
  8
Object
100
AcDbLine
 10
2.781901684902704
 20
3.248690076017197
 30
0.0
 11
3.491901684902704
 21
3.248690076017197
 31
0.0
  0
LINE
  5
B63
330
1F
100
AcDbEntity
  8
Object
100
AcDbLine
 10
3.331901684902704
 20
3.612690076017197
 30
0.0
 11
3.320901684902704
 21
3.623690076017197
 31
0.0
  0
LINE
  5
B64
330
1F
100
AcDbEntity
  8
Object
100
AcDbLine
 10
3.331901684902704
 20
4.344690076017197
 30
0.0
 11
3.320901684902704
 21
4.333690076017197
 31
0.0
  0
LINE
  5
B65
330
1F
100
AcDbEntity
  8
Object
100
AcDbLine
 10
3.320901684902704
 20
4.333690076017197
 30
0.0
 11
3.316901684902704
 21
4.318690076017198
 31
0.0
  0
LINE
  5
B66
330
1F
100
AcDbEntity
  8
Object
100
AcDbLine
 10
3.316901684902704
 20
4.318690076017198
 30
0.0
 11
3.316901684902704
 21
4.138690076017198
 31
0.0
  0
LINE
  5
B67
330
1F
100
AcDbEntity
  8
Object
100
AcDbLine
 10
3.316901684902704
 20
4.138690076017198
 30
0.0
 11
3.320901684902704
 21
4.123690076017197
 31
0.0
  0
LINE
  5
B68
330
1F
100
AcDbEntity
  8
Object
100
AcDbLine
 10
3.320901684902704
 20
3.833690076017197
 30
0.0
 11
3.316901684902704
 21
3.818690076017198
 31
0.0
  0
LINE
  5
B69
330
1F
100
AcDbEntity
  8
Object
100
AcDbLine
 10
3.316901684902704
 20
3.818690076017198
 30
0.0
 11
3.316901684902704
 21
3.638690076017197
 31
0.0
  0
LINE
  5
B6A
330
1F
100
AcDbEntity
  8
Object
100
AcDbLine
 10
3.316901684902704
 20
3.638690076017197
 30
0.0
 11
3.320901684902704
 21
3.623690076017197
 31
0.0
  0
LINE
  5
B6B
330
1F
100
AcDbEntity
  8
Object
100
AcDbLine
 10
2.716901684902705
 20
3.648690076017198
 30
0.0
 11
2.716901684902705
 21
4.598690076017197
 31
0.0
  0
LINE
  5
B6C
330
1F
100
AcDbEntity
  8
Object
100
AcDbLine
 10
2.716901684902705
 20
4.598690076017197
 30
0.0
 11
2.712901684902704
 21
4.613690076017197
 31
0.0
  0
LINE
  5
B6D
330
1F
100
AcDbEntity
  8
Object
100
AcDbLine
 10
2.781901684902704
 20
3.248690076017197
 30
0.0
 11
2.743901684902704
 21
3.254690076017197
 31
0.0
  0
LINE
  5
B6E
330
1F
100
AcDbEntity
  8
Object
100
AcDbLine
 10
2.743901684902704
 20
3.254690076017197
 30
0.0
 11
2.708901684902704
 21
3.272690076017197
 31
0.0
  0
LINE
  5
B6F
330
1F
100
AcDbEntity
  8
Object
100
AcDbLine
 10
2.712901684902704
 20
4.613690076017197
 30
0.0
 11
2.701901684902704
 21
4.624690076017198
 31
0.0
  0
LINE
  5
B70
330
1F
100
AcDbEntity
  8
Object
100
AcDbLine
 10
2.701901684902704
 20
4.624690076017198
 30
0.0
 11
2.686901684902704
 21
4.628690076017198
 31
0.0
  0
LINE
  5
B71
330
1F
100
AcDbEntity
  8
Object
100
AcDbLine
 10
2.708901684902704
 20
3.272690076017197
 30
0.0
 11
2.680901684902704
 21
3.299690076017197
 31
0.0
  0
LINE
  5
B72
330
1F
100
AcDbEntity
  8
Object
100
AcDbLine
 10
2.680901684902704
 20
3.299690076017197
 30
0.0
 11
2.662901684902704
 21
3.334690076017198
 31
0.0
  0
LINE
  5
B73
330
1F
100
AcDbEntity
  8
Object
100
AcDbLine
 10
2.660901684902704
 20
3.633690076017197
 30
0.0
 11
2.671901684902705
 21
3.644690076017197
 31
0.0
  0
LINE
  5
B74
330
1F
100
AcDbEntity
  8
Object
100
AcDbLine
 10
2.671901684902705
 20
3.644690076017197
 30
0.0
 11
2.686901684902704
 21
3.648690076017198
 31
0.0
  0
LINE
  5
B75
330
1F
100
AcDbEntity
  8
Object
100
AcDbLine
 10
2.660901684902704
 20
3.633690076017197
 30
0.0
 11
2.656901684902704
 21
3.618690076017197
 31
0.0
  0
LINE
  5
B76
330
1F
100
AcDbEntity
  8
Object
100
AcDbLine
 10
2.716901684902705
 20
3.648690076017198
 30
0.0
 11
2.686901684902704
 21
3.648690076017198
 31
0.0
  0
LINE
  5
B77
330
1F
100
AcDbEntity
  8
Object
100
AcDbLine
 10
2.662901684902704
 20
3.334690076017198
 30
0.0
 11
2.656901684902704
 21
3.373690076017197
 31
0.0
  0
LINE
  5
B78
330
1F
100
AcDbEntity
  8
Object
100
AcDbLine
 10
2.656901684902704
 20
3.373690076017197
 30
0.0
 11
2.656901684902704
 21
3.618690076017197
 31
0.0
  0
LINE
  5
B79
330
1F
100
AcDbEntity
  8
Object
100
AcDbLine
 10
2.276901684902704
 20
4.308690076017198
 30
0.0
 11
2.272901684902704
 21
4.293690076017197
 31
0.0
  0
LINE
  5
B7A
330
1F
100
AcDbEntity
  8
Object
100
AcDbLine
 10
2.272901684902704
 20
4.293690076017197
 30
0.0
 11
2.261901684902705
 21
4.282690076017198
 31
0.0
  0
LINE
  5
B7B
330
1F
100
AcDbEntity
  8
Object
100
AcDbLine
 10
2.261901684902705
 20
4.282690076017198
 30
0.0
 11
2.246901684902704
 21
4.278690076017197
 31
0.0
  0
LINE
  5
B7C
330
1F
100
AcDbEntity
  8
Object
100
AcDbLine
 10
1.994901684902704
 20
4.278690076017197
 30
0.0
 11
1.979901684902705
 21
4.282690076017198
 31
0.0
  0
LINE
  5
B7D
330
1F
100
AcDbEntity
  8
Object
100
AcDbLine
 10
1.979901684902705
 20
4.282690076017198
 30
0.0
 11
1.968901684902704
 21
4.293690076017197
 31
0.0
  0
LINE
  5
B7E
330
1F
100
AcDbEntity
  8
Object
100
AcDbLine
 10
3.616901684902704
 20
4.758690076017197
 30
0.0
 11
1.964901684902704
 21
4.758690076017197
 31
0.0
  0
LINE
  5
B7F
330
1F
100
AcDbEntity
  8
Object
100
AcDbLine
 10
2.686901684902704
 20
4.628690076017198
 30
0.0
 11
2.306901684902705
 21
4.628690076017198
 31
0.0
  0
LINE
  5
B80
330
1F
100
AcDbEntity
  8
Object
100
AcDbLine
 10
2.306901684902705
 20
4.628690076017198
 30
0.0
 11
2.291901684902704
 21
4.624690076017198
 31
0.0
  0
LINE
  5
B81
330
1F
100
AcDbEntity
  8
Object
100
AcDbLine
 10
2.291901684902704
 20
4.624690076017198
 30
0.0
 11
2.280901684902705
 21
4.613690076017197
 31
0.0
  0
LINE
  5
B82
330
1F
100
AcDbEntity
  8
Object
100
AcDbLine
 10
2.280901684902705
 20
4.613690076017197
 30
0.0
 11
2.276901684902704
 21
4.598690076017197
 31
0.0
  0
LINE
  5
B83
330
1F
100
AcDbEntity
  8
Object
100
AcDbLine
 10
2.276901684902704
 20
4.598690076017197
 30
0.0
 11
2.276901684902704
 21
4.308690076017198
 31
0.0
  0
LINE
  5
B84
330
1F
100
AcDbEntity
  8
Object
100
AcDbLine
 10
1.994901684902704
 20
4.278690076017197
 30
0.0
 11
2.246901684902704
 21
4.278690076017197
 31
0.0
  0
LINE
  5
B85
330
1F
100
AcDbEntity
  8
Object
100
AcDbLine
 10
1.968901684902704
 20
4.293690076017197
 30
0.0
 11
1.964901684902704
 21
4.308690076017198
 31
0.0
  0
LINE
  5
B86
330
1F
100
AcDbEntity
  8
Object
100
AcDbLine
 10
1.964901684902704
 20
4.308690076017198
 30
0.0
 11
1.964901684902704
 21
4.758690076017197
 31
0.0
  0
LINE
  5
B87
330
1F
100
AcDbEntity
  8
Object
100
AcDbLine
 10
3.616901684902704
 20
4.908690076017197
 30
0.0
 11
1.964901684902704
 21
4.908690076017197
 31
0.0
  0
LINE
  5
B88
330
1F
100
AcDbEntity
  8
Object
100
AcDbLine
 10
3.616901684902704
 20
3.578690076017197
 30
0.0
 11
3.616901684902704
 21
3.582690076017197
 31
0.0
  0
LINE
  5
B89
330
1F
100
AcDbEntity
  8
Object
100
AcDbLine
 10
3.616901684902704
 20
3.582690076017197
 30
0.0
 11
3.616901684902704
 21
3.593690076017197
 31
0.0
  0
LINE
  5
B8A
330
1F
100
AcDbEntity
  8
Object
100
AcDbLine
 10
3.616901684902704
 20
3.593690076017197
 30
0.0
 11
3.616901684902704
 21
3.608690076017198
 31
0.0
  0
LINE
  5
B8B
330
1F
100
AcDbEntity
  8
Object
100
AcDbLine
 10
3.616901684902704
 20
4.846690076017198
 30
0.0
 11
3.616901684902704
 21
4.880690076017197
 31
0.0
  0
LINE
  5
B8C
330
1F
100
AcDbEntity
  8
Object
100
AcDbLine
 10
3.616901684902704
 20
4.758690076017197
 30
0.0
 11
3.616901684902704
 21
4.805690076017198
 31
0.0
  0
LINE
  5
B8D
330
1F
100
AcDbEntity
  8
Object
100
AcDbLine
 10
3.616901684902704
 20
4.805690076017198
 30
0.0
 11
3.616901684902704
 21
4.846690076017198
 31
0.0
  0
LINE
  5
B8E
330
1F
100
AcDbEntity
  8
Object
100
AcDbLine
 10
3.616901684902704
 20
4.880690076017197
 30
0.0
 11
3.616901684902704
 21
4.901690076017198
 31
0.0
  0
LINE
  5
B8F
330
1F
100
AcDbEntity
  8
Object
100
AcDbLine
 10
3.616901684902704
 20
4.901690076017198
 30
0.0
 11
3.616901684902704
 21
4.908690076017197
 31
0.0
  0
LINE
  5
B90
330
1F
100
AcDbEntity
  8
Object
100
AcDbLine
 10
2.716901684902705
 20
4.598690076017197
 30
0.0
 11
2.716901684902705
 21
3.648690076017198
 31
0.0
  0
LINE
  5
B91
330
1F
100
AcDbEntity
  8
Object
100
AcDbLine
 10
3.346901684902704
 20
3.848690076017197
 30
0.0
 11
3.331901684902704
 21
3.844690076017197
 31
0.0
  0
LINE
  5
B92
330
1F
100
AcDbEntity
  8
Object
100
AcDbLine
 10
3.331901684902704
 20
3.844690076017197
 30
0.0
 11
3.320901684902704
 21
3.833690076017197
 31
0.0
  0
LINE
  5
B93
330
1F
100
AcDbEntity
  8
Object
100
AcDbLine
 10
3.320901684902704
 20
3.833690076017197
 30
0.0
 11
3.316901684902704
 21
3.818690076017198
 31
0.0
  0
LINE
  5
B94
330
1F
100
AcDbEntity
  8
Object
100
AcDbLine
 10
3.346901684902704
 20
3.848690076017197
 30
0.0
 11
3.586901684902704
 21
3.848690076017197
 31
0.0
  0
LINE
  5
B95
330
1F
100
AcDbEntity
  8
Object
100
AcDbLine
 10
3.586901684902704
 20
4.108690076017198
 30
0.0
 11
3.346901684902704
 21
4.108690076017198
 31
0.0
  0
LINE
  5
B96
330
1F
100
AcDbEntity
  8
Object
100
AcDbLine
 10
3.616901684902704
 20
3.578690076017197
 30
0.0
 11
3.612901684902704
 21
3.593690076017197
 31
0.0
  0
LINE
  5
B97
330
1F
100
AcDbEntity
  8
Object
100
AcDbLine
 10
3.612901684902704
 20
3.593690076017197
 30
0.0
 11
3.601901684902705
 21
3.604690076017197
 31
0.0
  0
LINE
  5
B98
330
1F
100
AcDbEntity
  8
Object
100
AcDbLine
 10
3.601901684902705
 20
3.604690076017197
 30
0.0
 11
3.586901684902704
 21
3.608690076017198
 31
0.0
  0
LINE
  5
B99
330
1F
100
AcDbEntity
  8
Object
100
AcDbLine
 10
3.616901684902704
 20
3.878690076017198
 30
0.0
 11
3.612901684902704
 21
3.863690076017197
 31
0.0
  0
LINE
  5
B9A
330
1F
100
AcDbEntity
  8
Object
100
AcDbLine
 10
3.612901684902704
 20
3.863690076017197
 30
0.0
 11
3.601901684902705
 21
3.852690076017197
 31
0.0
  0
LINE
  5
B9B
330
1F
100
AcDbEntity
  8
Object
100
AcDbLine
 10
3.601901684902705
 20
3.852690076017197
 30
0.0
 11
3.586901684902704
 21
3.848690076017197
 31
0.0
  0
LINE
  5
B9C
330
1F
100
AcDbEntity
  8
Object
100
AcDbLine
 10
3.346901684902704
 20
4.108690076017198
 30
0.0
 11
3.331901684902704
 21
4.112690076017198
 31
0.0
  0
LINE
  5
B9D
330
1F
100
AcDbEntity
  8
Object
100
AcDbLine
 10
3.331901684902704
 20
4.112690076017198
 30
0.0
 11
3.320901684902704
 21
4.123690076017197
 31
0.0
  0
LINE
  5
B9E
330
1F
100
AcDbEntity
  8
Object
100
AcDbLine
 10
3.320901684902704
 20
4.123690076017197
 30
0.0
 11
3.316901684902704
 21
4.138690076017198
 31
0.0
  0
LINE
  5
B9F
330
1F
100
AcDbEntity
  8
Object
100
AcDbLine
 10
3.616901684902704
 20
4.378690076017198
 30
0.0
 11
3.616901684902704
 21
4.758690076017197
 31
0.0
  0
LINE
  5
BA0
330
1F
100
AcDbEntity
  8
Object
100
AcDbLine
 10
3.316901684902704
 20
3.638690076017197
 30
0.0
 11
3.316901684902704
 21
3.818690076017198
 31
0.0
  0
LINE
  5
BA1
330
1F
100
AcDbEntity
  8
Object
100
AcDbLine
 10
2.276901684902704
 20
4.308690076017198
 30
0.0
 11
2.272901684902704
 21
4.293690076017197
 31
0.0
  0
LINE
  5
BA2
330
1F
100
AcDbEntity
  8
Object
100
AcDbLine
 10
2.272901684902704
 20
4.293690076017197
 30
0.0
 11
2.261901684902705
 21
4.282690076017198
 31
0.0
  0
LINE
  5
BA3
330
1F
100
AcDbEntity
  8
Object
100
AcDbLine
 10
2.261901684902705
 20
4.282690076017198
 30
0.0
 11
2.246901684902704
 21
4.278690076017197
 31
0.0
  0
LINE
  5
BA4
330
1F
100
AcDbEntity
  8
Object
100
AcDbLine
 10
3.346901684902704
 20
4.348690076017197
 30
0.0
 11
3.331901684902704
 21
4.344690076017197
 31
0.0
  0
LINE
  5
BA5
330
1F
100
AcDbEntity
  8
Object
100
AcDbLine
 10
3.331901684902704
 20
4.344690076017197
 30
0.0
 11
3.320901684902704
 21
4.333690076017197
 31
0.0
  0
LINE
  5
BA6
330
1F
100
AcDbEntity
  8
Object
100
AcDbLine
 10
3.320901684902704
 20
4.333690076017197
 30
0.0
 11
3.316901684902704
 21
4.318690076017198
 31
0.0
  0
LINE
  5
BA7
330
1F
100
AcDbEntity
  8
Object
100
AcDbLine
 10
2.306901684902705
 20
4.628690076017198
 30
0.0
 11
2.686901684902704
 21
4.628690076017198
 31
0.0
  0
LINE
  5
BA8
330
1F
100
AcDbEntity
  8
Object
100
AcDbLine
 10
2.686901684902704
 20
3.648690076017198
 30
0.0
 11
2.671901684902705
 21
3.644690076017197
 31
0.0
  0
LINE
  5
BA9
330
1F
100
AcDbEntity
  8
Object
100
AcDbLine
 10
2.671901684902705
 20
3.644690076017197
 30
0.0
 11
2.660901684902704
 21
3.633690076017197
 31
0.0
  0
LINE
  5
BAA
330
1F
100
AcDbEntity
  8
Object
100
AcDbLine
 10
2.660901684902704
 20
3.633690076017197
 30
0.0
 11
2.656901684902704
 21
3.618690076017197
 31
0.0
  0
LINE
  5
BAB
330
1F
100
AcDbEntity
  8
Object
100
AcDbLine
 10
3.316901684902704
 20
4.138690076017198
 30
0.0
 11
3.316901684902704
 21
4.318690076017198
 31
0.0
  0
LINE
  5
BAC
330
1F
100
AcDbEntity
  8
Object
100
AcDbLine
 10
3.346901684902704
 20
3.608690076017198
 30
0.0
 11
3.331901684902704
 21
3.612690076017197
 31
0.0
  0
LINE
  5
BAD
330
1F
100
AcDbEntity
  8
Object
100
AcDbLine
 10
3.331901684902704
 20
3.612690076017197
 30
0.0
 11
3.320901684902704
 21
3.623690076017197
 31
0.0
  0
LINE
  5
BAE
330
1F
100
AcDbEntity
  8
Object
100
AcDbLine
 10
3.320901684902704
 20
3.623690076017197
 30
0.0
 11
3.316901684902704
 21
3.638690076017197
 31
0.0
  0
LINE
  5
BAF
330
1F
100
AcDbEntity
  8
Object
100
AcDbLine
 10
2.716901684902705
 20
4.598690076017197
 30
0.0
 11
2.712901684902704
 21
4.613690076017197
 31
0.0
  0
LINE
  5
BB0
330
1F
100
AcDbEntity
  8
Object
100
AcDbLine
 10
2.712901684902704
 20
4.613690076017197
 30
0.0
 11
2.701901684902704
 21
4.624690076017198
 31
0.0
  0
LINE
  5
BB1
330
1F
100
AcDbEntity
  8
Object
100
AcDbLine
 10
2.701901684902704
 20
4.624690076017198
 30
0.0
 11
2.686901684902704
 21
4.628690076017198
 31
0.0
  0
LINE
  5
BB2
330
1F
100
AcDbEntity
  8
Object
100
AcDbLine
 10
3.616901684902704
 20
3.373690076017197
 30
0.0
 11
3.610901684902704
 21
3.334690076017198
 31
0.0
  0
LINE
  5
BB3
330
1F
100
AcDbEntity
  8
Object
100
AcDbLine
 10
3.610901684902704
 20
3.334690076017198
 30
0.0
 11
3.592901684902704
 21
3.299690076017197
 31
0.0
  0
LINE
  5
BB4
330
1F
100
AcDbEntity
  8
Object
100
AcDbLine
 10
3.592901684902704
 20
3.299690076017197
 30
0.0
 11
3.565901684902704
 21
3.272690076017197
 31
0.0
  0
LINE
  5
BB5
330
1F
100
AcDbEntity
  8
Object
100
AcDbLine
 10
3.565901684902704
 20
3.272690076017197
 30
0.0
 11
3.530901684902705
 21
3.254690076017197
 31
0.0
  0
LINE
  5
BB6
330
1F
100
AcDbEntity
  8
Object
100
AcDbLine
 10
3.530901684902705
 20
3.254690076017197
 30
0.0
 11
3.491901684902704
 21
3.248690076017197
 31
0.0
  0
LINE
  5
BB7
330
1F
100
AcDbEntity
  8
Object
100
AcDbLine
 10
3.346901684902704
 20
4.348690076017197
 30
0.0
 11
3.586901684902704
 21
4.348690076017197
 31
0.0
  0
LINE
  5
BB8
330
1F
100
AcDbEntity
  8
Object
100
AcDbLine
 10
3.616901684902704
 20
3.878690076017198
 30
0.0
 11
3.616901684902704
 21
4.078690076017197
 31
0.0
  0
LINE
  5
BB9
330
1F
100
AcDbEntity
  8
Object
100
AcDbLine
 10
2.781901684902704
 20
3.248690076017197
 30
0.0
 11
3.491901684902704
 21
3.248690076017197
 31
0.0
  0
LINE
  5
BBA
330
1F
100
AcDbEntity
  8
Object
100
AcDbLine
 10
3.616901684902704
 20
4.378690076017198
 30
0.0
 11
3.612901684902704
 21
4.363690076017197
 31
0.0
  0
LINE
  5
BBB
330
1F
100
AcDbEntity
  8
Object
100
AcDbLine
 10
3.612901684902704
 20
4.363690076017197
 30
0.0
 11
3.601901684902705
 21
4.352690076017197
 31
0.0
  0
LINE
  5
BBC
330
1F
100
AcDbEntity
  8
Object
100
AcDbLine
 10
3.601901684902705
 20
4.352690076017197
 30
0.0
 11
3.586901684902704
 21
4.348690076017197
 31
0.0
  0
LINE
  5
BBD
330
1F
100
AcDbEntity
  8
Object
100
AcDbLine
 10
1.994901684902704
 20
4.278690076017197
 30
0.0
 11
2.246901684902704
 21
4.278690076017197
 31
0.0
  0
LINE
  5
BBE
330
1F
100
AcDbEntity
  8
Object
100
AcDbLine
 10
2.306901684902705
 20
4.628690076017198
 30
0.0
 11
2.291901684902704
 21
4.624690076017198
 31
0.0
  0
LINE
  5
BBF
330
1F
100
AcDbEntity
  8
Object
100
AcDbLine
 10
2.291901684902704
 20
4.624690076017198
 30
0.0
 11
2.280901684902705
 21
4.613690076017197
 31
0.0
  0
LINE
  5
BC0
330
1F
100
AcDbEntity
  8
Object
100
AcDbLine
 10
2.280901684902705
 20
4.613690076017197
 30
0.0
 11
2.276901684902704
 21
4.598690076017197
 31
0.0
  0
LINE
  5
BC1
330
1F
100
AcDbEntity
  8
Object
100
AcDbLine
 10
2.716901684902705
 20
3.648690076017198
 30
0.0
 11
2.686901684902704
 21
3.648690076017198
 31
0.0
  0
LINE
  5
BC2
330
1F
100
AcDbEntity
  8
Object
100
AcDbLine
 10
3.616901684902704
 20
4.078690076017197
 30
0.0
 11
3.612901684902704
 21
4.093690076017198
 31
0.0
  0
LINE
  5
BC3
330
1F
100
AcDbEntity
  8
Object
100
AcDbLine
 10
3.612901684902704
 20
4.093690076017198
 30
0.0
 11
3.601901684902705
 21
4.104690076017197
 31
0.0
  0
LINE
  5
BC4
330
1F
100
AcDbEntity
  8
Object
100
AcDbLine
 10
3.601901684902705
 20
4.104690076017197
 30
0.0
 11
3.586901684902704
 21
4.108690076017198
 31
0.0
  0
LINE
  5
BC5
330
1F
100
AcDbEntity
  8
Object
100
AcDbLine
 10
2.781901684902704
 20
3.248690076017197
 30
0.0
 11
2.743901684902704
 21
3.254690076017197
 31
0.0
  0
LINE
  5
BC6
330
1F
100
AcDbEntity
  8
Object
100
AcDbLine
 10
2.743901684902704
 20
3.254690076017197
 30
0.0
 11
2.708901684902704
 21
3.272690076017197
 31
0.0
  0
LINE
  5
BC7
330
1F
100
AcDbEntity
  8
Object
100
AcDbLine
 10
2.708901684902704
 20
3.272690076017197
 30
0.0
 11
2.680901684902704
 21
3.299690076017197
 31
0.0
  0
LINE
  5
BC8
330
1F
100
AcDbEntity
  8
Object
100
AcDbLine
 10
2.680901684902704
 20
3.299690076017197
 30
0.0
 11
2.662901684902704
 21
3.334690076017198
 31
0.0
  0
LINE
  5
BC9
330
1F
100
AcDbEntity
  8
Object
100
AcDbLine
 10
2.662901684902704
 20
3.334690076017198
 30
0.0
 11
2.656901684902704
 21
3.373690076017197
 31
0.0
  0
LINE
  5
BCA
330
1F
100
AcDbEntity
  8
Object
100
AcDbLine
 10
3.616901684902704
 20
3.373690076017197
 30
0.0
 11
3.616901684902704
 21
3.578690076017197
 31
0.0
  0
LINE
  5
BCB
330
1F
100
AcDbEntity
  8
Object
100
AcDbLine
 10
2.656901684902704
 20
3.618690076017197
 30
0.0
 11
2.656901684902704
 21
3.373690076017197
 31
0.0
  0
LINE
  5
BCC
330
1F
100
AcDbEntity
  8
Object
100
AcDbLine
 10
3.586901684902704
 20
3.608690076017198
 30
0.0
 11
3.346901684902704
 21
3.608690076017198
 31
0.0
  0
LINE
  5
BCD
330
1F
100
AcDbEntity
  8
Object
100
AcDbLine
 10
2.276901684902704
 20
4.308690076017198
 30
0.0
 11
2.276901684902704
 21
4.598690076017197
 31
0.0
  0
LINE
  5
BCE
330
1F
100
AcDbEntity
  8
Object
100
AcDbLine
 10
3.646901684902704
 20
4.758690076017197
 30
0.0
 11
3.642901684902704
 21
4.773690076017198
 31
0.0
  0
LINE
  5
BCF
330
1F
100
AcDbEntity
  8
Object
100
AcDbLine
 10
3.642901684902704
 20
4.773690076017198
 30
0.0
 11
3.631901684902704
 21
4.784690076017197
 31
0.0
  0
LINE
  5
BD0
330
1F
100
AcDbEntity
  8
Object
100
AcDbLine
 10
3.631901684902704
 20
4.784690076017197
 30
0.0
 11
3.616901684902704
 21
4.788690076017197
 31
0.0
  0
LINE
  5
BD1
330
1F
100
AcDbEntity
  8
Object
100
AcDbLine
 10
3.766901684902704
 20
4.758690076017197
 30
0.0
 11
3.759901684902704
 21
4.805690076017198
 31
0.0
  0
LINE
  5
BD2
330
1F
100
AcDbEntity
  8
Object
100
AcDbLine
 10
3.759901684902704
 20
4.805690076017198
 30
0.0
 11
3.738901684902704
 21
4.846690076017198
 31
0.0
  0
LINE
  5
BD3
330
1F
100
AcDbEntity
  8
Object
100
AcDbLine
 10
3.738901684902704
 20
4.846690076017198
 30
0.0
 11
3.705901684902704
 21
4.880690076017197
 31
0.0
  0
LINE
  5
BD4
330
1F
100
AcDbEntity
  8
Object
100
AcDbLine
 10
3.705901684902704
 20
4.880690076017197
 30
0.0
 11
3.663901684902704
 21
4.901690076017198
 31
0.0
  0
LINE
  5
BD5
330
1F
100
AcDbEntity
  8
Object
100
AcDbLine
 10
3.663901684902704
 20
4.901690076017198
 30
0.0
 11
3.616901684902704
 21
4.908690076017197
 31
0.0
  0
LINE
  5
BD6
330
1F
100
AcDbEntity
  8
Object
100
AcDbLine
 10
3.766901684902704
 20
4.758690076017197
 30
0.0
 11
3.759901684902704
 21
4.805690076017198
 31
0.0
  0
LINE
  5
BD7
330
1F
100
AcDbEntity
  8
Object
100
AcDbLine
 10
3.642901684902704
 20
4.773690076017198
 30
0.0
 11
3.646901684902704
 21
4.758690076017197
 31
0.0
  0
LINE
  5
BD8
330
1F
100
AcDbEntity
  8
Object
100
AcDbLine
 10
3.759901684902704
 20
4.805690076017198
 30
0.0
 11
3.738901684902704
 21
4.846690076017198
 31
0.0
  0
LINE
  5
BD9
330
1F
100
AcDbEntity
  8
Object
100
AcDbLine
 10
3.663901684902704
 20
4.901690076017198
 30
0.0
 11
3.705901684902704
 21
4.880690076017197
 31
0.0
  0
LINE
  5
BDA
330
1F
100
AcDbEntity
  8
Object
100
AcDbLine
 10
3.705901684902704
 20
4.880690076017197
 30
0.0
 11
3.738901684902704
 21
4.846690076017198
 31
0.0
  0
LINE
  5
BDB
330
1F
100
AcDbEntity
  8
Object
100
AcDbLine
 10
3.642901684902704
 20
4.773690076017198
 30
0.0
 11
3.631901684902704
 21
4.784690076017197
 31
0.0
  0
LINE
  5
BDC
330
1F
100
AcDbEntity
  8
Object
100
AcDbLine
 10
3.631901684902704
 20
4.784690076017197
 30
0.0
 11
3.616901684902704
 21
4.788690076017197
 31
0.0
  0
LINE
  5
BDD
330
1F
100
AcDbEntity
  8
Object
100
AcDbLine
 10
3.663901684902704
 20
4.901690076017198
 30
0.0
 11
3.616901684902704
 21
4.908690076017197
 31
0.0
  0
LINE
  5
BDE
330
1F
100
AcDbEntity
  8
Object
100
AcDbLine
 10
3.646901684902704
 20
4.758690076017197
 30
0.0
 11
3.646901684902704
 21
4.253690076017198
 31
0.0
  0
LINE
  5
BDF
330
1F
100
AcDbEntity
  8
Object
100
AcDbLine
 10
3.646901684902704
 20
4.253690076017198
 30
0.0
 11
3.646901684902704
 21
4.214690076017197
 31
0.0
  0
LINE
  5
BE0
330
1F
100
AcDbEntity
  8
Object
100
AcDbLine
 10
3.646901684902704
 20
4.214690076017197
 30
0.0
 11
3.646901684902704
 21
4.180690076017198
 31
0.0
  0
LINE
  5
BE1
330
1F
100
AcDbEntity
  8
Object
100
AcDbLine
 10
3.646901684902704
 20
4.180690076017198
 30
0.0
 11
3.646901684902704
 21
4.152690076017197
 31
0.0
  0
LINE
  5
BE2
330
1F
100
AcDbEntity
  8
Object
100
AcDbLine
 10
3.646901684902704
 20
4.152690076017197
 30
0.0
 11
3.646901684902704
 21
4.134690076017197
 31
0.0
  0
LINE
  5
BE3
330
1F
100
AcDbEntity
  8
Object
100
AcDbLine
 10
3.646901684902704
 20
4.134690076017197
 30
0.0
 11
3.646901684902704
 21
4.128690076017198
 31
0.0
  0
LINE
  5
BE4
330
1F
100
AcDbEntity
  8
Object
100
AcDbLine
 10
3.766901684902704
 20
4.152690076017197
 30
0.0
 11
3.766901684902704
 21
4.134690076017197
 31
0.0
  0
LINE
  5
BE5
330
1F
100
AcDbEntity
  8
Object
100
AcDbLine
 10
3.766901684902704
 20
4.134690076017197
 30
0.0
 11
3.766901684902704
 21
4.128690076017198
 31
0.0
  0
LINE
  5
BE6
330
1F
100
AcDbEntity
  8
Object
100
AcDbLine
 10
3.766901684902704
 20
4.152690076017197
 30
0.0
 11
3.766901684902704
 21
4.180690076017198
 31
0.0
  0
LINE
  5
BE7
330
1F
100
AcDbEntity
  8
Object
100
AcDbLine
 10
3.766901684902704
 20
4.180690076017198
 30
0.0
 11
3.766901684902704
 21
4.214690076017197
 31
0.0
  0
LINE
  5
BE8
330
1F
100
AcDbEntity
  8
Object
100
AcDbLine
 10
3.766901684902704
 20
4.214690076017197
 30
0.0
 11
3.766901684902704
 21
4.253690076017198
 31
0.0
  0
LINE
  5
BE9
330
1F
100
AcDbEntity
  8
Object
100
AcDbLine
 10
3.766901684902704
 20
4.253690076017198
 30
0.0
 11
3.766901684902704
 21
4.758690076017197
 31
0.0
  0
LINE
  5
BEA
330
1F
100
AcDbEntity
  8
Object
100
AcDbLine
 10
3.766901684902704
 20
4.758690076017197
 30
0.0
 11
3.646901684902704
 21
4.758690076017197
 31
0.0
  0
LINE
  5
BEB
330
1F
100
AcDbEntity
  8
Object
100
AcDbLine
 10
3.766901684902704
 20
4.253690076017198
 30
0.0
 11
3.766901684902704
 21
4.758690076017197
 31
0.0
  0
LINE
  5
BEC
330
1F
100
AcDbEntity
  8
Object
100
AcDbLine
 10
3.646901684902704
 20
4.758690076017197
 30
0.0
 11
3.646901684902704
 21
4.253690076017198
 31
0.0
  0
LINE
  5
BED
330
1F
100
AcDbEntity
  8
Object
100
AcDbLine
 10
3.646901684902704
 20
4.214690076017197
 30
0.0
 11
3.646901684902704
 21
4.180690076017198
 31
0.0
  0
LINE
  5
BEE
330
1F
100
AcDbEntity
  8
Object
100
AcDbLine
 10
3.766901684902704
 20
4.180690076017198
 30
0.0
 11
3.766901684902704
 21
4.214690076017197
 31
0.0
  0
LINE
  5
BEF
330
1F
100
AcDbEntity
  8
Object
100
AcDbLine
 10
3.646901684902704
 20
4.152690076017197
 30
0.0
 11
3.646901684902704
 21
4.134690076017197
 31
0.0
  0
LINE
  5
BF0
330
1F
100
AcDbEntity
  8
Object
100
AcDbLine
 10
3.766901684902704
 20
4.152690076017197
 30
0.0
 11
3.766901684902704
 21
4.134690076017197
 31
0.0
  0
LINE
  5
BF1
330
1F
100
AcDbEntity
  8
Object
100
AcDbLine
 10
3.766901684902704
 20
4.134690076017197
 30
0.0
 11
3.766901684902704
 21
4.128690076017198
 31
0.0
  0
LINE
  5
BF2
330
1F
100
AcDbEntity
  8
Object
100
AcDbLine
 10
3.766901684902704
 20
4.128690076017198
 30
0.0
 11
3.646901684902704
 21
4.128690076017198
 31
0.0
  0
LINE
  5
BF3
330
1F
100
AcDbEntity
  8
Object
100
AcDbLine
 10
3.646901684902704
 20
4.128690076017198
 30
0.0
 11
3.646901684902704
 21
4.134690076017197
 31
0.0
  0
LINE
  5
BF4
330
1F
100
AcDbEntity
  8
Object
100
AcDbLine
 10
3.766901684902704
 20
4.152690076017197
 30
0.0
 11
3.766901684902704
 21
4.180690076017198
 31
0.0
  0
LINE
  5
BF5
330
1F
100
AcDbEntity
  8
Object
100
AcDbLine
 10
3.646901684902704
 20
4.180690076017198
 30
0.0
 11
3.646901684902704
 21
4.152690076017197
 31
0.0
  0
LINE
  5
BF6
330
1F
100
AcDbEntity
  8
Object
100
AcDbLine
 10
3.766901684902704
 20
4.214690076017197
 30
0.0
 11
3.766901684902704
 21
4.253690076017198
 31
0.0
  0
LINE
  5
BF7
330
1F
100
AcDbEntity
  8
Object
100
AcDbLine
 10
3.646901684902704
 20
4.214690076017197
 30
0.0
 11
3.646901684902704
 21
4.253690076017198
 31
0.0
  0
LINE
  5
BF8
330
1F
100
AcDbEntity
  8
Object
100
AcDbLine
 10
3.646901684902704
 20
4.253690076017198
 30
0.0
 11
3.766901684902704
 21
4.253690076017198
 31
0.0
  0
LINE
  5
BF9
330
1F
100
AcDbEntity
  8
Object
100
AcDbLine
 10
3.646901684902704
 20
4.128690076017198
 30
0.0
 11
3.766901684902704
 21
4.128690076017198
 31
0.0
  0
LINE
  5
BFA
330
1F
100
AcDbEntity
  8
Object
100
AcDbLine
 10
3.616901684902704
 20
8.117887631876234
 30
0.0
 11
1.964901684902704
 21
8.117887631876234
 31
0.0
  0
LINE
  5
BFB
330
1F
100
AcDbEntity
  8
Object
100
AcDbLine
 10
3.372901684902704
 20
8.117887631876234
 30
0.0
 11
3.381901684902704
 21
8.117887631876234
 31
0.0
  0
LINE
  5
BFC
330
1F
100
AcDbEntity
  8
Object
100
AcDbLine
 10
1.964901684902704
 20
8.109887631876233
 30
0.0
 11
1.964901684902704
 21
8.088887631876234
 31
0.0
  0
LINE
  5
BFD
330
1F
100
AcDbEntity
  8
Object
100
AcDbLine
 10
1.964901684902704
 20
8.088887631876234
 30
0.0
 11
1.964901684902704
 21
8.055887631876235
 31
0.0
  0
LINE
  5
BFE
330
1F
100
AcDbEntity
  8
Object
100
AcDbLine
 10
1.964901684902704
 20
8.013887631876233
 30
0.0
 11
1.964901684902704
 21
7.967887631876234
 31
0.0
  0
LINE
  5
BFF
330
1F
100
AcDbEntity
  8
Object
100
AcDbLine
 10
1.964901684902704
 20
7.967887631876234
 30
0.0
 11
1.964901684902704
 21
6.567887631876234
 31
0.0
  0
LINE
  5
C00
330
1F
100
AcDbEntity
  8
Object
100
AcDbLine
 10
1.964901684902704
 20
6.520887631876234
 30
0.0
 11
1.964901684902704
 21
6.478887631876234
 31
0.0
  0
LINE
  5
C01
330
1F
100
AcDbEntity
  8
Object
100
AcDbLine
 10
1.964901684902704
 20
6.478887631876234
 30
0.0
 11
1.964901684902704
 21
6.445887631876234
 31
0.0
  0
LINE
  5
C02
330
1F
100
AcDbEntity
  8
Object
100
AcDbLine
 10
1.964901684902704
 20
6.417887631876234
 30
0.0
 11
1.964901684902704
 21
6.424887631876234
 31
0.0
  0
LINE
  5
C03
330
1F
100
AcDbEntity
  8
Object
100
AcDbLine
 10
1.964901684902704
 20
6.424887631876234
 30
0.0
 11
1.964901684902704
 21
6.445887631876234
 31
0.0
  0
LINE
  5
C04
330
1F
100
AcDbEntity
  8
Object
100
AcDbLine
 10
1.964901684902704
 20
6.567887631876234
 30
0.0
 11
1.964901684902704
 21
6.520887631876234
 31
0.0
  0
LINE
  5
C05
330
1F
100
AcDbEntity
  8
Object
100
AcDbLine
 10
1.964901684902704
 20
8.055887631876235
 30
0.0
 11
1.964901684902704
 21
8.013887631876233
 31
0.0
  0
LINE
  5
C06
330
1F
100
AcDbEntity
  8
Object
100
AcDbLine
 10
1.964901684902704
 20
8.117887631876234
 30
0.0
 11
1.964901684902704
 21
8.109887631876233
 31
0.0
  0
LINE
  5
C07
330
1F
100
AcDbEntity
  8
Object
100
AcDbLine
 10
3.616901684902704
 20
8.013887631876233
 30
0.0
 11
3.616901684902704
 21
8.055887631876235
 31
0.0
  0
LINE
  5
C08
330
1F
100
AcDbEntity
  8
Object
100
AcDbLine
 10
1.964901684902704
 20
8.088887631876234
 30
0.0
 11
1.964901684902704
 21
8.055887631876235
 31
0.0
  0
LINE
  5
C09
330
1F
100
AcDbEntity
  8
Object
100
AcDbLine
 10
3.616901684902704
 20
8.088887631876234
 30
0.0
 11
3.616901684902704
 21
8.109887631876233
 31
0.0
  0
LINE
  5
C0A
330
1F
100
AcDbEntity
  8
Object
100
AcDbLine
 10
1.964901684902704
 20
8.109887631876233
 30
0.0
 11
1.964901684902704
 21
8.117887631876234
 31
0.0
  0
LINE
  5
C0B
330
1F
100
AcDbEntity
  8
Object
100
AcDbLine
 10
1.964901684902704
 20
8.117887631876234
 30
0.0
 11
3.616901684902704
 21
8.117887631876234
 31
0.0
  0
LINE
  5
C0C
330
1F
100
AcDbEntity
  8
Object
100
AcDbLine
 10
3.616901684902704
 20
8.117887631876234
 30
0.0
 11
3.616901684902704
 21
8.109887631876233
 31
0.0
  0
LINE
  5
C0D
330
1F
100
AcDbEntity
  8
Object
100
AcDbLine
 10
1.964901684902704
 20
8.109887631876233
 30
0.0
 11
1.964901684902704
 21
8.088887631876234
 31
0.0
  0
LINE
  5
C0E
330
1F
100
AcDbEntity
  8
Object
100
AcDbLine
 10
3.616901684902704
 20
8.055887631876235
 30
0.0
 11
3.616901684902704
 21
8.088887631876234
 31
0.0
  0
LINE
  5
C0F
330
1F
100
AcDbEntity
  8
Object
100
AcDbLine
 10
1.964901684902704
 20
8.055887631876235
 30
0.0
 11
1.964901684902704
 21
8.013887631876233
 31
0.0
  0
LINE
  5
C10
330
1F
100
AcDbEntity
  8
Object
100
AcDbLine
 10
3.616901684902704
 20
7.967887631876234
 30
0.0
 11
3.616901684902704
 21
8.013887631876233
 31
0.0
  0
LINE
  5
C11
330
1F
100
AcDbEntity
  8
Object
100
AcDbLine
 10
1.964901684902704
 20
8.013887631876233
 30
0.0
 11
1.964901684902704
 21
7.967887631876234
 31
0.0
  0
LINE
  5
C12
330
1F
100
AcDbEntity
  8
Object
100
AcDbLine
 10
3.616901684902704
 20
8.055887631876235
 30
0.0
 11
3.616901684902704
 21
8.088887631876234
 31
0.0
  0
LINE
  5
C13
330
1F
100
AcDbEntity
  8
Object
100
AcDbLine
 10
3.616901684902704
 20
8.088887631876234
 30
0.0
 11
3.616901684902704
 21
8.109887631876233
 31
0.0
  0
LINE
  5
C14
330
1F
100
AcDbEntity
  8
Object
100
AcDbLine
 10
3.616901684902704
 20
8.109887631876233
 30
0.0
 11
3.616901684902704
 21
8.117887631876234
 31
0.0
  0
LINE
  5
C15
330
1F
100
AcDbEntity
  8
Object
100
AcDbLine
 10
3.616901684902704
 20
8.055887631876235
 30
0.0
 11
3.616901684902704
 21
8.013887631876233
 31
0.0
  0
LINE
  5
C16
330
1F
100
AcDbEntity
  8
Object
100
AcDbLine
 10
3.616901684902704
 20
8.013887631876233
 30
0.0
 11
3.616901684902704
 21
7.967887631876234
 31
0.0
  0
LINE
  5
C17
330
1F
100
AcDbEntity
  8
Object
100
AcDbLine
 10
1.964901684902704
 20
6.520887631876234
 30
0.0
 11
1.964901684902704
 21
6.478887631876234
 31
0.0
  0
LINE
  5
C18
330
1F
100
AcDbEntity
  8
Object
100
AcDbLine
 10
3.616901684902704
 20
6.445887631876234
 30
0.0
 11
3.616901684902704
 21
6.478887631876234
 31
0.0
  0
LINE
  5
C19
330
1F
100
AcDbEntity
  8
Object
100
AcDbLine
 10
1.964901684902704
 20
6.445887631876234
 30
0.0
 11
1.964901684902704
 21
6.424887631876234
 31
0.0
  0
LINE
  5
C1A
330
1F
100
AcDbEntity
  8
Object
100
AcDbLine
 10
3.616901684902704
 20
6.424887631876234
 30
0.0
 11
3.616901684902704
 21
6.417887631876234
 31
0.0
  0
LINE
  5
C1B
330
1F
100
AcDbEntity
  8
Object
100
AcDbLine
 10
3.616901684902704
 20
6.417887631876234
 30
0.0
 11
1.964901684902704
 21
6.417887631876234
 31
0.0
  0
LINE
  5
C1C
330
1F
100
AcDbEntity
  8
Object
100
AcDbLine
 10
1.964901684902704
 20
6.417887631876234
 30
0.0
 11
1.964901684902704
 21
6.424887631876234
 31
0.0
  0
LINE
  5
C1D
330
1F
100
AcDbEntity
  8
Object
100
AcDbLine
 10
3.616901684902704
 20
6.424887631876234
 30
0.0
 11
3.616901684902704
 21
6.445887631876234
 31
0.0
  0
LINE
  5
C1E
330
1F
100
AcDbEntity
  8
Object
100
AcDbLine
 10
1.964901684902704
 20
6.478887631876234
 30
0.0
 11
1.964901684902704
 21
6.445887631876234
 31
0.0
  0
LINE
  5
C1F
330
1F
100
AcDbEntity
  8
Object
100
AcDbLine
 10
3.616901684902704
 20
6.478887631876234
 30
0.0
 11
3.616901684902704
 21
6.520887631876234
 31
0.0
  0
LINE
  5
C20
330
1F
100
AcDbEntity
  8
Object
100
AcDbLine
 10
1.964901684902704
 20
6.520887631876234
 30
0.0
 11
1.964901684902704
 21
6.567887631876234
 31
0.0
  0
LINE
  5
C21
330
1F
100
AcDbEntity
  8
Object
100
AcDbLine
 10
1.964901684902704
 20
6.567887631876234
 30
0.0
 11
3.616901684902704
 21
6.567887631876234
 31
0.0
  0
LINE
  5
C22
330
1F
100
AcDbEntity
  8
Object
100
AcDbLine
 10
3.616901684902704
 20
6.567887631876234
 30
0.0
 11
3.616901684902704
 21
6.520887631876234
 31
0.0
  0
LINE
  5
C23
330
1F
100
AcDbEntity
  8
Object
100
AcDbLine
 10
1.964901684902704
 20
6.417887631876234
 30
0.0
 11
3.616901684902704
 21
6.417887631876234
 31
0.0
  0
LINE
  5
C24
330
1F
100
AcDbEntity
  8
Object
100
AcDbLine
 10
3.616901684902704
 20
6.567887631876234
 30
0.0
 11
3.616901684902704
 21
7.967887631876234
 31
0.0
  0
LINE
  5
C25
330
1F
100
AcDbEntity
  8
Object
100
AcDbLine
 10
3.319901684902704
 20
7.260887631876234
 30
0.0
 11
3.326901684902704
 21
7.192887631876234
 31
0.0
  0
LINE
  5
C26
330
1F
100
AcDbEntity
  8
Object
100
AcDbLine
 10
3.326901684902704
 20
7.192887631876234
 30
0.0
 11
3.319901684902704
 21
7.123887631876234
 31
0.0
  0
LINE
  5
C27
330
1F
100
AcDbEntity
  8
Object
100
AcDbLine
 10
3.298901684902704
 20
7.326887631876234
 30
0.0
 11
3.319901684902704
 21
7.260887631876234
 31
0.0
  0
LINE
  5
C28
330
1F
100
AcDbEntity
  8
Object
100
AcDbLine
 10
3.319901684902704
 20
7.123887631876234
 30
0.0
 11
3.298901684902704
 21
7.057887631876234
 31
0.0
  0
LINE
  5
C29
330
1F
100
AcDbEntity
  8
Object
100
AcDbLine
 10
3.263901684902704
 20
7.386887631876234
 30
0.0
 11
3.298901684902704
 21
7.326887631876234
 31
0.0
  0
LINE
  5
C2A
330
1F
100
AcDbEntity
  8
Object
100
AcDbLine
 10
3.298901684902704
 20
7.057887631876234
 30
0.0
 11
3.263901684902704
 21
6.998887631876234
 31
0.0
  0
LINE
  5
C2B
330
1F
100
AcDbEntity
  8
Object
100
AcDbLine
 10
3.217901684902704
 20
7.437887631876234
 30
0.0
 11
3.263901684902704
 21
7.386887631876234
 31
0.0
  0
LINE
  5
C2C
330
1F
100
AcDbEntity
  8
Object
100
AcDbLine
 10
3.263901684902704
 20
6.998887631876234
 30
0.0
 11
3.217901684902704
 21
6.946887631876234
 31
0.0
  0
LINE
  5
C2D
330
1F
100
AcDbEntity
  8
Object
100
AcDbLine
 10
3.161901684902704
 20
7.477887631876234
 30
0.0
 11
3.217901684902704
 21
7.437887631876234
 31
0.0
  0
LINE
  5
C2E
330
1F
100
AcDbEntity
  8
Object
100
AcDbLine
 10
3.217901684902704
 20
6.946887631876234
 30
0.0
 11
3.161901684902704
 21
6.906887631876234
 31
0.0
  0
LINE
  5
C2F
330
1F
100
AcDbEntity
  8
Object
100
AcDbLine
 10
3.098901684902704
 20
7.505887631876234
 30
0.0
 11
3.161901684902704
 21
7.477887631876234
 31
0.0
  0
LINE
  5
C30
330
1F
100
AcDbEntity
  8
Object
100
AcDbLine
 10
3.161901684902704
 20
6.906887631876234
 30
0.0
 11
3.098901684902704
 21
6.878887631876234
 31
0.0
  0
LINE
  5
C31
330
1F
100
AcDbEntity
  8
Object
100
AcDbLine
 10
3.031901684902704
 20
7.520887631876234
 30
0.0
 11
3.098901684902704
 21
7.505887631876234
 31
0.0
  0
LINE
  5
C32
330
1F
100
AcDbEntity
  8
Object
100
AcDbLine
 10
3.098901684902704
 20
6.878887631876234
 30
0.0
 11
3.031901684902704
 21
6.863887631876234
 31
0.0
  0
LINE
  5
C33
330
1F
100
AcDbEntity
  8
Object
100
AcDbLine
 10
2.962901684902704
 20
7.520887631876234
 30
0.0
 11
3.031901684902704
 21
7.520887631876234
 31
0.0
  0
LINE
  5
C34
330
1F
100
AcDbEntity
  8
Object
100
AcDbLine
 10
3.031901684902704
 20
6.863887631876234
 30
0.0
 11
2.962901684902704
 21
6.863887631876234
 31
0.0
  0
LINE
  5
C35
330
1F
100
AcDbEntity
  8
Object
100
AcDbLine
 10
2.209901684902704
 20
7.359887631876234
 30
0.0
 11
2.209901684902704
 21
7.327887631876234
 31
0.0
  0
LINE
  5
C36
330
1F
100
AcDbEntity
  8
Object
100
AcDbLine
 10
2.831901684902704
 20
7.477887631876234
 30
0.0
 11
2.775901684902704
 21
7.437887631876234
 31
0.0
  0
LINE
  5
C37
330
1F
100
AcDbEntity
  8
Object
100
AcDbLine
 10
2.775901684902704
 20
7.437887631876234
 30
0.0
 11
2.729901684902704
 21
7.386887631876234
 31
0.0
  0
LINE
  5
C38
330
1F
100
AcDbEntity
  8
Object
100
AcDbLine
 10
2.729901684902704
 20
7.386887631876234
 30
0.0
 11
2.695901684902703
 21
7.326887631876234
 31
0.0
  0
LINE
  5
C39
330
1F
100
AcDbEntity
  8
Object
100
AcDbLine
 10
2.695901684902703
 20
7.326887631876234
 30
0.0
 11
2.673901684902704
 21
7.260887631876234
 31
0.0
  0
LINE
  5
C3A
330
1F
100
AcDbEntity
  8
Object
100
AcDbLine
 10
2.209901684902704
 20
7.479887631876234
 30
0.0
 11
2.209901684902704
 21
7.451887631876234
 31
0.0
  0
LINE
  5
C3B
330
1F
100
AcDbEntity
  8
Object
100
AcDbLine
 10
2.209901684902704
 20
7.417887631876234
 30
0.0
 11
2.209901684902704
 21
7.392887631876234
 31
0.0
  0
LINE
  5
C3C
330
1F
100
AcDbEntity
  8
Object
100
AcDbLine
 10
2.209901684902704
 20
7.278887631876234
 30
0.0
 11
2.209901684902704
 21
7.226887631876234
 31
0.0
  0
LINE
  5
C3D
330
1F
100
AcDbEntity
  8
Object
100
AcDbLine
 10
2.209901684902704
 20
7.078887631876234
 30
0.0
 11
2.209901684902704
 21
7.051887631876234
 31
0.0
  0
LINE
  5
C3E
330
1F
100
AcDbEntity
  8
Object
100
AcDbLine
 10
2.209901684902704
 20
7.166887631876234
 30
0.0
 11
2.209901684902704
 21
7.125887631876234
 31
0.0
  0
LINE
  5
C3F
330
1F
100
AcDbEntity
  8
Object
100
AcDbLine
 10
2.209901684902704
 20
7.210887631876234
 30
0.0
 11
2.209901684902704
 21
7.183887631876234
 31
0.0
  0
LINE
  5
C40
330
1F
100
AcDbEntity
  8
Object
100
AcDbLine
 10
2.673901684902704
 20
7.123887631876234
 30
0.0
 11
2.666901684902704
 21
7.192887631876234
 31
0.0
  0
LINE
  5
C41
330
1F
100
AcDbEntity
  8
Object
100
AcDbLine
 10
2.666901684902704
 20
7.192887631876234
 30
0.0
 11
2.673901684902704
 21
7.260887631876234
 31
0.0
  0
LINE
  5
C42
330
1F
100
AcDbEntity
  8
Object
100
AcDbLine
 10
2.729901684902704
 20
6.998887631876234
 30
0.0
 11
2.695901684902703
 21
7.057887631876234
 31
0.0
  0
LINE
  5
C43
330
1F
100
AcDbEntity
  8
Object
100
AcDbLine
 10
2.209901684902704
 20
7.020887631876234
 30
0.0
 11
2.209901684902704
 21
6.967887631876234
 31
0.0
  0
LINE
  5
C44
330
1F
100
AcDbEntity
  8
Object
100
AcDbLine
 10
2.695901684902703
 20
7.057887631876234
 30
0.0
 11
2.673901684902704
 21
7.123887631876234
 31
0.0
  0
LINE
  5
C45
330
1F
100
AcDbEntity
  8
Object
100
AcDbLine
 10
2.775901684902704
 20
6.946887631876234
 30
0.0
 11
2.729901684902704
 21
6.998887631876234
 31
0.0
  0
LINE
  5
C46
330
1F
100
AcDbEntity
  8
Object
100
AcDbLine
 10
2.207901684902703
 20
7.368887631876234
 30
0.0
 11
2.209901684902704
 21
7.359887631876234
 31
0.0
  0
LINE
  5
C47
330
1F
100
AcDbEntity
  8
Object
100
AcDbLine
 10
2.207901684902703
 20
7.286887631876235
 30
0.0
 11
2.209901684902704
 21
7.278887631876234
 31
0.0
  0
LINE
  5
C48
330
1F
100
AcDbEntity
  8
Object
100
AcDbLine
 10
2.209901684902704
 20
7.327887631876234
 30
0.0
 11
2.207901684902703
 21
7.319887631876234
 31
0.0
  0
LINE
  5
C49
330
1F
100
AcDbEntity
  8
Object
100
AcDbLine
 10
2.207901684902703
 20
7.319887631876234
 30
0.0
 11
2.201901684902704
 21
7.313887631876234
 31
0.0
  0
LINE
  5
C4A
330
1F
100
AcDbEntity
  8
Object
100
AcDbLine
 10
2.201901684902704
 20
7.292887631876234
 30
0.0
 11
2.207901684902703
 21
7.286887631876235
 31
0.0
  0
LINE
  5
C4B
330
1F
100
AcDbEntity
  8
Object
100
AcDbLine
 10
2.201901684902704
 20
7.374887631876234
 30
0.0
 11
2.207901684902703
 21
7.368887631876234
 31
0.0
  0
LINE
  5
C4C
330
1F
100
AcDbEntity
  8
Object
100
AcDbLine
 10
2.209901684902704
 20
7.125887631876234
 30
0.0
 11
2.196901684902703
 21
7.118887631876234
 31
0.0
  0
LINE
  5
C4D
330
1F
100
AcDbEntity
  8
Object
100
AcDbLine
 10
2.209901684902704
 20
7.078887631876234
 30
0.0
 11
2.196901684902703
 21
7.083887631876234
 31
0.0
  0
LINE
  5
C4E
330
1F
100
AcDbEntity
  8
Object
100
AcDbLine
 10
2.196901684902703
 20
7.083887631876234
 30
0.0
 11
2.196901684902703
 21
7.118887631876234
 31
0.0
  0
LINE
  5
C4F
330
1F
100
AcDbEntity
  8
Object
100
AcDbLine
 10
2.193901684902704
 20
7.294887631876234
 30
0.0
 11
2.201901684902704
 21
7.292887631876234
 31
0.0
  0
LINE
  5
C50
330
1F
100
AcDbEntity
  8
Object
100
AcDbLine
 10
2.193901684902704
 20
7.376887631876234
 30
0.0
 11
2.201901684902704
 21
7.374887631876234
 31
0.0
  0
LINE
  5
C51
330
1F
100
AcDbEntity
  8
Object
100
AcDbLine
 10
2.201901684902704
 20
7.313887631876234
 30
0.0
 11
2.193901684902704
 21
7.310887631876234
 31
0.0
  0
LINE
  5
C52
330
1F
100
AcDbEntity
  8
Object
100
AcDbLine
 10
2.188901684902703
 20
7.352887631876234
 30
0.0
 11
2.188901684902703
 21
7.354887631876234
 31
0.0
  0
LINE
  5
C53
330
1F
100
AcDbEntity
  8
Object
100
AcDbLine
 10
2.183901684902703
 20
7.357887631876234
 30
0.0
 11
2.186901684902704
 21
7.356887631876234
 31
0.0
  0
LINE
  5
C54
330
1F
100
AcDbEntity
  8
Object
100
AcDbLine
 10
2.186901684902704
 20
7.356887631876234
 30
0.0
 11
2.188901684902703
 21
7.354887631876234
 31
0.0
  0
LINE
  5
C55
330
1F
100
AcDbEntity
  8
Object
100
AcDbLine
 10
2.188901684902703
 20
7.352887631876234
 30
0.0
 11
2.188901684902703
 21
7.345887631876234
 31
0.0
  0
LINE
  5
C56
330
1F
100
AcDbEntity
  8
Object
100
AcDbLine
 10
2.188901684902703
 20
7.345887631876234
 30
0.0
 11
2.188901684902703
 21
7.343887631876234
 31
0.0
  0
LINE
  5
C57
330
1F
100
AcDbEntity
  8
Object
100
AcDbLine
 10
2.188901684902703
 20
7.343887631876234
 30
0.0
 11
2.186901684902704
 21
7.341887631876234
 31
0.0
  0
LINE
  5
C58
330
1F
100
AcDbEntity
  8
Object
100
AcDbLine
 10
2.186901684902704
 20
7.341887631876234
 30
0.0
 11
2.183901684902703
 21
7.341887631876234
 31
0.0
  0
LINE
  5
C59
330
1F
100
AcDbEntity
  8
Object
100
AcDbLine
 10
2.209901684902704
 20
7.020887631876234
 30
0.0
 11
2.172901684902703
 21
7.020887631876234
 31
0.0
  0
LINE
  5
C5A
330
1F
100
AcDbEntity
  8
Object
100
AcDbLine
 10
2.172901684902703
 20
7.020887631876234
 30
0.0
 11
2.172901684902703
 21
7.050887631876234
 31
0.0
  0
LINE
  5
C5B
330
1F
100
AcDbEntity
  8
Object
100
AcDbLine
 10
2.172901684902703
 20
7.050887631876234
 30
0.0
 11
2.171901684902704
 21
7.056887631876234
 31
0.0
  0
LINE
  5
C5C
330
1F
100
AcDbEntity
  8
Object
100
AcDbLine
 10
2.209901684902704
 20
7.166887631876234
 30
0.0
 11
2.170901684902704
 21
7.166887631876234
 31
0.0
  0
LINE
  5
C5D
330
1F
100
AcDbEntity
  8
Object
100
AcDbLine
 10
2.170901684902704
 20
7.166887631876234
 30
0.0
 11
2.209901684902704
 21
7.183887631876234
 31
0.0
  0
LINE
  5
C5E
330
1F
100
AcDbEntity
  8
Object
100
AcDbLine
 10
2.171901684902704
 20
7.056887631876234
 30
0.0
 11
2.170901684902704
 21
7.062887631876234
 31
0.0
  0
LINE
  5
C5F
330
1F
100
AcDbEntity
  8
Object
100
AcDbLine
 10
2.170901684902704
 20
7.062887631876234
 30
0.0
 11
2.168901684902704
 21
7.068887631876234
 31
0.0
  0
LINE
  5
C60
330
1F
100
AcDbEntity
  8
Object
100
AcDbLine
 10
2.168901684902704
 20
7.068887631876234
 30
0.0
 11
2.209901684902704
 21
7.051887631876234
 31
0.0
  0
LINE
  5
C61
330
1F
100
AcDbEntity
  8
Object
100
AcDbLine
 10
2.136901684902704
 20
7.433887631876234
 30
0.0
 11
2.136901684902704
 21
7.451887631876234
 31
0.0
  0
LINE
  5
C62
330
1F
100
AcDbEntity
  8
Object
100
AcDbLine
 10
2.136901684902704
 20
7.451887631876234
 30
0.0
 11
2.209901684902704
 21
7.451887631876234
 31
0.0
  0
LINE
  5
C63
330
1F
100
AcDbEntity
  8
Object
100
AcDbLine
 10
2.209901684902704
 20
7.479887631876234
 30
0.0
 11
2.136901684902704
 21
7.479887631876234
 31
0.0
  0
LINE
  5
C64
330
1F
100
AcDbEntity
  8
Object
100
AcDbLine
 10
2.136901684902704
 20
7.479887631876234
 30
0.0
 11
2.136901684902704
 21
7.501887631876234
 31
0.0
  0
LINE
  5
C65
330
1F
100
AcDbEntity
  8
Object
100
AcDbLine
 10
2.193901684902704
 20
7.294887631876234
 30
0.0
 11
2.134901684902704
 21
7.294887631876234
 31
0.0
  0
LINE
  5
C66
330
1F
100
AcDbEntity
  8
Object
100
AcDbLine
 10
2.134901684902704
 20
7.294887631876234
 30
0.0
 11
2.126901684902704
 21
7.292887631876234
 31
0.0
  0
LINE
  5
C67
330
1F
100
AcDbEntity
  8
Object
100
AcDbLine
 10
2.193901684902704
 20
7.310887631876234
 30
0.0
 11
2.117901684902704
 21
7.310887631876234
 31
0.0
  0
LINE
  5
C68
330
1F
100
AcDbEntity
  8
Object
100
AcDbLine
 10
2.126901684902704
 20
7.292887631876234
 30
0.0
 11
2.120901684902704
 21
7.286887631876235
 31
0.0
  0
LINE
  5
C69
330
1F
100
AcDbEntity
  8
Object
100
AcDbLine
 10
2.120901684902704
 20
7.286887631876235
 30
0.0
 11
2.117901684902704
 21
7.278887631876234
 31
0.0
  0
LINE
  5
C6A
330
1F
100
AcDbEntity
  8
Object
100
AcDbLine
 10
2.117901684902704
 20
7.376887631876234
 30
0.0
 11
2.193901684902704
 21
7.376887631876234
 31
0.0
  0
LINE
  5
C6B
330
1F
100
AcDbEntity
  8
Object
100
AcDbLine
 10
2.183901684902703
 20
7.357887631876234
 30
0.0
 11
2.117901684902704
 21
7.357887631876234
 31
0.0
  0
LINE
  5
C6C
330
1F
100
AcDbEntity
  8
Object
100
AcDbLine
 10
2.117901684902704
 20
7.341887631876234
 30
0.0
 11
2.183901684902703
 21
7.341887631876234
 31
0.0
  0
LINE
  5
C6D
330
1F
100
AcDbEntity
  8
Object
100
AcDbLine
 10
2.136901684902704
 20
7.433887631876234
 30
0.0
 11
2.117901684902704
 21
7.433887631876234
 31
0.0
  0
LINE
  5
C6E
330
1F
100
AcDbEntity
  8
Object
100
AcDbLine
 10
2.209901684902704
 20
7.392887631876234
 30
0.0
 11
2.117901684902704
 21
7.392887631876234
 31
0.0
  0
LINE
  5
C6F
330
1F
100
AcDbEntity
  8
Object
100
AcDbLine
 10
2.117901684902704
 20
7.417887631876234
 30
0.0
 11
2.209901684902704
 21
7.417887631876234
 31
0.0
  0
LINE
  5
C70
330
1F
100
AcDbEntity
  8
Object
100
AcDbLine
 10
2.209901684902704
 20
7.226887631876234
 30
0.0
 11
2.117901684902704
 21
7.226887631876234
 31
0.0
  0
LINE
  5
C71
330
1F
100
AcDbEntity
  8
Object
100
AcDbLine
 10
2.117901684902704
 20
7.210887631876234
 30
0.0
 11
2.209901684902704
 21
7.210887631876234
 31
0.0
  0
LINE
  5
C72
330
1F
100
AcDbEntity
  8
Object
100
AcDbLine
 10
2.117901684902704
 20
7.187887631876234
 30
0.0
 11
2.155901684902704
 21
7.187887631876234
 31
0.0
  0
LINE
  5
C73
330
1F
100
AcDbEntity
  8
Object
100
AcDbLine
 10
2.155901684902704
 20
7.187887631876234
 30
0.0
 11
2.117901684902704
 21
7.171887631876234
 31
0.0
  0
LINE
  5
C74
330
1F
100
AcDbEntity
  8
Object
100
AcDbLine
 10
2.117901684902704
 20
7.140887631876234
 30
0.0
 11
2.177901684902704
 21
7.140887631876234
 31
0.0
  0
LINE
  5
C75
330
1F
100
AcDbEntity
  8
Object
100
AcDbLine
 10
2.177901684902704
 20
7.140887631876234
 30
0.0
 11
2.117901684902704
 21
7.113887631876234
 31
0.0
  0
LINE
  5
C76
330
1F
100
AcDbEntity
  8
Object
100
AcDbLine
 10
2.117901684902704
 20
7.113887631876234
 30
0.0
 11
2.117901684902704
 21
7.089887631876234
 31
0.0
  0
LINE
  5
C77
330
1F
100
AcDbEntity
  8
Object
100
AcDbLine
 10
2.117901684902704
 20
7.089887631876234
 30
0.0
 11
2.103901684902703
 21
7.080887631876234
 31
0.0
  0
LINE
  5
C78
330
1F
100
AcDbEntity
  8
Object
100
AcDbLine
 10
2.117901684902704
 20
7.187887631876234
 30
0.0
 11
2.117901684902704
 21
7.210887631876234
 31
0.0
  0
LINE
  5
C79
330
1F
100
AcDbEntity
  8
Object
100
AcDbLine
 10
2.117901684902704
 20
7.140887631876234
 30
0.0
 11
2.117901684902704
 21
7.171887631876234
 31
0.0
  0
LINE
  5
C7A
330
1F
100
AcDbEntity
  8
Object
100
AcDbLine
 10
2.093901684902704
 20
7.067887631876234
 30
0.0
 11
2.103901684902703
 21
7.080887631876234
 31
0.0
  0
LINE
  5
C7B
330
1F
100
AcDbEntity
  8
Object
100
AcDbLine
 10
2.117901684902704
 20
7.226887631876234
 30
0.0
 11
2.117901684902704
 21
7.278887631876234
 31
0.0
  0
LINE
  5
C7C
330
1F
100
AcDbEntity
  8
Object
100
AcDbLine
 10
2.089901684902704
 20
7.050887631876234
 30
0.0
 11
2.093901684902704
 21
7.067887631876234
 31
0.0
  0
LINE
  5
C7D
330
1F
100
AcDbEntity
  8
Object
100
AcDbLine
 10
2.117901684902704
 20
7.310887631876234
 30
0.0
 11
2.117901684902704
 21
7.341887631876234
 31
0.0
  0
LINE
  5
C7E
330
1F
100
AcDbEntity
  8
Object
100
AcDbLine
 10
2.894901684902704
 20
7.505887631876234
 30
0.0
 11
2.962901684902704
 21
7.520887631876234
 31
0.0
  0
LINE
  5
C7F
330
1F
100
AcDbEntity
  8
Object
100
AcDbLine
 10
2.117901684902704
 20
7.501887631876234
 30
0.0
 11
2.136901684902704
 21
7.501887631876234
 31
0.0
  0
LINE
  5
C80
330
1F
100
AcDbEntity
  8
Object
100
AcDbLine
 10
3.616901684902704
 20
7.967887631876234
 30
0.0
 11
1.964901684902704
 21
7.967887631876234
 31
0.0
  0
LINE
  5
C81
330
1F
100
AcDbEntity
  8
Object
100
AcDbLine
 10
2.117901684902704
 20
7.357887631876234
 30
0.0
 11
2.117901684902704
 21
7.376887631876234
 31
0.0
  0
LINE
  5
C82
330
1F
100
AcDbEntity
  8
Object
100
AcDbLine
 10
2.831901684902704
 20
7.477887631876234
 30
0.0
 11
2.894901684902704
 21
7.505887631876234
 31
0.0
  0
LINE
  5
C83
330
1F
100
AcDbEntity
  8
Object
100
AcDbLine
 10
2.117901684902704
 20
7.433887631876234
 30
0.0
 11
2.117901684902704
 21
7.501887631876234
 31
0.0
  0
LINE
  5
C84
330
1F
100
AcDbEntity
  8
Object
100
AcDbLine
 10
2.117901684902704
 20
7.392887631876234
 30
0.0
 11
2.117901684902704
 21
7.417887631876234
 31
0.0
  0
LINE
  5
C85
330
1F
100
AcDbEntity
  8
Object
100
AcDbLine
 10
1.964901684902704
 20
7.967887631876234
 30
0.0
 11
1.964901684902704
 21
6.567887631876234
 31
0.0
  0
LINE
  5
C86
330
1F
100
AcDbEntity
  8
Object
100
AcDbLine
 10
2.089901684902704
 20
7.050887631876234
 30
0.0
 11
2.089901684902704
 21
6.967887631876234
 31
0.0
  0
LINE
  5
C87
330
1F
100
AcDbEntity
  8
Object
100
AcDbLine
 10
2.089901684902704
 20
6.967887631876234
 30
0.0
 11
2.209901684902704
 21
6.967887631876234
 31
0.0
  0
LINE
  5
C88
330
1F
100
AcDbEntity
  8
Object
100
AcDbLine
 10
2.775901684902704
 20
6.946887631876234
 30
0.0
 11
2.831901684902704
 21
6.906887631876234
 31
0.0
  0
LINE
  5
C89
330
1F
100
AcDbEntity
  8
Object
100
AcDbLine
 10
2.831901684902704
 20
6.906887631876234
 30
0.0
 11
2.894901684902704
 21
6.878887631876234
 31
0.0
  0
LINE
  5
C8A
330
1F
100
AcDbEntity
  8
Object
100
AcDbLine
 10
2.894901684902704
 20
6.878887631876234
 30
0.0
 11
2.962901684902704
 21
6.863887631876234
 31
0.0
  0
LINE
  5
C8B
330
1F
100
AcDbEntity
  8
Object
100
AcDbLine
 10
3.766901684902704
 20
7.967887631876234
 30
0.0
 11
3.759901684902704
 21
7.967887631876234
 31
0.0
  0
LINE
  5
C8C
330
1F
100
AcDbEntity
  8
Object
100
AcDbLine
 10
3.759901684902704
 20
7.967887631876234
 30
0.0
 11
3.738901684902704
 21
7.967887631876234
 31
0.0
  0
LINE
  5
C8D
330
1F
100
AcDbEntity
  8
Object
100
AcDbLine
 10
3.738901684902704
 20
7.967887631876234
 30
0.0
 11
3.705901684902704
 21
7.967887631876234
 31
0.0
  0
LINE
  5
C8E
330
1F
100
AcDbEntity
  8
Object
100
AcDbLine
 10
3.705901684902704
 20
7.967887631876234
 30
0.0
 11
3.663901684902704
 21
7.967887631876234
 31
0.0
  0
LINE
  5
C8F
330
1F
100
AcDbEntity
  8
Object
100
AcDbLine
 10
3.663901684902704
 20
7.967887631876234
 30
0.0
 11
3.616901684902704
 21
7.967887631876234
 31
0.0
  0
LINE
  5
C90
330
1F
100
AcDbEntity
  8
Object
100
AcDbLine
 10
3.616901684902704
 20
6.445887631876234
 30
0.0
 11
3.616901684902704
 21
6.478887631876234
 31
0.0
  0
LINE
  5
C91
330
1F
100
AcDbEntity
  8
Object
100
AcDbLine
 10
3.616901684902704
 20
6.417887631876234
 30
0.0
 11
3.616901684902704
 21
6.424887631876234
 31
0.0
  0
LINE
  5
C92
330
1F
100
AcDbEntity
  8
Object
100
AcDbLine
 10
3.616901684902704
 20
6.424887631876234
 30
0.0
 11
3.616901684902704
 21
6.445887631876234
 31
0.0
  0
LINE
  5
C93
330
1F
100
AcDbEntity
  8
Object
100
AcDbLine
 10
3.616901684902704
 20
6.478887631876234
 30
0.0
 11
3.616901684902704
 21
6.520887631876234
 31
0.0
  0
LINE
  5
C94
330
1F
100
AcDbEntity
  8
Object
100
AcDbLine
 10
3.616901684902704
 20
6.520887631876234
 30
0.0
 11
3.616901684902704
 21
6.567887631876234
 31
0.0
  0
LINE
  5
C95
330
1F
100
AcDbEntity
  8
Object
100
AcDbLine
 10
3.326901684902704
 20
7.192887631876234
 30
0.0
 11
3.319901684902704
 21
7.260887631876234
 31
0.0
  0
LINE
  5
C96
330
1F
100
AcDbEntity
  8
Object
100
AcDbLine
 10
3.319901684902704
 20
7.260887631876234
 30
0.0
 11
3.298901684902704
 21
7.326887631876234
 31
0.0
  0
LINE
  5
C97
330
1F
100
AcDbEntity
  8
Object
100
AcDbLine
 10
3.298901684902704
 20
7.326887631876234
 30
0.0
 11
3.263901684902704
 21
7.386887631876234
 31
0.0
  0
LINE
  5
C98
330
1F
100
AcDbEntity
  8
Object
100
AcDbLine
 10
3.263901684902704
 20
7.386887631876234
 30
0.0
 11
3.217901684902704
 21
7.437887631876234
 31
0.0
  0
LINE
  5
C99
330
1F
100
AcDbEntity
  8
Object
100
AcDbLine
 10
3.217901684902704
 20
7.437887631876234
 30
0.0
 11
3.161901684902704
 21
7.477887631876234
 31
0.0
  0
LINE
  5
C9A
330
1F
100
AcDbEntity
  8
Object
100
AcDbLine
 10
3.161901684902704
 20
7.477887631876234
 30
0.0
 11
3.098901684902704
 21
7.505887631876234
 31
0.0
  0
LINE
  5
C9B
330
1F
100
AcDbEntity
  8
Object
100
AcDbLine
 10
3.098901684902704
 20
7.505887631876234
 30
0.0
 11
3.031901684902704
 21
7.520887631876234
 31
0.0
  0
LINE
  5
C9C
330
1F
100
AcDbEntity
  8
Object
100
AcDbLine
 10
3.031901684902704
 20
7.520887631876234
 30
0.0
 11
2.962901684902704
 21
7.520887631876234
 31
0.0
  0
LINE
  5
C9D
330
1F
100
AcDbEntity
  8
Object
100
AcDbLine
 10
2.962901684902704
 20
7.520887631876234
 30
0.0
 11
2.894901684902704
 21
7.505887631876234
 31
0.0
  0
LINE
  5
C9E
330
1F
100
AcDbEntity
  8
Object
100
AcDbLine
 10
2.894901684902704
 20
7.505887631876234
 30
0.0
 11
2.831901684902704
 21
7.477887631876234
 31
0.0
  0
LINE
  5
C9F
330
1F
100
AcDbEntity
  8
Object
100
AcDbLine
 10
2.831901684902704
 20
7.477887631876234
 30
0.0
 11
2.775901684902704
 21
7.437887631876234
 31
0.0
  0
LINE
  5
CA0
330
1F
100
AcDbEntity
  8
Object
100
AcDbLine
 10
2.775901684902704
 20
7.437887631876234
 30
0.0
 11
2.729901684902704
 21
7.386887631876234
 31
0.0
  0
LINE
  5
CA1
330
1F
100
AcDbEntity
  8
Object
100
AcDbLine
 10
2.729901684902704
 20
7.386887631876234
 30
0.0
 11
2.695901684902703
 21
7.326887631876234
 31
0.0
  0
LINE
  5
CA2
330
1F
100
AcDbEntity
  8
Object
100
AcDbLine
 10
2.695901684902703
 20
7.326887631876234
 30
0.0
 11
2.673901684902704
 21
7.260887631876234
 31
0.0
  0
LINE
  5
CA3
330
1F
100
AcDbEntity
  8
Object
100
AcDbLine
 10
2.673901684902704
 20
7.260887631876234
 30
0.0
 11
2.666901684902704
 21
7.192887631876234
 31
0.0
  0
LINE
  5
CA4
330
1F
100
AcDbEntity
  8
Object
100
AcDbLine
 10
3.326901684902704
 20
7.192887631876234
 30
0.0
 11
3.319901684902704
 21
7.123887631876234
 31
0.0
  0
LINE
  5
CA5
330
1F
100
AcDbEntity
  8
Object
100
AcDbLine
 10
3.319901684902704
 20
7.123887631876234
 30
0.0
 11
3.298901684902704
 21
7.057887631876234
 31
0.0
  0
LINE
  5
CA6
330
1F
100
AcDbEntity
  8
Object
100
AcDbLine
 10
3.298901684902704
 20
7.057887631876234
 30
0.0
 11
3.263901684902704
 21
6.998887631876234
 31
0.0
  0
LINE
  5
CA7
330
1F
100
AcDbEntity
  8
Object
100
AcDbLine
 10
3.263901684902704
 20
6.998887631876234
 30
0.0
 11
3.217901684902704
 21
6.946887631876234
 31
0.0
  0
LINE
  5
CA8
330
1F
100
AcDbEntity
  8
Object
100
AcDbLine
 10
3.217901684902704
 20
6.946887631876234
 30
0.0
 11
3.161901684902704
 21
6.906887631876234
 31
0.0
  0
LINE
  5
CA9
102
{ACAD_REACTORS
330
DEA
102
}
330
1F
100
AcDbEntity
  8
Object
100
AcDbLine
 10
3.161901684902704
 20
6.906887631876234
 30
0.0
 11
3.098901684902704
 21
6.878887631876234
 31
0.0
  0
LINE
  5
CAA
330
1F
100
AcDbEntity
  8
Object
100
AcDbLine
 10
3.098901684902704
 20
6.878887631876234
 30
0.0
 11
3.031901684902704
 21
6.863887631876234
 31
0.0
  0
LINE
  5
CAB
330
1F
100
AcDbEntity
  8
Object
100
AcDbLine
 10
3.031901684902704
 20
6.863887631876234
 30
0.0
 11
2.962901684902704
 21
6.863887631876234
 31
0.0
  0
LINE
  5
CAC
330
1F
100
AcDbEntity
  8
Object
100
AcDbLine
 10
2.962901684902704
 20
6.863887631876234
 30
0.0
 11
2.894901684902704
 21
6.878887631876234
 31
0.0
  0
LINE
  5
CAD
330
1F
100
AcDbEntity
  8
Object
100
AcDbLine
 10
2.894901684902704
 20
6.878887631876234
 30
0.0
 11
2.831901684902704
 21
6.906887631876234
 31
0.0
  0
LINE
  5
CAE
330
1F
100
AcDbEntity
  8
Object
100
AcDbLine
 10
2.831901684902704
 20
6.906887631876234
 30
0.0
 11
2.775901684902704
 21
6.946887631876234
 31
0.0
  0
LINE
  5
CAF
330
1F
100
AcDbEntity
  8
Object
100
AcDbLine
 10
2.775901684902704
 20
6.946887631876234
 30
0.0
 11
2.729901684902704
 21
6.998887631876234
 31
0.0
  0
LINE
  5
CB0
330
1F
100
AcDbEntity
  8
Object
100
AcDbLine
 10
2.729901684902704
 20
6.998887631876234
 30
0.0
 11
2.695901684902703
 21
7.057887631876234
 31
0.0
  0
LINE
  5
CB1
330
1F
100
AcDbEntity
  8
Object
100
AcDbLine
 10
2.695901684902703
 20
7.057887631876234
 30
0.0
 11
2.673901684902704
 21
7.123887631876234
 31
0.0
  0
LINE
  5
CB2
330
1F
100
AcDbEntity
  8
Object
100
AcDbLine
 10
2.673901684902704
 20
7.123887631876234
 30
0.0
 11
2.666901684902704
 21
7.192887631876234
 31
0.0
  0
LINE
  5
CB3
330
1F
100
AcDbEntity
  8
Object
100
AcDbLine
 10
2.172901684902703
 20
7.050887631876234
 30
0.0
 11
2.171901684902704
 21
7.056887631876234
 31
0.0
  0
LINE
  5
CB4
330
1F
100
AcDbEntity
  8
Object
100
AcDbLine
 10
2.171901684902704
 20
7.056887631876234
 30
0.0
 11
2.170901684902704
 21
7.062887631876234
 31
0.0
  0
LINE
  5
CB5
330
1F
100
AcDbEntity
  8
Object
100
AcDbLine
 10
2.170901684902704
 20
7.062887631876234
 30
0.0
 11
2.168901684902704
 21
7.068887631876234
 31
0.0
  0
LINE
  5
CB6
330
1F
100
AcDbEntity
  8
Object
100
AcDbLine
 10
2.188901684902703
 20
7.345887631876234
 30
0.0
 11
2.188901684902703
 21
7.343887631876234
 31
0.0
  0
LINE
  5
CB7
330
1F
100
AcDbEntity
  8
Object
100
AcDbLine
 10
2.188901684902703
 20
7.343887631876234
 30
0.0
 11
2.186901684902704
 21
7.341887631876234
 31
0.0
  0
LINE
  5
CB8
330
1F
100
AcDbEntity
  8
Object
100
AcDbLine
 10
2.186901684902704
 20
7.341887631876234
 30
0.0
 11
2.183901684902703
 21
7.341887631876234
 31
0.0
  0
LINE
  5
CB9
330
1F
100
AcDbEntity
  8
Object
100
AcDbLine
 10
2.117901684902704
 20
7.501887631876234
 30
0.0
 11
2.136901684902704
 21
7.501887631876234
 31
0.0
  0
LINE
  5
CBA
330
1F
100
AcDbEntity
  8
Object
100
AcDbLine
 10
2.196901684902703
 20
7.083887631876234
 30
0.0
 11
2.209901684902704
 21
7.078887631876234
 31
0.0
  0
LINE
  5
CBB
330
1F
100
AcDbEntity
  8
Object
100
AcDbLine
 10
2.117901684902704
 20
7.140887631876234
 30
0.0
 11
2.117901684902704
 21
7.171887631876234
 31
0.0
  0
LINE
  5
CBC
330
1F
100
AcDbEntity
  8
Object
100
AcDbLine
 10
2.117901684902704
 20
7.226887631876234
 30
0.0
 11
2.117901684902704
 21
7.278887631876234
 31
0.0
  0
LINE
  5
CBD
330
1F
100
AcDbEntity
  8
Object
100
AcDbLine
 10
2.209901684902704
 20
7.359887631876234
 30
0.0
 11
2.207901684902703
 21
7.368887631876234
 31
0.0
  0
LINE
  5
CBE
330
1F
100
AcDbEntity
  8
Object
100
AcDbLine
 10
2.207901684902703
 20
7.368887631876234
 30
0.0
 11
2.201901684902704
 21
7.374887631876234
 31
0.0
  0
LINE
  5
CBF
330
1F
100
AcDbEntity
  8
Object
100
AcDbLine
 10
2.201901684902704
 20
7.374887631876234
 30
0.0
 11
2.193901684902704
 21
7.376887631876234
 31
0.0
  0
LINE
  5
CC0
330
1F
100
AcDbEntity
  8
Object
100
AcDbLine
 10
2.117901684902704
 20
7.417887631876234
 30
0.0
 11
2.209901684902704
 21
7.417887631876234
 31
0.0
  0
LINE
  5
CC1
330
1F
100
AcDbEntity
  8
Object
100
AcDbLine
 10
2.209901684902704
 20
6.967887631876234
 30
0.0
 11
2.089901684902704
 21
6.967887631876234
 31
0.0
  0
LINE
  5
CC2
330
1F
100
AcDbEntity
  8
Object
100
AcDbLine
 10
2.117901684902704
 20
7.376887631876234
 30
0.0
 11
2.193901684902704
 21
7.376887631876234
 31
0.0
  0
LINE
  5
CC3
330
1F
100
AcDbEntity
  8
Object
100
AcDbLine
 10
2.188901684902703
 20
7.352887631876234
 30
0.0
 11
2.188901684902703
 21
7.354887631876234
 31
0.0
  0
LINE
  5
CC4
330
1F
100
AcDbEntity
  8
Object
100
AcDbLine
 10
2.188901684902703
 20
7.354887631876234
 30
0.0
 11
2.186901684902704
 21
7.356887631876234
 31
0.0
  0
LINE
  5
CC5
330
1F
100
AcDbEntity
  8
Object
100
AcDbLine
 10
2.186901684902704
 20
7.356887631876234
 30
0.0
 11
2.183901684902703
 21
7.357887631876234
 31
0.0
  0
LINE
  5
CC6
330
1F
100
AcDbEntity
  8
Object
100
AcDbLine
 10
2.193901684902704
 20
7.310887631876234
 30
0.0
 11
2.117901684902704
 21
7.310887631876234
 31
0.0
  0
LINE
  5
CC7
330
1F
100
AcDbEntity
  8
Object
100
AcDbLine
 10
2.172901684902703
 20
7.050887631876234
 30
0.0
 11
2.172901684902703
 21
7.020887631876234
 31
0.0
  0
LINE
  5
CC8
330
1F
100
AcDbEntity
  8
Object
100
AcDbLine
 10
2.134901684902704
 20
7.294887631876234
 30
0.0
 11
2.193901684902704
 21
7.294887631876234
 31
0.0
  0
LINE
  5
CC9
330
1F
100
AcDbEntity
  8
Object
100
AcDbLine
 10
2.136901684902704
 20
7.451887631876234
 30
0.0
 11
2.136901684902704
 21
7.433887631876234
 31
0.0
  0
LINE
  5
CCA
330
1F
100
AcDbEntity
  8
Object
100
AcDbLine
 10
2.209901684902704
 20
7.078887631876234
 30
0.0
 11
2.209901684902704
 21
7.051887631876234
 31
0.0
  0
LINE
  5
CCB
330
1F
100
AcDbEntity
  8
Object
100
AcDbLine
 10
2.209901684902704
 20
7.125887631876234
 30
0.0
 11
2.196901684902703
 21
7.118887631876234
 31
0.0
  0
LINE
  5
CCC
330
1F
100
AcDbEntity
  8
Object
100
AcDbLine
 10
2.209901684902704
 20
7.226887631876234
 30
0.0
 11
2.117901684902704
 21
7.226887631876234
 31
0.0
  0
LINE
  5
CCD
330
1F
100
AcDbEntity
  8
Object
100
AcDbLine
 10
2.117901684902704
 20
7.357887631876234
 30
0.0
 11
2.117901684902704
 21
7.376887631876234
 31
0.0
  0
LINE
  5
CCE
330
1F
100
AcDbEntity
  8
Object
100
AcDbLine
 10
2.117901684902704
 20
7.341887631876234
 30
0.0
 11
2.183901684902703
 21
7.341887631876234
 31
0.0
  0
LINE
  5
CCF
330
1F
100
AcDbEntity
  8
Object
100
AcDbLine
 10
2.136901684902704
 20
7.479887631876234
 30
0.0
 11
2.209901684902704
 21
7.479887631876234
 31
0.0
  0
LINE
  5
CD0
330
1F
100
AcDbEntity
  8
Object
100
AcDbLine
 10
2.209901684902704
 20
7.392887631876234
 30
0.0
 11
2.117901684902704
 21
7.392887631876234
 31
0.0
  0
LINE
  5
CD1
330
1F
100
AcDbEntity
  8
Object
100
AcDbLine
 10
2.209901684902704
 20
7.183887631876234
 30
0.0
 11
2.170901684902704
 21
7.166887631876234
 31
0.0
  0
LINE
  5
CD2
330
1F
100
AcDbEntity
  8
Object
100
AcDbLine
 10
2.117901684902704
 20
7.113887631876234
 30
0.0
 11
2.177901684902704
 21
7.140887631876234
 31
0.0
  0
LINE
  5
CD3
330
1F
100
AcDbEntity
  8
Object
100
AcDbLine
 10
2.089901684902704
 20
6.967887631876234
 30
0.0
 11
2.089901684902704
 21
7.050887631876234
 31
0.0
  0
LINE
  5
CD4
330
1F
100
AcDbEntity
  8
Object
100
AcDbLine
 10
2.209901684902704
 20
7.051887631876234
 30
0.0
 11
2.168901684902704
 21
7.068887631876234
 31
0.0
  0
LINE
  5
CD5
330
1F
100
AcDbEntity
  8
Object
100
AcDbLine
 10
2.196901684902703
 20
7.118887631876234
 30
0.0
 11
2.196901684902703
 21
7.083887631876234
 31
0.0
  0
LINE
  5
CD6
330
1F
100
AcDbEntity
  8
Object
100
AcDbLine
 10
2.209901684902704
 20
7.359887631876234
 30
0.0
 11
2.209901684902704
 21
7.327887631876234
 31
0.0
  0
LINE
  5
CD7
330
1F
100
AcDbEntity
  8
Object
100
AcDbLine
 10
2.170901684902704
 20
7.166887631876234
 30
0.0
 11
2.209901684902704
 21
7.166887631876234
 31
0.0
  0
LINE
  5
CD8
330
1F
100
AcDbEntity
  8
Object
100
AcDbLine
 10
2.209901684902704
 20
7.278887631876234
 30
0.0
 11
2.207901684902703
 21
7.286887631876235
 31
0.0
  0
LINE
  5
CD9
330
1F
100
AcDbEntity
  8
Object
100
AcDbLine
 10
2.207901684902703
 20
7.286887631876235
 30
0.0
 11
2.201901684902704
 21
7.292887631876234
 31
0.0
  0
LINE
  5
CDA
330
1F
100
AcDbEntity
  8
Object
100
AcDbLine
 10
2.201901684902704
 20
7.292887631876234
 30
0.0
 11
2.193901684902704
 21
7.294887631876234
 31
0.0
  0
LINE
  5
CDB
330
1F
100
AcDbEntity
  8
Object
100
AcDbLine
 10
2.117901684902704
 20
7.210887631876234
 30
0.0
 11
2.209901684902704
 21
7.210887631876234
 31
0.0
  0
LINE
  5
CDC
330
1F
100
AcDbEntity
  8
Object
100
AcDbLine
 10
2.136901684902704
 20
7.433887631876234
 30
0.0
 11
2.117901684902704
 21
7.433887631876234
 31
0.0
  0
LINE
  5
CDD
330
1F
100
AcDbEntity
  8
Object
100
AcDbLine
 10
2.209901684902704
 20
7.417887631876234
 30
0.0
 11
2.209901684902704
 21
7.392887631876234
 31
0.0
  0
LINE
  5
CDE
330
1F
100
AcDbEntity
  8
Object
100
AcDbLine
 10
2.209901684902704
 20
7.166887631876234
 30
0.0
 11
2.209901684902704
 21
7.125887631876234
 31
0.0
  0
LINE
  5
CDF
330
1F
100
AcDbEntity
  8
Object
100
AcDbLine
 10
2.209901684902704
 20
7.210887631876234
 30
0.0
 11
2.209901684902704
 21
7.183887631876234
 31
0.0
  0
LINE
  5
CE0
330
1F
100
AcDbEntity
  8
Object
100
AcDbLine
 10
2.117901684902704
 20
7.433887631876234
 30
0.0
 11
2.117901684902704
 21
7.501887631876234
 31
0.0
  0
LINE
  5
CE1
330
1F
100
AcDbEntity
  8
Object
100
AcDbLine
 10
2.117901684902704
 20
7.187887631876234
 30
0.0
 11
2.155901684902704
 21
7.187887631876234
 31
0.0
  0
LINE
  5
CE2
330
1F
100
AcDbEntity
  8
Object
100
AcDbLine
 10
2.155901684902704
 20
7.187887631876234
 30
0.0
 11
2.117901684902704
 21
7.171887631876234
 31
0.0
  0
LINE
  5
CE3
330
1F
100
AcDbEntity
  8
Object
100
AcDbLine
 10
2.172901684902703
 20
7.020887631876234
 30
0.0
 11
2.209901684902704
 21
7.020887631876234
 31
0.0
  0
LINE
  5
CE4
330
1F
100
AcDbEntity
  8
Object
100
AcDbLine
 10
2.209901684902704
 20
7.327887631876234
 30
0.0
 11
2.207901684902703
 21
7.319887631876234
 31
0.0
  0
LINE
  5
CE5
330
1F
100
AcDbEntity
  8
Object
100
AcDbLine
 10
2.207901684902703
 20
7.319887631876234
 30
0.0
 11
2.201901684902704
 21
7.313887631876234
 31
0.0
  0
LINE
  5
CE6
330
1F
100
AcDbEntity
  8
Object
100
AcDbLine
 10
2.201901684902704
 20
7.313887631876234
 30
0.0
 11
2.193901684902704
 21
7.310887631876234
 31
0.0
  0
LINE
  5
CE7
330
1F
100
AcDbEntity
  8
Object
100
AcDbLine
 10
2.136901684902704
 20
7.501887631876234
 30
0.0
 11
2.136901684902704
 21
7.479887631876234
 31
0.0
  0
LINE
  5
CE8
330
1F
100
AcDbEntity
  8
Object
100
AcDbLine
 10
2.209901684902704
 20
7.278887631876234
 30
0.0
 11
2.209901684902704
 21
7.226887631876234
 31
0.0
  0
LINE
  5
CE9
330
1F
100
AcDbEntity
  8
Object
100
AcDbLine
 10
2.188901684902703
 20
7.345887631876234
 30
0.0
 11
2.188901684902703
 21
7.352887631876234
 31
0.0
  0
LINE
  5
CEA
330
1F
100
AcDbEntity
  8
Object
100
AcDbLine
 10
2.209901684902704
 20
7.451887631876234
 30
0.0
 11
2.136901684902704
 21
7.451887631876234
 31
0.0
  0
LINE
  5
CEB
330
1F
100
AcDbEntity
  8
Object
100
AcDbLine
 10
2.117901684902704
 20
7.187887631876234
 30
0.0
 11
2.117901684902704
 21
7.210887631876234
 31
0.0
  0
LINE
  5
CEC
330
1F
100
AcDbEntity
  8
Object
100
AcDbLine
 10
2.177901684902704
 20
7.140887631876234
 30
0.0
 11
2.117901684902704
 21
7.140887631876234
 31
0.0
  0
LINE
  5
CED
330
1F
100
AcDbEntity
  8
Object
100
AcDbLine
 10
2.134901684902704
 20
7.294887631876234
 30
0.0
 11
2.126901684902704
 21
7.292887631876234
 31
0.0
  0
LINE
  5
CEE
330
1F
100
AcDbEntity
  8
Object
100
AcDbLine
 10
2.126901684902704
 20
7.292887631876234
 30
0.0
 11
2.120901684902704
 21
7.286887631876235
 31
0.0
  0
LINE
  5
CEF
330
1F
100
AcDbEntity
  8
Object
100
AcDbLine
 10
2.120901684902704
 20
7.286887631876235
 30
0.0
 11
2.117901684902704
 21
7.278887631876234
 31
0.0
  0
LINE
  5
CF0
330
1F
100
AcDbEntity
  8
Object
100
AcDbLine
 10
2.183901684902703
 20
7.357887631876234
 30
0.0
 11
2.117901684902704
 21
7.357887631876234
 31
0.0
  0
LINE
  5
CF1
330
1F
100
AcDbEntity
  8
Object
100
AcDbLine
 10
2.209901684902704
 20
7.479887631876234
 30
0.0
 11
2.209901684902704
 21
7.451887631876234
 31
0.0
  0
LINE
  5
CF2
330
1F
100
AcDbEntity
  8
Object
100
AcDbLine
 10
2.117901684902704
 20
7.392887631876234
 30
0.0
 11
2.117901684902704
 21
7.417887631876234
 31
0.0
  0
LINE
  5
CF3
330
1F
100
AcDbEntity
  8
Object
100
AcDbLine
 10
2.117901684902704
 20
7.113887631876234
 30
0.0
 11
2.117901684902704
 21
7.089887631876234
 31
0.0
  0
LINE
  5
CF4
330
1F
100
AcDbEntity
  8
Object
100
AcDbLine
 10
2.117901684902704
 20
7.089887631876234
 30
0.0
 11
2.103901684902703
 21
7.080887631876234
 31
0.0
  0
LINE
  5
CF5
330
1F
100
AcDbEntity
  8
Object
100
AcDbLine
 10
2.103901684902703
 20
7.080887631876234
 30
0.0
 11
2.093901684902704
 21
7.067887631876234
 31
0.0
  0
LINE
  5
CF6
330
1F
100
AcDbEntity
  8
Object
100
AcDbLine
 10
2.093901684902704
 20
7.067887631876234
 30
0.0
 11
2.089901684902704
 21
7.050887631876234
 31
0.0
  0
LINE
  5
CF7
330
1F
100
AcDbEntity
  8
Object
100
AcDbLine
 10
2.209901684902704
 20
7.020887631876234
 30
0.0
 11
2.209901684902704
 21
6.967887631876234
 31
0.0
  0
LINE
  5
CF8
330
1F
100
AcDbEntity
  8
Object
100
AcDbLine
 10
2.117901684902704
 20
7.310887631876234
 30
0.0
 11
2.117901684902704
 21
7.341887631876234
 31
0.0
  0
LINE
  5
CF9
330
1F
100
AcDbEntity
  8
Object
100
AcDbLine
 10
3.759901684902704
 20
7.967887631876234
 30
0.0
 11
3.766901684902704
 21
7.967887631876234
 31
0.0
  0
LINE
  5
CFA
330
1F
100
AcDbEntity
  8
Object
100
AcDbLine
 10
3.766901684902704
 20
7.967887631876234
 30
0.0
 11
3.766901684902704
 21
6.567887631876234
 31
0.0
  0
LINE
  5
CFB
330
1F
100
AcDbEntity
  8
Object
100
AcDbLine
 10
3.766901684902704
 20
6.567887631876234
 30
0.0
 11
3.759901684902704
 21
6.567887631876234
 31
0.0
  0
LINE
  5
CFC
330
1F
100
AcDbEntity
  8
Object
100
AcDbLine
 10
3.759901684902704
 20
6.567887631876234
 30
0.0
 11
3.738901684902704
 21
6.567887631876234
 31
0.0
  0
LINE
  5
CFD
330
1F
100
AcDbEntity
  8
Object
100
AcDbLine
 10
3.759901684902704
 20
7.967887631876234
 30
0.0
 11
3.738901684902704
 21
7.967887631876234
 31
0.0
  0
LINE
  5
CFE
330
1F
100
AcDbEntity
  8
Object
100
AcDbLine
 10
3.738901684902704
 20
7.967887631876234
 30
0.0
 11
3.705901684902704
 21
7.967887631876234
 31
0.0
  0
LINE
  5
CFF
330
1F
100
AcDbEntity
  8
Object
100
AcDbLine
 10
3.738901684902704
 20
6.567887631876234
 30
0.0
 11
3.705901684902704
 21
6.567887631876234
 31
0.0
  0
LINE
  5
D00
330
1F
100
AcDbEntity
  8
Object
100
AcDbLine
 10
3.705901684902704
 20
6.567887631876234
 30
0.0
 11
3.663901684902704
 21
6.567887631876234
 31
0.0
  0
LINE
  5
D01
330
1F
100
AcDbEntity
  8
Object
100
AcDbLine
 10
3.705901684902704
 20
7.967887631876234
 30
0.0
 11
3.663901684902704
 21
7.967887631876234
 31
0.0
  0
LINE
  5
D02
330
1F
100
AcDbEntity
  8
Object
100
AcDbLine
 10
3.616901684902704
 20
6.567887631876234
 30
0.0
 11
3.663901684902704
 21
6.567887631876234
 31
0.0
  0
LINE
  5
D03
330
1F
100
AcDbEntity
  8
Object
100
AcDbLine
 10
3.663901684902704
 20
7.967887631876234
 30
0.0
 11
3.616901684902704
 21
7.967887631876234
 31
0.0
  0
LINE
  5
D04
330
1F
100
AcDbEntity
  8
Object
100
AcDbLine
 10
3.766901684902704
 20
6.567887631876234
 30
0.0
 11
3.759901684902704
 21
6.567887631876234
 31
0.0
  0
LINE
  5
D05
330
1F
100
AcDbEntity
  8
Object
100
AcDbLine
 10
3.759901684902704
 20
6.567887631876234
 30
0.0
 11
3.738901684902704
 21
6.567887631876234
 31
0.0
  0
LINE
  5
D06
330
1F
100
AcDbEntity
  8
Object
100
AcDbLine
 10
3.738901684902704
 20
6.567887631876234
 30
0.0
 11
3.705901684902704
 21
6.567887631876234
 31
0.0
  0
LINE
  5
D07
330
1F
100
AcDbEntity
  8
Object
100
AcDbLine
 10
3.705901684902704
 20
6.567887631876234
 30
0.0
 11
3.663901684902704
 21
6.567887631876234
 31
0.0
  0
LINE
  5
D08
330
1F
100
AcDbEntity
  8
Object
100
AcDbLine
 10
3.663901684902704
 20
6.567887631876234
 30
0.0
 11
3.616901684902704
 21
6.567887631876234
 31
0.0
  0
LINE
  5
D09
330
1F
100
AcDbEntity
  8
Object
100
AcDbLine
 10
3.766901684902704
 20
6.567887631876234
 30
0.0
 11
3.766901684902704
 21
7.967887631876234
 31
0.0
  0
LINE
  5
D0A
330
1F
100
AcDbEntity
  8
Object
100
AcDbLine
 10
2.150901684902704
 20
7.101887631876234
 30
0.0
 11
2.176901684902704
 21
7.089887631876234
 31
0.0
  0
LINE
  5
D0B
330
1F
100
AcDbEntity
  8
Object
100
AcDbLine
 10
2.176901684902704
 20
7.089887631876234
 30
0.0
 11
2.176901684902704
 21
7.112887631876234
 31
0.0
  0
LINE
  5
D0C
330
1F
100
AcDbEntity
  8
Object
100
AcDbLine
 10
2.153901684902704
 20
7.020887631876234
 30
0.0
 11
2.153901684902704
 21
7.032887631876234
 31
0.0
  0
LINE
  5
D0D
330
1F
100
AcDbEntity
  8
Object
100
AcDbLine
 10
2.147901684902704
 20
7.038887631876234
 30
0.0
 11
2.116901684902704
 21
7.038887631876234
 31
0.0
  0
LINE
  5
D0E
330
1F
100
AcDbEntity
  8
Object
100
AcDbLine
 10
2.176901684902704
 20
7.112887631876234
 30
0.0
 11
2.150901684902704
 21
7.101887631876234
 31
0.0
  0
LINE
  5
D0F
330
1F
100
AcDbEntity
  8
Object
100
AcDbLine
 10
2.153901684902704
 20
7.032887631876234
 30
0.0
 11
2.152901684902704
 21
7.035887631876234
 31
0.0
  0
LINE
  5
D10
330
1F
100
AcDbEntity
  8
Object
100
AcDbLine
 10
2.152901684902704
 20
7.035887631876234
 30
0.0
 11
2.150901684902704
 21
7.037887631876234
 31
0.0
  0
LINE
  5
D11
330
1F
100
AcDbEntity
  8
Object
100
AcDbLine
 10
2.150901684902704
 20
7.037887631876234
 30
0.0
 11
2.147901684902704
 21
7.038887631876234
 31
0.0
  0
LINE
  5
D12
330
1F
100
AcDbEntity
  8
Object
100
AcDbLine
 10
2.110901684902704
 20
7.032887631876234
 30
0.0
 11
2.110901684902704
 21
7.020887631876234
 31
0.0
  0
LINE
  5
D13
330
1F
100
AcDbEntity
  8
Object
100
AcDbLine
 10
2.110901684902704
 20
7.020887631876234
 30
0.0
 11
2.153901684902704
 21
7.020887631876234
 31
0.0
  0
LINE
  5
D14
330
1F
100
AcDbEntity
  8
Object
100
AcDbLine
 10
2.116901684902704
 20
7.038887631876234
 30
0.0
 11
2.113901684902704
 21
7.037887631876234
 31
0.0
  0
LINE
  5
D15
330
1F
100
AcDbEntity
  8
Object
100
AcDbLine
 10
2.113901684902704
 20
7.037887631876234
 30
0.0
 11
2.111901684902703
 21
7.035887631876234
 31
0.0
  0
LINE
  5
D16
330
1F
100
AcDbEntity
  8
Object
100
AcDbLine
 10
2.111901684902703
 20
7.035887631876234
 30
0.0
 11
2.110901684902704
 21
7.032887631876234
 31
0.0
  0
LINE
  5
D17
330
1F
100
AcDbEntity
  8
Object
100
AcDbLine
 10
2.183901684902703
 20
7.268887631876234
 30
0.0
 11
2.141901684902704
 21
7.268887631876234
 31
0.0
  0
LINE
  5
D18
330
1F
100
AcDbEntity
  8
Object
100
AcDbLine
 10
2.188901684902703
 20
7.263887631876234
 30
0.0
 11
2.188901684902703
 21
7.265887631876234
 31
0.0
  0
LINE
  5
D19
330
1F
100
AcDbEntity
  8
Object
100
AcDbLine
 10
2.188901684902703
 20
7.265887631876234
 30
0.0
 11
2.186901684902704
 21
7.267887631876234
 31
0.0
  0
LINE
  5
D1A
330
1F
100
AcDbEntity
  8
Object
100
AcDbLine
 10
2.186901684902704
 20
7.267887631876234
 30
0.0
 11
2.183901684902703
 21
7.268887631876234
 31
0.0
  0
LINE
  5
D1B
330
1F
100
AcDbEntity
  8
Object
100
AcDbLine
 10
2.188901684902703
 20
7.254887631876234
 30
0.0
 11
2.188901684902703
 21
7.263887631876234
 31
0.0
  0
LINE
  5
D1C
330
1F
100
AcDbEntity
  8
Object
100
AcDbLine
 10
2.141901684902704
 20
7.268887631876234
 30
0.0
 11
2.139901684902704
 21
7.267887631876234
 31
0.0
  0
LINE
  5
D1D
330
1F
100
AcDbEntity
  8
Object
100
AcDbLine
 10
2.139901684902704
 20
7.267887631876234
 30
0.0
 11
2.137901684902704
 21
7.265887631876234
 31
0.0
  0
LINE
  5
D1E
330
1F
100
AcDbEntity
  8
Object
100
AcDbLine
 10
2.137901684902704
 20
7.265887631876234
 30
0.0
 11
2.137901684902704
 21
7.263887631876234
 31
0.0
  0
LINE
  5
D1F
330
1F
100
AcDbEntity
  8
Object
100
AcDbLine
 10
2.188901684902703
 20
7.254887631876234
 30
0.0
 11
2.137901684902704
 21
7.254887631876234
 31
0.0
  0
LINE
  5
D20
330
1F
100
AcDbEntity
  8
Object
100
AcDbLine
 10
2.137901684902704
 20
7.254887631876234
 30
0.0
 11
2.137901684902704
 21
7.263887631876234
 31
0.0
  0
LINE
  5
D21
330
1F
100
AcDbEntity
  8
Object
100
AcDbLine
 10
2.176901684902704
 20
7.089887631876234
 30
0.0
 11
2.150901684902704
 21
7.101887631876234
 31
0.0
  0
LINE
  5
D22
330
1F
100
AcDbEntity
  8
Object
100
AcDbLine
 10
2.150901684902704
 20
7.101887631876234
 30
0.0
 11
2.176901684902704
 21
7.112887631876234
 31
0.0
  0
LINE
  5
D23
330
1F
100
AcDbEntity
  8
Object
100
AcDbLine
 10
2.176901684902704
 20
7.112887631876234
 30
0.0
 11
2.176901684902704
 21
7.089887631876234
 31
0.0
  0
LINE
  5
D24
330
1F
100
AcDbEntity
  8
Object
100
AcDbLine
 10
2.147901684902704
 20
7.038887631876234
 30
0.0
 11
2.150901684902704
 21
7.037887631876234
 31
0.0
  0
LINE
  5
D25
330
1F
100
AcDbEntity
  8
Object
100
AcDbLine
 10
2.150901684902704
 20
7.037887631876234
 30
0.0
 11
2.152901684902704
 21
7.035887631876234
 31
0.0
  0
LINE
  5
D26
330
1F
100
AcDbEntity
  8
Object
100
AcDbLine
 10
2.152901684902704
 20
7.035887631876234
 30
0.0
 11
2.153901684902704
 21
7.032887631876234
 31
0.0
  0
LINE
  5
D27
330
1F
100
AcDbEntity
  8
Object
100
AcDbLine
 10
2.153901684902704
 20
7.032887631876234
 30
0.0
 11
2.153901684902704
 21
7.020887631876234
 31
0.0
  0
LINE
  5
D28
330
1F
100
AcDbEntity
  8
Object
100
AcDbLine
 10
2.116901684902704
 20
7.038887631876234
 30
0.0
 11
2.113901684902704
 21
7.037887631876234
 31
0.0
  0
LINE
  5
D29
330
1F
100
AcDbEntity
  8
Object
100
AcDbLine
 10
2.113901684902704
 20
7.037887631876234
 30
0.0
 11
2.111901684902703
 21
7.035887631876234
 31
0.0
  0
LINE
  5
D2A
330
1F
100
AcDbEntity
  8
Object
100
AcDbLine
 10
2.111901684902703
 20
7.035887631876234
 30
0.0
 11
2.110901684902704
 21
7.032887631876234
 31
0.0
  0
LINE
  5
D2B
330
1F
100
AcDbEntity
  8
Object
100
AcDbLine
 10
2.110901684902704
 20
7.032887631876234
 30
0.0
 11
2.110901684902704
 21
7.020887631876234
 31
0.0
  0
LINE
  5
D2C
330
1F
100
AcDbEntity
  8
Object
100
AcDbLine
 10
2.147901684902704
 20
7.038887631876234
 30
0.0
 11
2.116901684902704
 21
7.038887631876234
 31
0.0
  0
LINE
  5
D2D
330
1F
100
AcDbEntity
  8
Object
100
AcDbLine
 10
2.110901684902704
 20
7.020887631876234
 30
0.0
 11
2.153901684902704
 21
7.020887631876234
 31
0.0
  0
LINE
  5
D2E
330
1F
100
AcDbEntity
  8
Object
100
AcDbLine
 10
2.183901684902703
 20
7.268887631876234
 30
0.0
 11
2.186901684902704
 21
7.267887631876234
 31
0.0
  0
LINE
  5
D2F
330
1F
100
AcDbEntity
  8
Object
100
AcDbLine
 10
2.186901684902704
 20
7.267887631876234
 30
0.0
 11
2.188901684902703
 21
7.265887631876234
 31
0.0
  0
LINE
  5
D30
330
1F
100
AcDbEntity
  8
Object
100
AcDbLine
 10
2.188901684902703
 20
7.265887631876234
 30
0.0
 11
2.188901684902703
 21
7.263887631876234
 31
0.0
  0
LINE
  5
D31
330
1F
100
AcDbEntity
  8
Object
100
AcDbLine
 10
2.188901684902703
 20
7.263887631876234
 30
0.0
 11
2.188901684902703
 21
7.254887631876234
 31
0.0
  0
LINE
  5
D32
330
1F
100
AcDbEntity
  8
Object
100
AcDbLine
 10
2.137901684902704
 20
7.265887631876234
 30
0.0
 11
2.139901684902704
 21
7.267887631876234
 31
0.0
  0
LINE
  5
D33
330
1F
100
AcDbEntity
  8
Object
100
AcDbLine
 10
2.139901684902704
 20
7.267887631876234
 30
0.0
 11
2.141901684902704
 21
7.268887631876234
 31
0.0
  0
LINE
  5
D34
330
1F
100
AcDbEntity
  8
Object
100
AcDbLine
 10
2.137901684902704
 20
7.265887631876234
 30
0.0
 11
2.137901684902704
 21
7.263887631876234
 31
0.0
  0
LINE
  5
D35
330
1F
100
AcDbEntity
  8
Object
100
AcDbLine
 10
2.137901684902704
 20
7.263887631876234
 30
0.0
 11
2.137901684902704
 21
7.254887631876234
 31
0.0
  0
LINE
  5
D36
330
1F
100
AcDbEntity
  8
Object
100
AcDbLine
 10
2.183901684902703
 20
7.268887631876234
 30
0.0
 11
2.141901684902704
 21
7.268887631876234
 31
0.0
  0
LINE
  5
D37
330
1F
100
AcDbEntity
  8
Object
100
AcDbLine
 10
2.137901684902704
 20
7.254887631876234
 30
0.0
 11
2.188901684902703
 21
7.254887631876234
 31
0.0
  0
LEADER
  5
DE7
102
{ACAD_XDICTIONARY
360
DE9
102
}
102
{ACAD_REACTORS
330
DEA
102
}
330
1F
100
AcDbEntity
  8
Dimension
100
AcDbLeader
  3
Standard
 73
     0
 40
0.1260526315789474
 41
1.054210526315789
 76
     3
 10
3.161901684902704
 20
6.906887631876234
 30
0.0
 10
3.667736388450528
 20
6.194235747372111
 30
0.0
 10
3.811771067831074
 20
6.194235747372111
 30
0.0
340
DE8
213
0.0
223
-0.045
233
0.0
1001
ACAD
1000
DSTYLE
1002
{
1070
   147
1040
0.09
1070
    77
1070
     0
1002
}
  0
MTEXT
  5
DE8
102
{ACAD_REACTORS
330
DE7
102
}
330
1F
100
AcDbEntity
  8
Dimension
100
AcDbMText
 10
3.901771067831074
 20
6.239235747372111
 30
0.0
 40
0.09
 41
0.0
 71
     1
 72
     1
  1
0.66 [16.8mm] DIA
 73
     1
 44
1.0
1001
ACAD
1000
MTEXTBEGIN
1070
    73
1070
     1
1070
    44
1040
1.0
1070
    74
1070
     0
1000
MTEXTEND
  0
ENDSEC
  0
SECTION
  2
OBJECTS
  0
DICTIONARY
  5
C
330
0
100
AcDbDictionary
281
     1
  3
ACAD_COLOR
350
73
  3
ACAD_GROUP
350
D
  3
ACAD_LAYOUT
350
1A
  3
ACAD_MATERIAL
350
72
  3
ACAD_MLINESTYLE
350
17
  3
ACAD_PLOTSETTINGS
350
19
  3
ACAD_PLOTSTYLENAME
350
E
  3
ACAD_TABLESTYLE
350
86
  3
ACDBHEADERROUNDTRIPXREC
350
E0A
  3
AcDbVariableDictionary
350
66
  0
DICTIONARY
  5
582
330
2
100
AcDbDictionary
280
     1
281
     1
  3
ACAD_LAYERFILTERS
360
584
  3
ACLYDICTIONARY
360
583
  0
DICTIONARY
  5
57F
330
1F
100
AcDbDictionary
280
     1
281
     1
  3
ACAD_SORTENTS
360
580
  0
DICTIONARY
  5
E11
330
99C
100
AcDbDictionary
280
     1
281
     1
  3
ACAD_MTEXT_RT
360
E12
  0
DICTIONARY
  5
DE9
330
DE7
100
AcDbDictionary
280
     1
281
     1
  3
ACAD_DIMASSOC
360
DEA
  0
DICTIONARY
  5
73
102
{ACAD_REACTORS
330
C
102
}
330
C
100
AcDbDictionary
281
     1
  0
DICTIONARY
  5
D
102
{ACAD_REACTORS
330
C
102
}
330
C
100
AcDbDictionary
281
     1
  0
DICTIONARY
  5
1A
102
{ACAD_REACTORS
330
C
102
}
330
C
100
AcDbDictionary
281
     1
  3
Layout1
350
59
  3
Layout2
350
5E
  3
Model
350
22
  0
DICTIONARY
  5
72
102
{ACAD_REACTORS
330
C
102
}
330
C
100
AcDbDictionary
281
     1
  0
DICTIONARY
  5
17
102
{ACAD_REACTORS
330
C
102
}
330
C
100
AcDbDictionary
281
     1
  3
Standard
350
18
  0
DICTIONARY
  5
19
102
{ACAD_REACTORS
330
C
102
}
330
C
100
AcDbDictionary
281
     1
  0
ACDBDICTIONARYWDFLT
  5
E
102
{ACAD_REACTORS
330
C
102
}
330
C
100
AcDbDictionary
281
     1
  3
Normal
350
F
100
AcDbDictionaryWithDefault
340
F
  0
DICTIONARY
  5
86
102
{ACAD_REACTORS
330
C
102
}
330
C
100
AcDbDictionary
281
     1
  3
Standard
350
87
  0
DICTIONARY
  5
E0A
102
{ACAD_REACTORS
330
C
102
}
330
C
100
AcDbDictionary
281
     1
  0
DICTIONARY
  5
66
102
{ACAD_REACTORS
330
C
102
}
330
C
100
AcDbDictionary
281
     1
  3
CTABLESTYLE
350
586
  3
DIMASSOC
350
67
  3
HIDETEXT
350
6B
  3
PROJECTNAME
350
9B0
  0
DICTIONARY
  5
584
102
{ACAD_REACTORS
330
582
102
}
330
582
100
AcDbDictionary
281
     1
  0
DICTIONARY
  5
583
102
{ACAD_REACTORS
330
582
102
}
330
582
100
AcDbDictionary
281
     1
1001
ACAD
1000
<All
  0
SORTENTSTABLE
  5
580
102
{ACAD_REACTORS
330
57F
102
}
330
57F
100
AcDbSortentsTable
330
1F
331
56F
  5
219
331
538
  5
1E2
331
57C
  5
226
331
546
  5
1F0
331
560
  5
20A
331
553
  5
1FD
331
56D
  5
217
331
544
  5
1EE
331
57A
  5
224
331
551
  5
1FB
331
56B
  5
215
331
55E
  5
208
331
542
  5
1EC
331
578
  5
222
331
54F
  5
1F9
331
569
  5
213
331
55C
  5
206
331
540
  5
1EA
331
53F
  5
1E9
331
54D
  5
1F7
331
567
  5
211
331
55A
  5
204
331
574
  5
21E
331
53D
  5
1E7
331
54B
  5
1F5
331
565
  5
20F
331
558
  5
202
331
572
  5
21C
331
53B
  5
1E5
331
549
  5
1F3
331
563
  5
20D
331
556
  5
200
331
570
  5
21A
331
539
  5
1E3
331
547
  5
1F1
331
57D
  5
227
331
561
  5
20B
331
554
  5
1FE
331
56E
  5
218
331
537
  5
1E1
331
57B
  5
225
331
545
  5
1EF
331
552
  5
1FC
331
56C
  5
216
331
55F
  5
209
331
543
  5
1ED
331
579
  5
223
331
550
  5
1FA
331
56A
  5
214
331
55D
  5
207
331
577
  5
221
331
541
  5
1EB
331
54E
  5
1F8
331
568
  5
212
331
55B
  5
205
331
54C
  5
1F6
331
53E
  5
1E8
331
566
  5
210
331
559
  5
203
331
573
  5
21D
331
53C
  5
1E6
331
54A
  5
1F4
331
564
  5
20E
331
557
  5
201
331
571
  5
21B
331
53A
  5
1E4
331
548
  5
1F2
331
562
  5
20C
331
555
  5
1FF
  0
XRECORD
  5
E12
102
{ACAD_REACTORS
330
E11
102
}
330
E11
100
AcDbXrecord
280
     1
 40
3202234.0
  1
\A1;{\LNOTES:\P\P\pi-0.18,l0.18;}1.  THE FIBER ROUTING 2-PIECE LADDER RACK BRACKET -{\H0.75x;\S5#8;}" (M16) THREADED ROD INCLUDES:\P\pi0,l0;\P\pi0.18;TWO (2) BRACKET CLIPS,\PTWO (2) {\H0.75x;\S5#8;}" HELICAL SPRING LOCKWASHERS,\PTWO (2) {\H0.75x;\S5#
  1
8;}-11 HEAVY HEX NUTS (F2PCLB58 ONLY),\PTWO (2) M16x2 HEX NUTS (F2PCLB58M ONLY).
  0
DIMASSOC
  5
DEA
102
{ACAD_REACTORS
330
DE9
102
}
330
DE9
100
AcDbDimAssoc
330
DE7
 90
        1
 70
     0
 71
     0
  1
AcDbOsnapPointRef
 72
    13
331
CA9
 73
     2
 91
        0
 40
0.0
 10
0.0
 20
0.0
 30
2.000000000000000E+50
 75
     0
  0
LAYOUT
  5
59
102
{ACAD_XDICTIONARY
360
E0D
102
}
102
{ACAD_REACTORS
330
1A
102
}
330
1A
100
AcDbPlotSettings
  1

  2
None
  4

  6

 40
0.0
 41
0.0
 42
0.0
 43
0.0
 44
0.0
 45
0.0
 46
0.0
 47
0.0
 48
0.0
 49
0.0
140
0.0
141
0.0
142
1.0
143
1.0
 70
   688
 72
     0
 73
     0
 74
     5
  7

 75
    16
147
1.0
148
0.0
149
0.0
100
AcDbLayout
  1
Layout1
 70
     1
 71
     1
 10
0.0
 20
0.0
 11
12.0
 21
9.0
 12
0.0
 22
0.0
 32
0.0
 14
0.0
 24
0.0
 34
0.0
 15
0.0
 25
0.0
 35
0.0
146
0.0
 13
0.0
 23
0.0
 33
0.0
 16
1.0
 26
0.0
 36
0.0
 17
0.0
 27
1.0
 37
0.0
 76
     0
330
58
  0
LAYOUT
  5
5E
102
{ACAD_XDICTIONARY
360
E0F
102
}
102
{ACAD_REACTORS
330
1A
102
}
330
1A
100
AcDbPlotSettings
  1

  2
None
  4

  6

 40
0.0
 41
0.0
 42
0.0
 43
0.0
 44
0.0
 45
0.0
 46
0.0
 47
0.0
 48
0.0
 49
0.0
140
0.0
141
0.0
142
1.0
143
1.0
 70
   688
 72
     0
 73
     0
 74
     5
  7

 75
    16
147
1.0
148
0.0
149
0.0
100
AcDbLayout
  1
Layout2
 70
     1
 71
     2
 10
0.0
 20
0.0
 11
12.0
 21
9.0
 12
0.0
 22
0.0
 32
0.0
 14
0.0
 24
0.0
 34
0.0
 15
0.0
 25
0.0
 35
0.0
146
0.0
 13
0.0
 23
0.0
 33
0.0
 16
1.0
 26
0.0
 36
0.0
 17
0.0
 27
1.0
 37
0.0
 76
     0
330
5D
  0
LAYOUT
  5
22
102
{ACAD_XDICTIONARY
360
E0B
102
}
102
{ACAD_REACTORS
330
1A
102
}
330
1A
100
AcDbPlotSettings
  1

  2
none_device
  4
ANSI_A_(8.50_x_11.00_Inches)
  6

 40
6.349999904632568
 41
19.04999923706055
 42
6.350006103515625
 43
19.04998779296875
 44
215.8999938964844
 45
279.3999938964844
 46
0.0
 47
0.0
 48
0.0
 49
0.0
140
0.0
141
0.0
142
1.0
143
2.584895464708373
 70
 11952
 72
     0
 73
     1
 74
     0
  7

 75
     0
147
0.3868628397755418
148
0.0
149
0.0
100
AcDbLayout
  1
Model
 70
     1
 71
     0
 10
0.0
 20
0.0
 11
12.0
 21
9.0
 12
0.0
 22
0.0
 32
0.0
 14
0.0
 24
0.0
 34
0.0
 15
0.0
 25
0.0
 35
0.0
146
0.0
 13
0.0
 23
0.0
 33
0.0
 16
1.0
 26
0.0
 36
0.0
 17
0.0
 27
1.0
 37
0.0
 76
     0
330
1F
  0
MLINESTYLE
  5
18
102
{ACAD_REACTORS
330
17
102
}
330
17
100
AcDbMlineStyle
  2
STANDARD
 70
     0
  3

 62
   256
 51
90.0
 52
90.0
 71
     2
 49
0.5
 62
   256
  6
BYLAYER
 49
-0.5
 62
   256
  6
BYLAYER
  0
ACDBPLACEHOLDER
  5
F
102
{ACAD_REACTORS
330
E
102
}
330
E
  0
TABLESTYLE
  5
87
102
{ACAD_REACTORS
330
86
102
}
330
86
100
AcDbTableStyle
  3
Standard
 70
     0
 71
     0
 40
0.06
 41
0.06
280
     0
281
     0
  7
Standard
140
0.18
170
     2
 62
     0
 63
     7
283
     0
274
    -2
284
     1
 64
     0
275
    -2
285
     1
 65
     0
276
    -2
286
     1
 66
     0
277
    -2
287
     1
 67
     0
278
    -2
288
     1
 68
     0
279
    -2
289
     1
 69
     0
  7
Standard
140
0.25
170
     5
 62
     0
 63
     7
283
     0
274
    -2
284
     1
 64
     0
275
    -2
285
     1
 65
     0
276
    -2
286
     1
 66
     0
277
    -2
287
     1
 67
     0
278
    -2
288
     1
 68
     0
279
    -2
289
     1
 69
     0
  7
Standard
140
0.18
170
     5
 62
     0
 63
     7
283
     0
274
    -2
284
     1
 64
     0
275
    -2
285
     1
 65
     0
276
    -2
286
     1
 66
     0
277
    -2
287
     1
 67
     0
278
    -2
288
     1
 68
     0
279
    -2
289
     1
 69
     0
  0
DICTIONARYVAR
  5
586
102
{ACAD_REACTORS
330
66
102
}
330
66
100
DictionaryVariables
280
     0
  1
STANDARD
  0
DICTIONARYVAR
  5
67
102
{ACAD_REACTORS
330
66
102
}
330
66
100
DictionaryVariables
280
     0
  1
2
  0
DICTIONARYVAR
  5
6B
102
{ACAD_REACTORS
330
66
102
}
330
66
100
DictionaryVariables
280
     0
  1
1
  0
DICTIONARYVAR
  5
9B0
102
{ACAD_REACTORS
330
66
102
}
330
66
100
DictionaryVariables
280
     0
  1

  0
DICTIONARY
  5
E0D
330
59
100
AcDbDictionary
280
     1
281
     1
  3
ACAD_XREC_ROUNDTRIP
360
E0E
  0
DICTIONARY
  5
E0F
330
5E
100
AcDbDictionary
280
     1
281
     1
  3
ACAD_XREC_ROUNDTRIP
360
E10
  0
DICTIONARY
  5
E0B
330
22
100
AcDbDictionary
280
     1
281
     1
  3
ACAD_XREC_ROUNDTRIP
360
E0C
  0
XRECORD
  5
E0E
102
{ACAD_REACTORS
330
E0D
102
}
330
E0D
100
AcDbXrecord
280
     1
102
SHADEPLOT
 70
     0
102
SHADEPLOTRESLEVEL
 70
     2
102
SHADEPLOTCUSTOMDPI
 70
   300
  0
XRECORD
  5
E10
102
{ACAD_REACTORS
330
E0F
102
}
330
E0F
100
AcDbXrecord
280
     1
102
SHADEPLOT
 70
     0
102
SHADEPLOTRESLEVEL
 70
     2
102
SHADEPLOTCUSTOMDPI
 70
   300
  0
XRECORD
  5
E0C
102
{ACAD_REACTORS
330
E0B
102
}
330
E0B
100
AcDbXrecord
280
     1
102
SHADEPLOT
 70
     0
102
SHADEPLOTRESLEVEL
 70
     2
102
SHADEPLOTCUSTOMDPI
 70
   300
  0
ENDSEC
  0
EOF
