  0
SECTION
  2
HEADER
  9
$ACADVER
  1
AC1015
  9
$ACADMAINTVER
 70
    20
  9
$DWGCODEPAGE
  3
ANSI_1252
  9
$INSBASE
 10
0.0
 20
0.0
 30
0.0
  9
$EXTMIN
 10
-0.075
 20
-0.075
 30
0.0
  9
$EXTMAX
 10
22.075
 20
17.075
 30
0.0
  9
$LIMMIN
 10
0.0
 20
0.0
  9
$LIMMAX
 10
12.0
 20
9.0
  9
$ORTHOMODE
 70
     0
  9
$REGENMODE
 70
     1
  9
$FILLMODE
 70
     1
  9
$QTEXTMODE
 70
     0
  9
$MIRRTEXT
 70
     1
  9
$LTSCALE
 40
1.0
  9
$ATTMODE
 70
     1
  9
$TEXTSIZE
 40
0.09
  9
$TRACEWID
 40
0.05
  9
$TEXTSTYLE
  7
STANDARD
  9
$CLAYER
  8
0
  9
$CELTYPE
  6
BYLAYER
  9
$CECOLOR
 62
   256
  9
$CELTSCALE
 40
1.0
  9
$DISPSILH
 70
     0
  9
$DIMSCALE
 40
1.0
  9
$DIMASZ
 40
0.125
  9
$DIMEXO
 40
0.0625
  9
$DIMDLI
 40
0.38
  9
$DIMRND
 40
0.0
  9
$DIMDLE
 40
0.0
  9
$DIMEXE
 40
0.125
  9
$DIMTP
 40
0.0
  9
$DIMTM
 40
0.0
  9
$DIMTXT
 40
0.09
  9
$DIMCEN
 40
0.09
  9
$DIMTSZ
 40
0.0
  9
$DIMTOL
 70
     0
  9
$DIMLIM
 70
     0
  9
$DIMTIH
 70
     1
  9
$DIMTOH
 70
     1
  9
$DIMSE1
 70
     0
  9
$DIMSE2
 70
     0
  9
$DIMTAD
 70
     0
  9
$DIMZIN
 70
     0
  9
$DIMBLK
  1

  9
$DIMASO
 70
     1
  9
$DIMSHO
 70
     1
  9
$DIMPOST
  1

  9
$DIMAPOST
  1
mm
  9
$DIMALT
 70
     1
  9
$DIMALTD
 70
     1
  9
$DIMALTF
 40
25.4
  9
$DIMLFAC
 40
1.0
  9
$DIMTOFL
 70
     0
  9
$DIMTVP
 40
0.0
  9
$DIMTIX
 70
     0
  9
$DIMSOXD
 70
     0
  9
$DIMSAH
 70
     0
  9
$DIMBLK1
  1

  9
$DIMBLK2
  1

  9
$DIMSTYLE
  2
STANDARD
  9
$DIMCLRD
 70
     0
  9
$DIMCLRE
 70
     0
  9
$DIMCLRT
 70
     0
  9
$DIMTFAC
 40
1.0
  9
$DIMGAP
 40
0.09
  9
$DIMJUST
 70
     0
  9
$DIMSD1
 70
     0
  9
$DIMSD2
 70
     0
  9
$DIMTOLJ
 70
     1
  9
$DIMTZIN
 70
     0
  9
$DIMALTZ
 70
     0
  9
$DIMALTTZ
 70
     0
  9
$DIMUPT
 70
     0
  9
$DIMDEC
 70
     2
  9
$DIMTDEC
 70
     2
  9
$DIMALTU
 70
     2
  9
$DIMALTTD
 70
     1
  9
$DIMTXSTY
  7
STANDARD
  9
$DIMAUNIT
 70
     0
  9
$DIMADEC
 70
     0
  9
$DIMALTRND
 40
0.0
  9
$DIMAZIN
 70
     0
  9
$DIMDSEP
 70
    46
  9
$DIMATFIT
 70
     3
  9
$DIMFRAC
 70
     0
  9
$DIMLDRBLK
  1

  9
$DIMLUNIT
 70
     2
  9
$DIMLWD
 70
    -2
  9
$DIMLWE
 70
    -2
  9
$DIMTMOVE
 70
     0
  9
$LUNITS
 70
     2
  9
$LUPREC
 70
     2
  9
$SKETCHINC
 40
0.1
  9
$FILLETRAD
 40
0.5
  9
$AUNITS
 70
     0
  9
$AUPREC
 70
     0
  9
$MENU
  1
.
  9
$ELEVATION
 40
0.0
  9
$PELEVATION
 40
0.0
  9
$THICKNESS
 40
0.0
  9
$LIMCHECK
 70
     0
  9
$CHAMFERA
 40
0.5
  9
$CHAMFERB
 40
0.5
  9
$CHAMFERC
 40
1.0
  9
$CHAMFERD
 40
0.0
  9
$SKPOLY
 70
     0
  9
$TDCREATE
 40
2451681.555436007
  9
$TDUCREATE
 40
2451681.763769340
  9
$TDUPDATE
 40
2454294.650447500
  9
$TDUUPDATE
 40
2454294.858780833
  9
$TDINDWG
 40
0.2219091435
  9
$TDUSRTIMER
 40
0.2219091435
  9
$USRTIMER
 70
     1
  9
$ANGBASE
 50
0.0
  9
$ANGDIR
 70
     0
  9
$PDMODE
 70
     2
  9
$PDSIZE
 40
0.075
  9
$PLINEWID
 40
0.0
  9
$SPLFRAME
 70
     0
  9
$SPLINETYPE
 70
     6
  9
$SPLINESEGS
 70
     8
  9
$HANDSEED
  5
B17
  9
$SURFTAB1
 70
     6
  9
$SURFTAB2
 70
     6
  9
$SURFTYPE
 70
     6
  9
$SURFU
 70
     6
  9
$SURFV
 70
     6
  9
$UCSBASE
  2

  9
$UCSNAME
  2

  9
$UCSORG
 10
0.0
 20
0.0
 30
0.0
  9
$UCSXDIR
 10
1.0
 20
0.0
 30
0.0
  9
$UCSYDIR
 10
0.0
 20
1.0
 30
0.0
  9
$UCSORTHOREF
  2

  9
$UCSORTHOVIEW
 70
     0
  9
$UCSORGTOP
 10
0.0
 20
0.0
 30
0.0
  9
$UCSORGBOTTOM
 10
0.0
 20
0.0
 30
0.0
  9
$UCSORGLEFT
 10
0.0
 20
0.0
 30
0.0
  9
$UCSORGRIGHT
 10
0.0
 20
0.0
 30
0.0
  9
$UCSORGFRONT
 10
0.0
 20
0.0
 30
0.0
  9
$UCSORGBACK
 10
0.0
 20
0.0
 30
0.0
  9
$PUCSBASE
  2

  9
$PUCSNAME
  2

  9
$PUCSORG
 10
0.0
 20
0.0
 30
0.0
  9
$PUCSXDIR
 10
1.0
 20
0.0
 30
0.0
  9
$PUCSYDIR
 10
0.0
 20
1.0
 30
0.0
  9
$PUCSORTHOREF
  2

  9
$PUCSORTHOVIEW
 70
     0
  9
$PUCSORGTOP
 10
0.0
 20
0.0
 30
0.0
  9
$PUCSORGBOTTOM
 10
0.0
 20
0.0
 30
0.0
  9
$PUCSORGLEFT
 10
0.0
 20
0.0
 30
0.0
  9
$PUCSORGRIGHT
 10
0.0
 20
0.0
 30
0.0
  9
$PUCSORGFRONT
 10
0.0
 20
0.0
 30
0.0
  9
$PUCSORGBACK
 10
0.0
 20
0.0
 30
0.0
  9
$USERI1
 70
     0
  9
$USERI2
 70
     0
  9
$USERI3
 70
     0
  9
$USERI4
 70
     0
  9
$USERI5
 70
     0
  9
$USERR1
 40
0.0
  9
$USERR2
 40
0.0
  9
$USERR3
 40
0.0
  9
$USERR4
 40
0.0
  9
$USERR5
 40
0.0
  9
$WORLDVIEW
 70
     1
  9
$SHADEDGE
 70
     3
  9
$SHADEDIF
 70
    70
  9
$TILEMODE
 70
     1
  9
$MAXACTVP
 70
    48
  9
$PINSBASE
 10
0.0
 20
0.0
 30
0.0
  9
$PLIMCHECK
 70
     0
  9
$PEXTMIN
 10
1.000000000000000E+20
 20
1.000000000000000E+20
 30
1.000000000000000E+20
  9
$PEXTMAX
 10
-1.000000000000000E+20
 20
-1.000000000000000E+20
 30
-1.000000000000000E+20
  9
$PLIMMIN
 10
0.0
 20
0.0
  9
$PLIMMAX
 10
12.0
 20
9.0
  9
$UNITMODE
 70
     0
  9
$VISRETAIN
 70
     1
  9
$PLINEGEN
 70
     0
  9
$PSLTSCALE
 70
     1
  9
$TREEDEPTH
 70
  3020
  9
$CMLSTYLE
  2
STANDARD
  9
$CMLJUST
 70
     0
  9
$CMLSCALE
 40
1.0
  9
$PROXYGRAPHICS
 70
     1
  9
$MEASUREMENT
 70
     0
  9
$CELWEIGHT
370
    -1
  9
$ENDCAPS
280
     0
  9
$JOINSTYLE
280
     0
  9
$LWDISPLAY
290
     0
  9
$INSUNITS
 70
     0
  9
$HYPERLINKBASE
  1

  9
$STYLESHEET
  1

  9
$XEDIT
290
     1
  9
$CEPSNTYPE
380
     0
  9
$PSTYLEMODE
290
     1
  9
$FINGERPRINTGUID
  2
{71EC7F31-AA06-4ECF-8D30-7E7FC2EDBC33}
  9
$VERSIONGUID
  2
{F1A35605-8C87-4CDE-B3F0-5F1C2D5FF409}
  9
$EXTNAMES
290
     1
  9
$PSVPSCALE
 40
0.0
  9
$OLESTARTUP
290
     0
  0
ENDSEC
  0
SECTION
  2
CLASSES
  0
CLASS
  1
ACDBDICTIONARYWDFLT
  2
AcDbDictionaryWithDefault
  3
ObjectDBX Classes
 90
        0
280
     0
281
     0
  0
CLASS
  1
TABLESTYLE
  2
AcDbTableStyle
  3
ObjectDBX Classes
 90
     2047
280
     0
281
     0
  0
CLASS
  1
DICTIONARYVAR
  2
AcDbDictionaryVar
  3
ObjectDBX Classes
 90
        0
280
     0
281
     0
  0
CLASS
  1
ACDBPLACEHOLDER
  2
AcDbPlaceHolder
  3
ObjectDBX Classes
 90
        0
280
     0
281
     0
  0
CLASS
  1
LAYOUT
  2
AcDbLayout
  3
ObjectDBX Classes
 90
        0
280
     0
281
     0
  0
ENDSEC
  0
SECTION
  2
TABLES
  0
TABLE
  2
VPORT
  5
8
330
0
100
AcDbSymbolTable
 70
     2
  0
VPORT
  5
B11
330
8
100
AcDbSymbolTableRecord
100
AcDbViewportTableRecord
  2
*Active
 70
     0
 10
0.0
 20
0.0
 11
1.0
 21
1.0
 12
11.00000010314714
 22
9.103929070580019
 13
0.0
 23
0.0
 14
0.5
 24
0.5
 15
0.5
 25
0.5
 16
0.0
 26
0.0
 36
1.0
 17
0.0
 27
0.0
 37
0.0
 40
18.4699008689387
 41
1.499364675984752
 42
50.0
 43
0.0
 44
0.0
 50
0.0
 51
0.0
 71
     0
 72
   100
 73
     1
 74
     1
 75
     0
 76
     0
 77
     0
 78
     0
281
     0
 65
     1
110
0.0
120
0.0
130
0.0
111
1.0
121
0.0
131
0.0
112
0.0
122
1.0
132
0.0
 79
     0
146
0.0
  0
ENDTAB
  0
TABLE
  2
LTYPE
  5
5
330
0
100
AcDbSymbolTable
 70
     1
  0
LTYPE
  5
12
330
5
100
AcDbSymbolTableRecord
100
AcDbLinetypeTableRecord
  2
BYBLOCK
 70
     0
  3

 72
    65
 73
     0
 40
0.0
  0
LTYPE
  5
13
330
5
100
AcDbSymbolTableRecord
100
AcDbLinetypeTableRecord
  2
BYLAYER
 70
     0
  3

 72
    65
 73
     0
 40
0.0
  0
LTYPE
  5
14
330
5
100
AcDbSymbolTableRecord
100
AcDbLinetypeTableRecord
  2
CONTINUOUS
 70
     0
  3
Solid line
 72
    65
 73
     0
 40
0.0
  0
ENDTAB
  0
TABLE
  2
LAYER
  5
2
102
{ACAD_XDICTIONARY
360
154
102
}
330
0
100
AcDbSymbolTable
 70
     6
  0
LAYER
  5
E
330
2
100
AcDbSymbolTableRecord
100
AcDbLayerTableRecord
  2
0
 70
     0
 62
     7
  6
CONTINUOUS
370
    -3
390
10B
  0
LAYER
  5
20
330
2
100
AcDbSymbolTableRecord
100
AcDbLayerTableRecord
  2
Title Block
 70
     0
 62
     3
  6
CONTINUOUS
370
    -3
390
10B
  0
LAYER
  5
21
330
2
100
AcDbSymbolTableRecord
100
AcDbLayerTableRecord
  2
Dimension
 70
     0
 62
     6
  6
CONTINUOUS
370
    -3
390
10B
  0
LAYER
  5
22
330
2
100
AcDbSymbolTableRecord
100
AcDbLayerTableRecord
  2
Text
 70
     0
 62
     1
  6
CONTINUOUS
370
    -3
390
10B
  0
LAYER
  5
23
330
2
100
AcDbSymbolTableRecord
100
AcDbLayerTableRecord
  2
Object
 70
     0
 62
     5
  6
CONTINUOUS
370
    -3
390
10B
  0
LAYER
  5
179
330
2
100
AcDbSymbolTableRecord
100
AcDbLayerTableRecord
  2
Defpoints
 70
     0
 62
     7
  6
CONTINUOUS
290
     0
370
    -3
390
10B
  0
ENDTAB
  0
TABLE
  2
STYLE
  5
3
330
0
100
AcDbSymbolTable
 70
     1
  0
STYLE
  5
F
330
3
100
AcDbSymbolTableRecord
100
AcDbTextStyleTableRecord
  2
STANDARD
 70
     0
 40
0.0
 41
1.0
 50
0.0
 71
     0
 42
0.09
  3
technic_.ttf
  4

1001
ACAD
1000
Technic
1071
      514
  0
ENDTAB
  0
TABLE
  2
VIEW
  5
6
330
0
100
AcDbSymbolTable
 70
     0
  0
ENDTAB
  0
TABLE
  2
UCS
  5
7
330
0
100
AcDbSymbolTable
 70
     0
  0
ENDTAB
  0
TABLE
  2
APPID
  5
9
330
0
100
AcDbSymbolTable
 70
     4
  0
APPID
  5
10
330
9
100
AcDbSymbolTableRecord
100
AcDbRegAppTableRecord
  2
ACAD
 70
     0
  0
APPID
  5
149
330
9
100
AcDbSymbolTableRecord
100
AcDbRegAppTableRecord
  2
DCO15
 70
     0
  0
APPID
  5
153
330
9
100
AcDbSymbolTableRecord
100
AcDbRegAppTableRecord
  2
AcAecLayerStandard
 70
     0
  0
APPID
  5
1A9
330
9
100
AcDbSymbolTableRecord
100
AcDbRegAppTableRecord
  2
ACAD_DSTYLE_DIMTEXT_FILL
 70
     0
  0
ENDTAB
  0
TABLE
  2
DIMSTYLE
  5
A
330
0
100
AcDbSymbolTable
 70
     1
100
AcDbDimStyleTable
 71
     1
340
1D
  0
DIMSTYLE
105
1D
102
{ACAD_REACTORS
330
A96
330
AA4
330
AB2
102
}
330
A
100
AcDbSymbolTableRecord
100
AcDbDimStyleTableRecord
  2
STANDARD
 70
     0
  4
mm
 41
0.125
 44
0.125
140
0.09
170
     1
171
     1
271
     2
272
     2
274
     1
340
F
  0
ENDTAB
  0
TABLE
  2
BLOCK_RECORD
  5
1
330
0
100
AcDbSymbolTable
 70
     3
  0
BLOCK_RECORD
  5
18
330
1
100
AcDbSymbolTableRecord
100
AcDbBlockTableRecord
  2
*MODEL_SPACE
340
112
  0
BLOCK_RECORD
  5
15
330
1
100
AcDbSymbolTableRecord
100
AcDbBlockTableRecord
  2
*PAPER_SPACE
340
113
  0
BLOCK_RECORD
  5
A97
330
1
100
AcDbSymbolTableRecord
100
AcDbBlockTableRecord
  2
*D0
340
0
  0
BLOCK_RECORD
  5
AA5
330
1
100
AcDbSymbolTableRecord
100
AcDbBlockTableRecord
  2
*D1
340
0
  0
BLOCK_RECORD
  5
AB3
330
1
100
AcDbSymbolTableRecord
100
AcDbBlockTableRecord
  2
*D2
340
0
  0
ENDTAB
  0
ENDSEC
  0
SECTION
  2
BLOCKS
  0
BLOCK
  5
19
330
18
100
AcDbEntity
  8
0
100
AcDbBlockBegin
  2
*MODEL_SPACE
 70
     0
 10
0.0
 20
0.0
 30
0.0
  3
*MODEL_SPACE
  1

  0
ENDBLK
  5
1A
330
18
100
AcDbEntity
  8
0
100
AcDbBlockEnd
  0
BLOCK
  5
16
330
15
100
AcDbEntity
 67
     1
  8
0
100
AcDbBlockBegin
  2
*PAPER_SPACE
 70
     0
 10
0.0
 20
0.0
 30
0.0
  3
*PAPER_SPACE
  1

  0
ENDBLK
  5
17
330
15
100
AcDbEntity
 67
     1
  8
0
100
AcDbBlockEnd
  0
BLOCK
  5
AA2
330
A97
100
AcDbEntity
  8
0
100
AcDbBlockBegin
  2
*D0
 70
     1
 10
0.0
 20
0.0
 30
0.0
  3
*D0
  1

  0
LINE
  5
A98
330
A97
100
AcDbEntity
  8
Dimension
 62
     0
370
    -2
100
AcDbLine
 10
11.0475
 20
14.94490094830544
 30
0.0
 11
12.73590378058507
 21
14.94490094830544
 31
0.0
  0
LINE
  5
A99
330
A97
100
AcDbEntity
  8
Dimension
 62
     0
370
    -2
100
AcDbLine
 10
11.0475
 20
12.94490094830544
 30
0.0
 11
12.73590378058507
 21
12.94490094830544
 31
0.0
  0
LINE
  5
A9A
330
A97
100
AcDbEntity
  8
Dimension
 62
     0
370
    -2
100
AcDbLine
 10
12.61090378058507
 20
14.81990094830544
 30
0.0
 11
12.61090378058507
 21
14.09792726409491
 31
0.0
  0
LINE
  5
A9B
330
A97
100
AcDbEntity
  8
Dimension
 62
     0
370
    -2
100
AcDbLine
 10
12.61090378058507
 20
13.06990094830543
 30
0.0
 11
12.61090378058507
 21
13.79187463251596
 31
0.0
  0
SOLID
  5
A9C
330
A97
100
AcDbEntity
  8
Dimension
 62
     0
100
AcDbTrace
 10
12.59007044725174
 20
14.81990094830544
 30
0.0
 11
12.63173711391841
 21
14.81990094830544
 31
0.0
 12
12.61090378058507
 22
14.94490094830544
 32
0.0
 13
12.61090378058507
 23
14.94490094830544
 33
0.0
  0
SOLID
  5
A9D
330
A97
100
AcDbEntity
  8
Dimension
 62
     0
100
AcDbTrace
 10
12.59007044725174
 20
13.06990094830543
 30
0.0
 11
12.63173711391841
 21
13.06990094830543
 31
0.0
 12
12.61090378058507
 22
12.94490094830544
 32
0.0
 13
12.61090378058507
 23
12.94490094830544
 33
0.0
  0
MTEXT
  5
A9E
330
A97
100
AcDbEntity
  8
Dimension
 62
     0
100
AcDbMText
 10
12.61090378058507
 20
13.94490094830544
 30
0.0
 40
0.09
 41
0.0
 71
     5
 72
     1
  1
\A1;2.00 [50.8mm]
 73
     1
 44
1.0
1001
ACAD
1000
MTEXTBEGIN
1070
    73
1070
     1
1070
    44
1040
1.0
1070
    74
1070
     0
1000
MTEXTEND
  0
POINT
  5
A9F
330
A97
100
AcDbEntity
  8
Defpoints
 62
     0
100
AcDbPoint
 10
10.985
 20
14.94490094830544
 30
0.0
  0
POINT
  5
AA0
330
A97
100
AcDbEntity
  8
Defpoints
 62
     0
100
AcDbPoint
 10
10.985
 20
12.94490094830544
 30
0.0
  0
POINT
  5
AA1
330
A97
100
AcDbEntity
  8
Defpoints
 62
     0
100
AcDbPoint
 10
12.61090378058507
 20
12.94490094830544
 30
0.0
  0
ENDBLK
  5
AA3
330
A97
100
AcDbEntity
  8
0
100
AcDbBlockEnd
  0
BLOCK
  5
AB0
330
AA5
100
AcDbEntity
  8
0
100
AcDbBlockBegin
  2
*D1
 70
     1
 10
0.0
 20
0.0
 30
0.0
  3
*D1
  1

  0
LINE
  5
AA6
330
AA5
100
AcDbEntity
  8
Dimension
 62
     0
370
    -2
100
AcDbLine
 10
2.478999999999999
 20
8.78940094830544
 30
0.0
 11
2.478999999999999
 21
10.53847962824294
 31
0.0
  0
LINE
  5
AA7
330
AA5
100
AcDbEntity
  8
Dimension
 62
     0
370
    -2
100
AcDbLine
 10
11.36
 20
9.123400948305439
 30
0.0
 11
11.36
 21
10.53847962824294
 31
0.0
  0
LINE
  5
AA8
330
AA5
100
AcDbEntity
  8
Dimension
 62
     0
370
    -2
100
AcDbLine
 10
2.603999999999999
 20
10.41347962824294
 30
0.0
 11
6.386276315789473
 21
10.41347962824294
 31
0.0
  0
LINE
  5
AA9
330
AA5
100
AcDbEntity
  8
Dimension
 62
     0
370
    -2
100
AcDbLine
 10
11.235
 20
10.41347962824294
 30
0.0
 11
7.452723684210525
 21
10.41347962824294
 31
0.0
  0
SOLID
  5
AAA
330
AA5
100
AcDbEntity
  8
Dimension
 62
     0
100
AcDbTrace
 10
2.603999999999999
 20
10.43431296157627
 30
0.0
 11
2.603999999999999
 21
10.3926462949096
 31
0.0
 12
2.478999999999999
 22
10.41347962824294
 32
0.0
 13
2.478999999999999
 23
10.41347962824294
 33
0.0
  0
SOLID
  5
AAB
330
AA5
100
AcDbEntity
  8
Dimension
 62
     0
100
AcDbTrace
 10
11.235
 20
10.43431296157627
 30
0.0
 11
11.235
 21
10.3926462949096
 31
0.0
 12
11.36
 22
10.41347962824294
 32
0.0
 13
11.36
 23
10.41347962824294
 33
0.0
  0
MTEXT
  5
AAC
330
AA5
100
AcDbEntity
  8
Dimension
 62
     0
100
AcDbMText
 10
6.919499999999999
 20
10.41347962824294
 30
0.0
 40
0.09
 41
0.0
 71
     5
 72
     1
  1
\A1;8.88 [225.6mm]
 73
     1
 44
1.0
1001
ACAD
1000
MTEXTBEGIN
1070
    73
1070
     1
1070
    44
1040
1.0
1070
    74
1070
     0
1000
MTEXTEND
  0
POINT
  5
AAD
330
AA5
100
AcDbEntity
  8
Defpoints
 62
     0
100
AcDbPoint
 10
2.478999999999999
 20
8.72690094830544
 30
0.0
  0
POINT
  5
AAE
330
AA5
100
AcDbEntity
  8
Defpoints
 62
     0
100
AcDbPoint
 10
11.36
 20
9.060900948305439
 30
0.0
  0
POINT
  5
AAF
330
AA5
100
AcDbEntity
  8
Defpoints
 62
     0
100
AcDbPoint
 10
11.36
 20
10.41347962824294
 30
0.0
  0
ENDBLK
  5
AB1
330
AA5
100
AcDbEntity
  8
0
100
AcDbBlockEnd
  0
BLOCK
  5
ABE
330
AB3
100
AcDbEntity
  8
0
100
AcDbBlockBegin
  2
*D2
 70
     1
 10
0.0
 20
0.0
 30
0.0
  3
*D2
  1

  0
LINE
  5
AB4
330
AB3
100
AcDbEntity
  8
Dimension
 62
     0
370
    -2
100
AcDbLine
 10
16.6065
 20
9.060900948305439
 30
0.0
 11
15.29391073498873
 21
9.060900948305439
 31
0.0
  0
LINE
  5
AB5
330
AB3
100
AcDbEntity
  8
Dimension
 62
     0
370
    -2
100
AcDbLine
 10
16.9815
 20
4.56990094830544
 30
0.0
 11
15.29391073498873
 21
4.56990094830544
 31
0.0
  0
LINE
  5
AB6
330
AB3
100
AcDbEntity
  8
Dimension
 62
     0
370
    -2
100
AcDbLine
 10
15.41891073498873
 20
8.935900948305439
 30
0.0
 11
15.41891073498873
 21
6.968427264094913
 31
0.0
  0
LINE
  5
AB7
330
AB3
100
AcDbEntity
  8
Dimension
 62
     0
370
    -2
100
AcDbLine
 10
15.41891073498873
 20
4.69490094830544
 30
0.0
 11
15.41891073498873
 21
6.662374632515966
 31
0.0
  0
SOLID
  5
AB8
330
AB3
100
AcDbEntity
  8
Dimension
 62
     0
100
AcDbTrace
 10
15.39807740165539
 20
8.935900948305439
 30
0.0
 11
15.43974406832206
 21
8.935900948305439
 31
0.0
 12
15.41891073498873
 22
9.060900948305439
 32
0.0
 13
15.41891073498873
 23
9.060900948305439
 33
0.0
  0
SOLID
  5
AB9
330
AB3
100
AcDbEntity
  8
Dimension
 62
     0
100
AcDbTrace
 10
15.39807740165539
 20
4.69490094830544
 30
0.0
 11
15.43974406832206
 21
4.69490094830544
 31
0.0
 12
15.41891073498873
 22
4.56990094830544
 32
0.0
 13
15.41891073498873
 23
4.56990094830544
 33
0.0
  0
MTEXT
  5
ABA
330
AB3
100
AcDbEntity
  8
Dimension
 62
     0
100
AcDbMText
 10
15.41891073498872
 20
6.815400948305442
 30
0.0
 40
0.09
 41
0.0
 71
     5
 72
     1
  1
\A1;4.49 [114.1mm]
 73
     1
 44
1.0
1001
ACAD
1000
MTEXTBEGIN
1070
    73
1070
     1
1070
    44
1040
1.0
1070
    74
1070
     0
1000
MTEXTEND
  0
POINT
  5
ABB
330
AB3
100
AcDbEntity
  8
Defpoints
 62
     0
100
AcDbPoint
 10
16.669
 20
9.060900948305439
 30
0.0
  0
POINT
  5
ABC
330
AB3
100
AcDbEntity
  8
Defpoints
 62
     0
100
AcDbPoint
 10
17.044
 20
4.56990094830544
 30
0.0
  0
POINT
  5
ABD
330
AB3
100
AcDbEntity
  8
Defpoints
 62
     0
100
AcDbPoint
 10
15.41891073498873
 20
4.56990094830544
 30
0.0
  0
ENDBLK
  5
ABF
330
AB3
100
AcDbEntity
  8
0
100
AcDbBlockEnd
  0
ENDSEC
  0
SECTION
  2
ENTITIES
  0
TEXT
  5
51
330
18
100
AcDbEntity
  8
Title Block
100
AcDbText
 10
17.77669501265554
 20
2.672489851525508
 30
0.0
 40
0.05
  1
FILENAME:
100
AcDbText
  0
TEXT
  5
52
330
18
100
AcDbEntity
  8
Title Block
100
AcDbText
 10
17.76928502872825
 20
2.076224967549325
 30
0.0
 40
0.35
  1
PANDUIT
100
AcDbText
  0
TEXT
  5
53
330
18
100
AcDbEntity
  8
Title Block
100
AcDbText
 10
19.72182039882138
 20
2.061410940562986
 30
0.0
 40
0.125
  1
CORP. TINLEY PARK, IL
100
AcDbText
  0
TEXT
  5
54
330
18
100
AcDbEntity
  8
Title Block
100
AcDbText
 10
17.78039997670861
 20
1.91697409709392
 30
0.0
 40
0.05
  1
TITLE:
100
AcDbText
  0
MTEXT
  5
57
330
18
100
AcDbEntity
  8
Title Block
100
AcDbMText
 10
19.0
 20
1.372215793536348
 30
0.0
 40
0.075
 41
2.5
 71
     5
 72
     5
  1
UNLESS OTHERWISE SPECIFIED,\PDIMENSIONAL TOLERANCES ARE:       
 73
     1
 44
1.0
1001
ACAD
1000
MTEXTBEGIN
1070
    73
1070
     1
1070
    44
1040
1.0
1070
    74
1070
     0
1000
MTEXTEND
  0
MTEXT
  5
58
330
18
100
AcDbEntity
  8
Title Block
100
AcDbMText
 10
18.39237986661001
 20
1.131487708483632
 30
0.0
 40
0.075
 41
2.5
 71
     5
 72
     5
  1
(.X)\P(.XX)
 73
     1
 44
1.0
1001
ACAD
1000
MTEXTBEGIN
1070
    73
1070
     1
1070
    44
1040
1.0
1070
    74
1070
     0
1000
MTEXTEND
  0
MTEXT
  5
59
330
18
100
AcDbEntity
  8
Title Block
100
AcDbMText
 10
19.40014005312411
 20
1.131487708483632
 30
0.0
 40
0.075
 41
2.5
 71
     5
 72
     5
  1
(.XXX)\PANGLES:
 73
     1
 44
1.0
1001
ACAD
1000
MTEXTBEGIN
1070
    73
1070
     1
1070
    44
1040
1.0
1070
    74
1070
     0
1000
MTEXTEND
  0
MTEXT
  5
5A
330
18
100
AcDbEntity
  8
Title Block
100
AcDbMText
 10
21.0
 20
1.25
 30
0.0
 40
0.06
 41
1.5
 71
     5
 72
     5
  1
UNLESS OTHERWISE SPECIFIED,\PALL DIMENSIONS ARE GIVEN IN INCHES, THIRD ANGLE PROJECTION
 73
     1
 44
1.0
1001
ACAD
1000
MTEXTBEGIN
1070
    73
1070
     1
1070
    44
1040
1.0
1070
    74
1070
     0
1000
MTEXTEND
  0
TEXT
  5
5E
330
18
100
AcDbEntity
  8
Title Block
100
AcDbText
 10
17.76076445430618
 20
0.9281373372752312
 30
0.0
 40
0.05
  1
DRAWN BY:
100
AcDbText
  0
TEXT
  5
5F
330
18
100
AcDbEntity
  8
Title Block
100
AcDbText
 10
17.76446947418043
 20
0.6811431865635028
 30
0.0
 40
0.05
  1
DATE:
100
AcDbText
  0
TEXT
  5
60
330
18
100
AcDbEntity
  8
Title Block
100
AcDbText
 10
17.76817443823349
 20
0.4304455338317968
 30
0.0
 40
0.05
  1
CHECKED BY:
100
AcDbText
  0
TEXT
  5
62
330
18
100
AcDbEntity
  8
Title Block
100
AcDbText
 10
18.52028959313306
 20
0.9281373372752312
 30
0.0
 40
0.05
  1
MATERIAL:
100
AcDbText
  0
TEXT
  5
63
330
18
100
AcDbEntity
  8
Title Block
100
AcDbText
 10
20.26534493878154
 20
0.9281373372752312
 30
0.0
 40
0.05
  1
SCALE:
100
AcDbText
  0
TEXT
  5
64
330
18
100
AcDbEntity
  8
Title Block
100
AcDbText
 10
20.26534493878154
 20
0.6725952630490007
 30
0.0
 40
0.05
  1
DRAWING NUMBER:
100
AcDbText
  0
TEXT
  5
65
330
18
100
AcDbEntity
  8
Title Block
100
AcDbText
 10
21.34942622928997
 20
0.6762987650689816
 30
0.0
 40
0.05
  1
DRAWING
100
AcDbText
  0
TEXT
  5
66
330
18
100
AcDbEntity
  8
Title Block
100
AcDbText
 10
21.42723125590085
 20
0.2811642688682026
 30
0.0
 40
0.05
  1
SIZE
100
AcDbText
  0
TEXT
  5
67
330
18
100
AcDbEntity
  8
Title Block
100
AcDbText
 10
21.39373130657865
 20
0.3826699445861052
 30
0.0
 40
0.25
  1
C
100
AcDbText
  0
MTEXT
  5
68
330
18
100
AcDbEntity
  8
Title Block
100
AcDbMText
 10
11.37499999999999
 20
0.375
 30
0.0
 40
0.05
 41
0.25
 71
     5
 72
     5
  1
REV
 73
     1
 44
1.0
1001
ACAD
1000
MTEXTBEGIN
1070
    73
1070
     1
1070
    44
1040
1.0
1070
    74
1070
     0
1000
MTEXTEND
  0
MTEXT
  5
69
330
18
100
AcDbEntity
  8
Title Block
100
AcDbMText
 10
11.74999999999999
 20
0.375
 30
0.0
 40
0.05
 41
0.5
 71
     5
 72
     5
  1
DATE
 73
     1
 44
1.0
1001
ACAD
1000
MTEXTBEGIN
1070
    73
1070
     1
1070
    44
1040
1.0
1070
    74
1070
     0
1000
MTEXTEND
  0
MTEXT
  5
6A
330
18
100
AcDbEntity
  8
Title Block
100
AcDbMText
 10
12.18999999999999
 20
0.375
 30
0.0
 40
0.05
 41
0.38
 71
     5
 72
     5
  1
BY
 73
     1
 44
1.0
1001
ACAD
1000
MTEXTBEGIN
1070
    73
1070
     1
1070
    44
1040
1.0
1070
    74
1070
     0
1000
MTEXTEND
  0
MTEXT
  5
6B
330
18
100
AcDbEntity
  8
Title Block
100
AcDbMText
 10
12.56499999999999
 20
0.375
 30
0.0
 40
0.05
 41
0.38
 71
     5
 72
     5
  1
CHK
 73
     1
 44
1.0
1001
ACAD
1000
MTEXTBEGIN
1070
    73
1070
     1
1070
    44
1040
1.0
1070
    74
1070
     0
1000
MTEXTEND
  0
MTEXT
  5
6C
330
18
100
AcDbEntity
  8
Title Block
100
AcDbMText
 10
14.12499999999999
 20
0.375
 30
0.0
 40
0.05
 41
2.75
 71
     5
 72
     5
  1
DESCRIPTION
 73
     1
 44
1.0
1001
ACAD
1000
MTEXTBEGIN
1070
    73
1070
     1
1070
    44
1040
1.0
1070
    74
1070
     0
1000
MTEXTEND
  0
MTEXT
  5
6D
330
18
100
AcDbEntity
  8
Title Block
100
AcDbMText
 10
16.065
 20
0.375
 30
0.0
 40
0.05
 41
1.129999999999999
 71
     5
 72
     5
  1
ECN   -   R
 73
     1
 44
1.0
1001
ACAD
1000
MTEXTBEGIN
1070
    73
1070
     1
1070
    44
1040
1.0
1070
    74
1070
     0
1000
MTEXTEND
  0
MTEXT
  5
6E
330
18
100
AcDbEntity
  8
Title Block
100
AcDbMText
 10
16.81499999999999
 20
0.375
 30
0.0
 40
0.05
 41
0.38
 71
     5
 72
     5
  1
CUST
 73
     1
 44
1.0
1001
ACAD
1000
MTEXTBEGIN
1070
    73
1070
     1
1070
    44
1040
1.0
1070
    74
1070
     0
1000
MTEXTEND
  0
MTEXT
  5
6F
330
18
100
AcDbEntity
  8
Title Block
100
AcDbMText
 10
17.19
 20
0.375
 30
0.0
 40
0.05
 41
0.38
 71
     5
 72
     5
  1
SUP
 73
     1
 44
1.0
1001
ACAD
1000
MTEXTBEGIN
1070
    73
1070
     1
1070
    44
1040
1.0
1070
    74
1070
     0
1000
MTEXTEND
  0
LINE
  5
A5
330
18
100
AcDbEntity
  8
Title Block
100
AcDbLine
 10
21.75
 20
2.749999999999999
 30
0.0
 11
11.25
 21
2.75
 31
0.0
  0
LINE
  5
A6
330
18
100
AcDbEntity
  8
Title Block
100
AcDbLine
 10
17.74999999999999
 20
2.75
 30
0.0
 11
17.74999999999999
 21
0.25
 31
0.0
  0
LINE
  5
A7
330
18
100
AcDbEntity
  8
Title Block
100
AcDbLine
 10
21.75
 20
2.499999999999999
 30
0.0
 11
11.25
 21
2.5
 31
0.0
  0
LINE
  5
A8
330
18
100
AcDbEntity
  8
Title Block
100
AcDbLine
 10
17.74999999999999
 20
2.25
 30
0.0
 11
11.25
 21
2.25
 31
0.0
  0
LINE
  5
A9
330
18
100
AcDbEntity
  8
Title Block
100
AcDbLine
 10
21.75
 20
1.999999999999999
 30
0.0
 11
11.25
 21
2.0
 31
0.0
  0
LINE
  5
AA
330
18
100
AcDbEntity
  8
Title Block
100
AcDbLine
 10
17.74999999999999
 20
1.75
 30
0.0
 11
11.25
 21
1.75
 31
0.0
  0
LINE
  5
AB
330
18
100
AcDbEntity
  8
Title Block
100
AcDbLine
 10
21.75
 20
1.499999999999999
 30
0.0
 11
11.25
 21
1.5
 31
0.0
  0
LINE
  5
AC
330
18
100
AcDbEntity
  8
Title Block
100
AcDbLine
 10
17.74999999999999
 20
1.25
 30
0.0
 11
11.25
 21
1.25
 31
0.0
  0
LINE
  5
AD
330
18
100
AcDbEntity
  8
Title Block
100
AcDbLine
 10
21.75
 20
0.9999999999999996
 30
0.0
 11
11.25
 21
1.0
 31
0.0
  0
LINE
  5
AE
330
18
100
AcDbEntity
  8
Title Block
100
AcDbLine
 10
18.49999999999999
 20
0.75
 30
0.0
 11
11.25
 21
0.7500000000000009
 31
0.0
  0
LINE
  5
AF
330
18
100
AcDbEntity
  8
Title Block
100
AcDbLine
 10
18.49999999999999
 20
0.5
 30
0.0
 11
11.25
 21
0.5000000000000009
 31
0.0
  0
LINE
  5
B6
330
18
100
AcDbEntity
  8
Title Block
100
AcDbLine
 10
11.25
 20
0.25
 30
0.0
 11
11.25
 21
2.75
 31
0.0
  0
LINE
  5
BC
330
18
100
AcDbEntity
  8
Title Block
100
AcDbLine
 10
11.49999999999999
 20
0.25
 30
0.0
 11
11.49999999999999
 21
2.750000000000001
 31
0.0
  0
LINE
  5
BD
330
18
100
AcDbEntity
  8
Title Block
100
AcDbLine
 10
11.99999999999999
 20
0.25
 30
0.0
 11
11.99999999999999
 21
2.750000000000001
 31
0.0
  0
LINE
  5
C0
330
18
100
AcDbEntity
  8
Title Block
100
AcDbLine
 10
12.375
 20
0.25
 30
0.0
 11
12.375
 21
2.750000000000001
 31
0.0
  0
LINE
  5
C1
330
18
100
AcDbEntity
  8
Title Block
100
AcDbLine
 10
12.74999999999999
 20
0.25
 30
0.0
 11
12.74999999999999
 21
2.750000000000001
 31
0.0
  0
LINE
  5
C2
330
18
100
AcDbEntity
  8
Title Block
100
AcDbLine
 10
17.375
 20
2.75
 30
0.0
 11
17.375
 21
0.25
 31
0.0
  0
LINE
  5
C3
330
18
100
AcDbEntity
  8
Title Block
100
AcDbLine
 10
17.0
 20
2.75
 30
0.0
 11
17.0
 21
0.25
 31
0.0
  0
LINE
  5
C4
330
18
100
AcDbEntity
  8
Title Block
100
AcDbLine
 10
16.62499999999999
 20
2.75
 30
0.0
 11
16.62499999999999
 21
0.25
 31
0.0
  0
LINE
  5
C5
330
18
100
AcDbEntity
  8
Title Block
100
AcDbLine
 10
16.25
 20
2.75
 30
0.0
 11
16.25
 21
0.5000000000000002
 31
0.0
  0
LINE
  5
C6
330
18
100
AcDbEntity
  8
Title Block
100
AcDbLine
 10
15.5
 20
2.75
 30
0.0
 11
15.5
 21
0.25
 31
0.0
  0
LINE
  5
C7
330
18
100
AcDbEntity
  8
Title Block
100
AcDbLine
 10
20.25
 20
0.75
 30
0.0
 11
20.25
 21
1.499999999999999
 31
0.0
  0
LINE
  5
C8
330
18
100
AcDbEntity
  8
Title Block
100
AcDbLine
 10
20.25
 20
0.75
 30
0.0
 11
20.25
 21
0.25
 31
0.0
  0
LINE
  5
C9
330
18
100
AcDbEntity
  8
Title Block
100
AcDbLine
 10
20.25
 20
0.75
 30
0.0
 11
21.75
 21
0.75
 31
0.0
  0
LINE
  5
CA
330
18
100
AcDbEntity
  8
Title Block
100
AcDbLine
 10
18.49999999999999
 20
0.5
 30
0.0
 11
18.49999999999999
 21
0.25
 31
0.0
  0
LINE
  5
CB
330
18
100
AcDbEntity
  8
Title Block
100
AcDbLine
 10
18.49999999999999
 20
0.5
 30
0.0
 11
18.49999999999999
 21
1.0
 31
0.0
  0
LINE
  5
CD
330
18
100
AcDbEntity
  8
Title Block
100
AcDbLine
 10
21.25
 20
0.75
 30
0.0
 11
21.25
 21
0.25
 31
0.0
  0
LWPOLYLINE
  5
F8
330
18
100
AcDbEntity
  8
Title Block
100
AcDbPolyline
 90
        4
 70
     1
 43
0.01
 10
21.75
 20
16.75
 10
21.75
 20
0.25
 10
0.25
 20
0.25
 10
0.250000000000001
 20
16.75
  0
POINT
  5
FC
330
18
100
AcDbEntity
  8
Title Block
100
AcDbPoint
 10
22.0
 20
0.0
 30
0.0
  0
POINT
  5
FF
330
18
100
AcDbEntity
  8
Title Block
100
AcDbPoint
 10
22.0
 20
17.0
 30
0.0
  0
POINT
  5
102
330
18
100
AcDbEntity
  8
Title Block
100
AcDbPoint
 10
0.000000000000001
 20
17.0
 30
0.0
  0
POINT
  5
105
330
18
100
AcDbEntity
  8
Title Block
100
AcDbPoint
 10
0.0
 20
0.0
 30
0.0
  0
MTEXT
  5
12C
330
18
100
AcDbEntity
  8
Text
100
AcDbMText
 10
11.37324893148254
 20
0.6275685908585027
 30
0.0
 40
0.09
 41
0.25
 71
     5
 72
     5
  1
R
 73
     1
 44
1.0
1001
ACAD
1000
MTEXTBEGIN
1070
    73
1070
     1
1070
    44
1040
1.0
1070
    74
1070
     0
1000
MTEXTEND
  0
MTEXT
  5
12D
330
18
100
AcDbEntity
  8
Text
100
AcDbMText
 10
11.74824893148254
 20
0.6275685908585027
 30
0.0
 40
0.07
 41
0.5
 71
     5
 72
     5
  1
10-30-00
 73
     1
 44
1.0
1001
ACAD
1000
MTEXTBEGIN
1070
    73
1070
     1
1070
    44
1040
1.0
1070
    74
1070
     0
1000
MTEXTEND
  0
MTEXT
  5
12E
330
18
100
AcDbEntity
  8
Text
100
AcDbMText
 10
12.18574893148254
 20
0.6275685908585027
 30
0.0
 40
0.09
 41
0.375
 71
     5
 72
     5
  1
MSO
 73
     1
 44
1.0
1001
ACAD
1000
MTEXTBEGIN
1070
    73
1070
     1
1070
    44
1040
1.0
1070
    74
1070
     0
1000
MTEXTEND
  0
MTEXT
  5
130
330
18
100
AcDbEntity
  8
Text
100
AcDbMText
 10
14.12324893148254
 20
0.6275685908585023
 30
0.0
 40
0.09
 41
2.75
 71
     5
 72
     5
  1
DRAWING RELEASED
 73
     1
 44
1.0
1001
ACAD
1000
MTEXTBEGIN
1070
    73
1070
     1
1070
    44
1040
1.0
1070
    74
1070
     0
1000
MTEXTEND
  0
MTEXT
  5
133
330
18
100
AcDbEntity
  8
Text
100
AcDbMText
 10
18.47324893148254
 20
0.8525685908585018
 30
0.0
 40
0.09
 41
0.75
 71
     6
 72
     5
  1
MSO
 73
     1
 44
1.0
1001
ACAD
1000
MTEXTBEGIN
1070
    73
1070
     1
1070
    44
1040
1.0
1070
    74
1070
     0
1000
MTEXTEND
  0
MTEXT
  5
134
330
18
100
AcDbEntity
  8
Text
100
AcDbMText
 10
18.47324893148254
 20
0.6025685908585017
 30
0.0
 40
0.09
 41
0.75
 71
     6
 72
     5
  1
10-30-00
 73
     1
 44
1.0
1001
ACAD
1000
MTEXTBEGIN
1070
    73
1070
     1
1070
    44
1040
1.0
1070
    74
1070
     0
1000
MTEXTEND
  0
MTEXT
  5
135
330
18
100
AcDbEntity
  8
Text
100
AcDbMText
 10
18.47324893148254
 20
0.3525685908585019
 30
0.0
 40
0.09
 41
0.75
 71
     6
 72
     5
  1
HIW
 73
     1
 44
1.0
1001
ACAD
1000
MTEXTBEGIN
1070
    73
1070
     1
1070
    44
1040
1.0
1070
    74
1070
     0
1000
MTEXTEND
  0
MTEXT
  5
136
330
18
100
AcDbEntity
  8
Text
100
AcDbMText
 10
19.74824893148254
 20
2.627568590858501
 30
0.0
 40
0.09
 41
4.0
 71
     5
 72
     5
  1
FR6LB.dwg
 73
     1
 44
1.0
1001
ACAD
1000
MTEXTBEGIN
1070
    73
1070
     1
1070
    44
1040
1.0
1070
    74
1070
     0
1000
MTEXTEND
  0
MTEXT
  5
137
330
18
100
AcDbEntity
  8
Text
100
AcDbMText
 10
19.74824893148254
 20
1.752568590858501
 30
0.0
 40
0.09
 41
4.0
 71
     5
 72
     5
  1
FIBERRUNNER 4x4 AND 6x4 QUIKLOCK WALL \PMOUNT "L" BRACKET (FR6LB)\PMARKETING DRAWING
 73
     1
 44
1.0
1001
ACAD
1000
MTEXTBEGIN
1070
    73
1070
     1
1070
    44
1040
1.0
1070
    74
1070
     0
1000
MTEXTEND
  0
MTEXT
  5
138
330
18
100
AcDbEntity
  8
Text
100
AcDbMText
 10
20.99824893148254
 20
0.8775685908585016
 30
0.0
 40
0.12
 41
1.5
 71
     5
 72
     5
  1
FULL
 73
     1
 44
1.0
1001
ACAD
1000
MTEXTBEGIN
1070
    73
1070
     1
1070
    44
1040
1.0
1070
    74
1070
     0
1000
MTEXTEND
  0
MTEXT
  5
139
330
18
100
AcDbEntity
  8
Text
100
AcDbMText
 10
20.74824893148254
 20
0.5025685908585018
 30
0.0
 40
0.12
 41
1.0
 71
     5
 72
     5
  1
36897-305
 73
     1
 44
1.0
1001
ACAD
1000
MTEXTBEGIN
1070
    73
1070
     1
1070
    44
1040
1.0
1070
    74
1070
     0
1000
MTEXTEND
  0
TEXT
  5
2AB
330
18
100
AcDbEntity
  8
Text
100
AcDbText
 10
6.490965101396781
 20
12.19670552728731
 30
0.0
 40
0.125
  1
TOP VIEW
100
AcDbText
  0
TEXT
  5
2AC
330
18
100
AcDbEntity
  8
Text
100
AcDbText
 10
6.460527848290731
 20
4.141863595911939
 30
0.0
 40
0.125
  1
FRONT VIEW
100
AcDbText
  0
TEXT
  5
2AD
330
18
100
AcDbEntity
  8
Text
100
AcDbText
 10
16.94067030507737
 20
3.970021739237715
 30
0.0
 40
0.125
  1
RIGHT SIDE VIEW
100
AcDbText
  0
MTEXT
  5
2BE
330
18
100
AcDbEntity
  8
Text
100
AcDbMText
 10
12.5604002814227
 20
0.626249074032665
 30
0.0
 40
0.09
 41
0.375
 71
     5
 72
     5
  1
HIW
 73
     1
 44
1.0
1001
ACAD
1000
MTEXTBEGIN
1070
    73
1070
     1
1070
    44
1040
1.0
1070
    74
1070
     0
1000
MTEXTEND
  0
LINE
  5
2CD
330
18
100
AcDbEntity
  8
Object
100
AcDbLine
 10
18.669
 20
8.881900948305439
 30
0.0
 11
18.294
 21
8.881900948305439
 31
0.0
  0
LINE
  5
2CE
330
18
100
AcDbEntity
  8
Object
100
AcDbLine
 10
18.294
 20
8.881900948305439
 30
0.0
 11
17.044
 21
8.881900948305439
 31
0.0
  0
LINE
  5
2CF
330
18
100
AcDbEntity
  8
Object
100
AcDbLine
 10
17.044
 20
8.881900948305439
 30
0.0
 11
16.669
 21
8.881900948305439
 31
0.0
  0
LINE
  5
2D0
330
18
100
AcDbEntity
  8
Object
100
AcDbLine
 10
16.669
 20
8.881900948305439
 30
0.0
 11
17.044
 21
8.881900948305439
 31
0.0
  0
LINE
  5
2D1
330
18
100
AcDbEntity
  8
Object
100
AcDbLine
 10
16.669
 20
8.881900948305439
 30
0.0
 11
16.669
 21
9.060900948305439
 31
0.0
  0
LINE
  5
2D2
330
18
100
AcDbEntity
  8
Object
100
AcDbLine
 10
16.669
 20
9.060900948305439
 30
0.0
 11
17.044
 21
9.060900948305439
 31
0.0
  0
LINE
  5
2D3
330
18
100
AcDbEntity
  8
Object
100
AcDbLine
 10
17.044
 20
9.060900948305439
 30
0.0
 11
17.044
 21
8.881900948305439
 31
0.0
  0
LINE
  5
2D4
330
18
100
AcDbEntity
  8
Object
100
AcDbLine
 10
16.669
 20
8.881900948305439
 30
0.0
 11
16.669
 21
8.874900948305439
 31
0.0
  0
LINE
  5
2D5
330
18
100
AcDbEntity
  8
Object
100
AcDbLine
 10
18.669
 20
8.881900948305439
 30
0.0
 11
18.669
 21
8.874900948305439
 31
0.0
  0
LINE
  5
2D6
330
18
100
AcDbEntity
  8
Object
100
AcDbLine
 10
18.669
 20
8.874900948305439
 30
0.0
 11
18.669
 21
8.855900948305439
 31
0.0
  0
LINE
  5
2D7
330
18
100
AcDbEntity
  8
Object
100
AcDbLine
 10
16.669
 20
8.855900948305439
 30
0.0
 11
16.669
 21
8.82490094830544
 31
0.0
  0
LINE
  5
2D8
330
18
100
AcDbEntity
  8
Object
100
AcDbLine
 10
18.669
 20
8.82490094830544
 30
0.0
 11
18.669
 21
8.785900948305439
 31
0.0
  0
LINE
  5
2D9
330
18
100
AcDbEntity
  8
Object
100
AcDbLine
 10
18.669
 20
8.785900948305439
 30
0.0
 11
18.669
 21
8.741900948305438
 31
0.0
  0
LINE
  5
2DA
330
18
100
AcDbEntity
  8
Object
100
AcDbLine
 10
16.669
 20
8.741900948305438
 30
0.0
 11
16.669
 21
8.785900948305439
 31
0.0
  0
LINE
  5
2DB
330
18
100
AcDbEntity
  8
Object
100
AcDbLine
 10
16.669
 20
8.785900948305439
 30
0.0
 11
16.669
 21
8.82490094830544
 31
0.0
  0
LINE
  5
2DC
330
18
100
AcDbEntity
  8
Object
100
AcDbLine
 10
18.669
 20
8.82490094830544
 30
0.0
 11
18.669
 21
8.855900948305439
 31
0.0
  0
LINE
  5
2DD
330
18
100
AcDbEntity
  8
Object
100
AcDbLine
 10
16.669
 20
8.874900948305439
 30
0.0
 11
16.669
 21
8.855900948305439
 31
0.0
  0
LINE
  5
2DE
330
18
100
AcDbEntity
  8
Object
100
AcDbLine
 10
18.669
 20
8.785900948305439
 30
0.0
 11
18.669
 21
8.82490094830544
 31
0.0
  0
LINE
  5
2DF
330
18
100
AcDbEntity
  8
Object
100
AcDbLine
 10
18.669
 20
8.855900948305439
 30
0.0
 11
18.669
 21
8.874900948305439
 31
0.0
  0
LINE
  5
2E0
330
18
100
AcDbEntity
  8
Object
100
AcDbLine
 10
18.669
 20
9.060900948305439
 30
0.0
 11
18.669
 21
8.881900948305439
 31
0.0
  0
LINE
  5
2E1
330
18
100
AcDbEntity
  8
Object
100
AcDbLine
 10
18.669
 20
8.881900948305439
 30
0.0
 11
18.669
 21
8.874900948305439
 31
0.0
  0
LINE
  5
2E2
330
18
100
AcDbEntity
  8
Object
100
AcDbLine
 10
18.669
 20
8.82490094830544
 30
0.0
 11
18.669
 21
8.855900948305439
 31
0.0
  0
LINE
  5
2E3
330
18
100
AcDbEntity
  8
Object
100
AcDbLine
 10
18.669
 20
8.785900948305439
 30
0.0
 11
18.669
 21
8.741900948305438
 31
0.0
  0
LINE
  5
2E4
330
18
100
AcDbEntity
  8
Object
100
AcDbLine
 10
18.669
 20
8.741900948305438
 30
0.0
 11
18.669
 21
4.94490094830544
 31
0.0
  0
LINE
  5
2E5
330
18
100
AcDbEntity
  8
Object
100
AcDbLine
 10
17.044
 20
9.060900948305439
 30
0.0
 11
18.294
 21
9.060900948305439
 31
0.0
  0
LINE
  5
2E6
330
18
100
AcDbEntity
  8
Object
100
AcDbLine
 10
18.294
 20
9.060900948305439
 30
0.0
 11
18.294
 21
8.881900948305439
 31
0.0
  0
LINE
  5
2E7
330
18
100
AcDbEntity
  8
Object
100
AcDbLine
 10
18.294
 20
8.881900948305439
 30
0.0
 11
17.044
 21
8.881900948305439
 31
0.0
  0
LINE
  5
2E8
330
18
100
AcDbEntity
  8
Object
100
AcDbLine
 10
18.294
 20
8.881900948305439
 30
0.0
 11
18.669
 21
8.881900948305439
 31
0.0
  0
LINE
  5
2E9
330
18
100
AcDbEntity
  8
Object
100
AcDbLine
 10
18.294
 20
9.060900948305439
 30
0.0
 11
18.669
 21
9.060900948305439
 31
0.0
  0
LINE
  5
2EA
330
18
100
AcDbEntity
  8
Object
100
AcDbLine
 10
18.669
 20
9.060900948305439
 30
0.0
 11
18.669
 21
8.881900948305439
 31
0.0
  0
LINE
  5
2EB
330
18
100
AcDbEntity
  8
Object
100
AcDbLine
 10
16.669
 20
8.785900948305439
 30
0.0
 11
16.669
 21
8.741900948305438
 31
0.0
  0
LINE
  5
2EC
330
18
100
AcDbEntity
  8
Object
100
AcDbLine
 10
16.669
 20
8.855900948305439
 30
0.0
 11
16.669
 21
8.82490094830544
 31
0.0
  0
LINE
  5
2ED
330
18
100
AcDbEntity
  8
Object
100
AcDbLine
 10
16.669
 20
9.060900948305439
 30
0.0
 11
16.669
 21
8.881900948305439
 31
0.0
  0
LINE
  5
2EE
330
18
100
AcDbEntity
  8
Object
100
AcDbLine
 10
16.669
 20
8.881900948305439
 30
0.0
 11
16.669
 21
8.874900948305439
 31
0.0
  0
LINE
  5
2EF
330
18
100
AcDbEntity
  8
Object
100
AcDbLine
 10
16.669
 20
8.874900948305439
 30
0.0
 11
16.669
 21
8.855900948305439
 31
0.0
  0
LINE
  5
2F0
330
18
100
AcDbEntity
  8
Object
100
AcDbLine
 10
16.669
 20
8.82490094830544
 30
0.0
 11
16.669
 21
8.785900948305439
 31
0.0
  0
LINE
  5
2F1
330
18
100
AcDbEntity
  8
Object
100
AcDbLine
 10
16.669
 20
8.741900948305438
 30
0.0
 11
16.669
 21
4.94490094830544
 31
0.0
  0
LINE
  5
2F2
330
18
100
AcDbEntity
  8
Object
100
AcDbLine
 10
18.669
 20
9.060900948305439
 30
0.0
 11
18.294
 21
9.060900948305439
 31
0.0
  0
LINE
  5
2F3
330
18
100
AcDbEntity
  8
Object
100
AcDbLine
 10
18.294
 20
9.060900948305439
 30
0.0
 11
17.044
 21
9.060900948305439
 31
0.0
  0
LINE
  5
2F4
330
18
100
AcDbEntity
  8
Object
100
AcDbLine
 10
17.044
 20
9.060900948305439
 30
0.0
 11
16.669
 21
9.060900948305439
 31
0.0
  0
LINE
  5
2F5
330
18
100
AcDbEntity
  8
Object
100
AcDbLine
 10
18.504
 20
8.006900948305439
 30
0.0
 11
18.511
 21
8.054900948305439
 31
0.0
  0
LINE
  5
2F6
330
18
100
AcDbEntity
  8
Object
100
AcDbLine
 10
18.511
 20
8.054900948305439
 30
0.0
 11
18.504
 21
8.102900948305439
 31
0.0
  0
LINE
  5
2F7
330
18
100
AcDbEntity
  8
Object
100
AcDbLine
 10
18.504
 20
5.506900948305439
 30
0.0
 11
18.511
 21
5.554900948305439
 31
0.0
  0
LINE
  5
2F8
330
18
100
AcDbEntity
  8
Object
100
AcDbLine
 10
18.511
 20
5.554900948305439
 30
0.0
 11
18.504
 21
5.602900948305439
 31
0.0
  0
LINE
  5
2F9
330
18
100
AcDbEntity
  8
Object
100
AcDbLine
 10
18.669
 20
4.94490094830544
 30
0.0
 11
18.669
 21
8.741900948305438
 31
0.0
  0
LINE
  5
2FA
330
18
100
AcDbEntity
  8
Object
100
AcDbLine
 10
18.482
 20
8.145900948305438
 30
0.0
 11
18.504
 21
8.102900948305439
 31
0.0
  0
LINE
  5
2FB
330
18
100
AcDbEntity
  8
Object
100
AcDbLine
 10
18.482
 20
5.645900948305439
 30
0.0
 11
18.504
 21
5.602900948305439
 31
0.0
  0
LINE
  5
2FC
330
18
100
AcDbEntity
  8
Object
100
AcDbLine
 10
18.504
 20
8.006900948305439
 30
0.0
 11
18.482
 21
7.963900948305439
 31
0.0
  0
LINE
  5
2FD
330
18
100
AcDbEntity
  8
Object
100
AcDbLine
 10
18.504
 20
5.506900948305439
 30
0.0
 11
18.482
 21
5.463900948305439
 31
0.0
  0
LINE
  5
2FE
330
18
100
AcDbEntity
  8
Object
100
AcDbLine
 10
18.447
 20
8.180900948305438
 30
0.0
 11
18.482
 21
8.145900948305438
 31
0.0
  0
LINE
  5
2FF
330
18
100
AcDbEntity
  8
Object
100
AcDbLine
 10
18.447
 20
5.679900948305439
 30
0.0
 11
18.482
 21
5.645900948305439
 31
0.0
  0
LINE
  5
300
330
18
100
AcDbEntity
  8
Object
100
AcDbLine
 10
18.482
 20
7.963900948305439
 30
0.0
 11
18.447
 21
7.929900948305439
 31
0.0
  0
LINE
  5
301
330
18
100
AcDbEntity
  8
Object
100
AcDbLine
 10
18.482
 20
5.463900948305439
 30
0.0
 11
18.447
 21
5.429900948305439
 31
0.0
  0
LINE
  5
302
330
18
100
AcDbEntity
  8
Object
100
AcDbLine
 10
18.404
 20
8.20290094830544
 30
0.0
 11
18.447
 21
8.180900948305438
 31
0.0
  0
LINE
  5
303
330
18
100
AcDbEntity
  8
Object
100
AcDbLine
 10
18.447
 20
5.429900948305439
 30
0.0
 11
18.404
 21
5.407900948305439
 31
0.0
  0
LINE
  5
304
330
18
100
AcDbEntity
  8
Object
100
AcDbLine
 10
18.356
 20
8.209900948305438
 30
0.0
 11
18.404
 21
8.20290094830544
 31
0.0
  0
LINE
  5
305
330
18
100
AcDbEntity
  8
Object
100
AcDbLine
 10
18.404
 20
5.407900948305439
 30
0.0
 11
18.356
 21
5.399900948305439
 31
0.0
  0
LINE
  5
306
330
18
100
AcDbEntity
  8
Object
100
AcDbLine
 10
18.308
 20
8.20290094830544
 30
0.0
 11
18.356
 21
8.209900948305438
 31
0.0
  0
LINE
  5
307
330
18
100
AcDbEntity
  8
Object
100
AcDbLine
 10
18.356
 20
5.399900948305439
 30
0.0
 11
18.308
 21
5.407900948305439
 31
0.0
  0
LINE
  5
308
330
18
100
AcDbEntity
  8
Object
100
AcDbLine
 10
18.294
 20
4.56990094830544
 30
0.0
 11
18.669
 21
4.94490094830544
 31
0.0
  0
LINE
  5
309
330
18
100
AcDbEntity
  8
Object
100
AcDbLine
 10
18.265
 20
8.180900948305438
 30
0.0
 11
18.231
 21
8.145900948305438
 31
0.0
  0
LINE
  5
30A
330
18
100
AcDbEntity
  8
Object
100
AcDbLine
 10
18.231
 20
8.145900948305438
 30
0.0
 11
18.209
 21
8.102900948305439
 31
0.0
  0
LINE
  5
30B
330
18
100
AcDbEntity
  8
Object
100
AcDbLine
 10
18.209
 20
8.102900948305439
 30
0.0
 11
18.201
 21
8.054900948305439
 31
0.0
  0
LINE
  5
30C
330
18
100
AcDbEntity
  8
Object
100
AcDbLine
 10
18.201
 20
8.054900948305439
 30
0.0
 11
18.209
 21
8.006900948305439
 31
0.0
  0
LINE
  5
30D
330
18
100
AcDbEntity
  8
Object
100
AcDbLine
 10
18.209
 20
8.006900948305439
 30
0.0
 11
18.231
 21
7.963900948305439
 31
0.0
  0
LINE
  5
30E
330
18
100
AcDbEntity
  8
Object
100
AcDbLine
 10
17.808
 20
8.305900948305438
 30
0.0
 11
17.808
 21
7.083900948305439
 31
0.0
  0
LINE
  5
30F
330
18
100
AcDbEntity
  8
Object
100
AcDbLine
 10
18.231
 20
7.963900948305439
 30
0.0
 11
18.265
 21
7.929900948305439
 31
0.0
  0
LINE
  5
310
330
18
100
AcDbEntity
  8
Object
100
AcDbLine
 10
18.265
 20
7.929900948305439
 30
0.0
 11
18.308
 21
7.90790094830544
 31
0.0
  0
LINE
  5
311
330
18
100
AcDbEntity
  8
Object
100
AcDbLine
 10
18.308
 20
7.90790094830544
 30
0.0
 11
18.356
 21
7.89990094830544
 31
0.0
  0
LINE
  5
312
330
18
100
AcDbEntity
  8
Object
100
AcDbLine
 10
18.356
 20
7.89990094830544
 30
0.0
 11
18.404
 21
7.90790094830544
 31
0.0
  0
LINE
  5
313
330
18
100
AcDbEntity
  8
Object
100
AcDbLine
 10
18.404
 20
7.90790094830544
 30
0.0
 11
18.447
 21
7.929900948305439
 31
0.0
  0
LINE
  5
314
330
18
100
AcDbEntity
  8
Object
100
AcDbLine
 10
18.404
 20
5.701900948305439
 30
0.0
 11
18.447
 21
5.679900948305439
 31
0.0
  0
LINE
  5
315
330
18
100
AcDbEntity
  8
Object
100
AcDbLine
 10
18.231
 20
5.645900948305439
 30
0.0
 11
18.265
 21
5.679900948305439
 31
0.0
  0
LINE
  5
316
330
18
100
AcDbEntity
  8
Object
100
AcDbLine
 10
18.356
 20
5.709900948305439
 30
0.0
 11
18.404
 21
5.701900948305439
 31
0.0
  0
LINE
  5
317
330
18
100
AcDbEntity
  8
Object
100
AcDbLine
 10
18.265
 20
5.679900948305439
 30
0.0
 11
18.308
 21
5.701900948305439
 31
0.0
  0
LINE
  5
318
330
18
100
AcDbEntity
  8
Object
100
AcDbLine
 10
18.308
 20
5.701900948305439
 30
0.0
 11
18.356
 21
5.709900948305439
 31
0.0
  0
LINE
  5
319
330
18
100
AcDbEntity
  8
Object
100
AcDbLine
 10
17.808
 20
6.555900948305439
 30
0.0
 11
17.808
 21
5.333900948305439
 31
0.0
  0
LINE
  5
31A
330
18
100
AcDbEntity
  8
Object
100
AcDbLine
 10
18.231
 20
5.645900948305439
 30
0.0
 11
18.209
 21
5.602900948305439
 31
0.0
  0
LINE
  5
31B
330
18
100
AcDbEntity
  8
Object
100
AcDbLine
 10
18.209
 20
5.602900948305439
 30
0.0
 11
18.201
 21
5.554900948305439
 31
0.0
  0
LINE
  5
31C
330
18
100
AcDbEntity
  8
Object
100
AcDbLine
 10
18.201
 20
5.554900948305439
 30
0.0
 11
18.209
 21
5.506900948305439
 31
0.0
  0
LINE
  5
31D
330
18
100
AcDbEntity
  8
Object
100
AcDbLine
 10
18.209
 20
5.506900948305439
 30
0.0
 11
18.231
 21
5.463900948305439
 31
0.0
  0
LINE
  5
31E
330
18
100
AcDbEntity
  8
Object
100
AcDbLine
 10
17.801
 20
8.348900948305439
 30
0.0
 11
17.808
 21
8.305900948305438
 31
0.0
  0
LINE
  5
31F
330
18
100
AcDbEntity
  8
Object
100
AcDbLine
 10
18.265
 20
8.180900948305438
 30
0.0
 11
18.308
 21
8.20290094830544
 31
0.0
  0
LINE
  5
320
330
18
100
AcDbEntity
  8
Object
100
AcDbLine
 10
17.808
 20
7.083900948305439
 30
0.0
 11
17.801
 21
7.04090094830544
 31
0.0
  0
LINE
  5
321
330
18
100
AcDbEntity
  8
Object
100
AcDbLine
 10
17.801
 20
6.598900948305439
 30
0.0
 11
17.808
 21
6.555900948305439
 31
0.0
  0
LINE
  5
322
330
18
100
AcDbEntity
  8
Object
100
AcDbLine
 10
18.265
 20
5.429900948305439
 30
0.0
 11
18.231
 21
5.463900948305439
 31
0.0
  0
LINE
  5
323
330
18
100
AcDbEntity
  8
Object
100
AcDbLine
 10
17.808
 20
5.333900948305439
 30
0.0
 11
17.801
 21
5.290900948305439
 31
0.0
  0
LINE
  5
324
330
18
100
AcDbEntity
  8
Object
100
AcDbLine
 10
17.781
 20
8.387900948305439
 30
0.0
 11
17.801
 21
8.348900948305439
 31
0.0
  0
LINE
  5
325
330
18
100
AcDbEntity
  8
Object
100
AcDbLine
 10
17.781
 20
6.637900948305439
 30
0.0
 11
17.801
 21
6.598900948305439
 31
0.0
  0
LINE
  5
326
330
18
100
AcDbEntity
  8
Object
100
AcDbLine
 10
17.801
 20
7.04090094830544
 30
0.0
 11
17.781
 21
7.001900948305439
 31
0.0
  0
LINE
  5
327
330
18
100
AcDbEntity
  8
Object
100
AcDbLine
 10
17.801
 20
5.290900948305439
 30
0.0
 11
17.781
 21
5.251900948305439
 31
0.0
  0
LINE
  5
328
330
18
100
AcDbEntity
  8
Object
100
AcDbLine
 10
18.308
 20
5.407900948305439
 30
0.0
 11
18.265
 21
5.429900948305439
 31
0.0
  0
LINE
  5
329
330
18
100
AcDbEntity
  8
Object
100
AcDbLine
 10
17.75
 20
8.418900948305438
 30
0.0
 11
17.781
 21
8.387900948305439
 31
0.0
  0
LINE
  5
32A
330
18
100
AcDbEntity
  8
Object
100
AcDbLine
 10
17.75
 20
6.668900948305439
 30
0.0
 11
17.781
 21
6.637900948305439
 31
0.0
  0
LINE
  5
32B
330
18
100
AcDbEntity
  8
Object
100
AcDbLine
 10
17.781
 20
7.001900948305439
 30
0.0
 11
17.75
 21
6.971900948305439
 31
0.0
  0
LINE
  5
32C
330
18
100
AcDbEntity
  8
Object
100
AcDbLine
 10
17.781
 20
5.251900948305439
 30
0.0
 11
17.75
 21
5.221900948305439
 31
0.0
  0
LINE
  5
32D
330
18
100
AcDbEntity
  8
Object
100
AcDbLine
 10
17.712
 20
8.43790094830544
 30
0.0
 11
17.75
 21
8.418900948305438
 31
0.0
  0
LINE
  5
32E
330
18
100
AcDbEntity
  8
Object
100
AcDbLine
 10
17.712
 20
6.687900948305439
 30
0.0
 11
17.75
 21
6.668900948305439
 31
0.0
  0
LINE
  5
32F
330
18
100
AcDbEntity
  8
Object
100
AcDbLine
 10
17.75
 20
6.971900948305439
 30
0.0
 11
17.712
 21
6.951900948305439
 31
0.0
  0
LINE
  5
330
330
18
100
AcDbEntity
  8
Object
100
AcDbLine
 10
17.75
 20
5.221900948305439
 30
0.0
 11
17.712
 21
5.201900948305439
 31
0.0
  0
LINE
  5
331
330
18
100
AcDbEntity
  8
Object
100
AcDbLine
 10
17.669
 20
8.44490094830544
 30
0.0
 11
17.712
 21
8.43790094830544
 31
0.0
  0
LINE
  5
332
330
18
100
AcDbEntity
  8
Object
100
AcDbLine
 10
17.712
 20
6.951900948305439
 30
0.0
 11
17.669
 21
6.94490094830544
 31
0.0
  0
LINE
  5
333
330
18
100
AcDbEntity
  8
Object
100
AcDbLine
 10
17.669
 20
6.69490094830544
 30
0.0
 11
17.712
 21
6.687900948305439
 31
0.0
  0
LINE
  5
334
330
18
100
AcDbEntity
  8
Object
100
AcDbLine
 10
17.712
 20
5.201900948305439
 30
0.0
 11
17.669
 21
5.19490094830544
 31
0.0
  0
LINE
  5
335
330
18
100
AcDbEntity
  8
Object
100
AcDbLine
 10
17.626
 20
6.687900948305439
 30
0.0
 11
17.669
 21
6.69490094830544
 31
0.0
  0
LINE
  5
336
330
18
100
AcDbEntity
  8
Object
100
AcDbLine
 10
17.669
 20
6.94490094830544
 30
0.0
 11
17.626
 21
6.951900948305439
 31
0.0
  0
LINE
  5
337
330
18
100
AcDbEntity
  8
Object
100
AcDbLine
 10
17.587
 20
6.668900948305439
 30
0.0
 11
17.626
 21
6.687900948305439
 31
0.0
  0
LINE
  5
338
330
18
100
AcDbEntity
  8
Object
100
AcDbLine
 10
17.626
 20
6.951900948305439
 30
0.0
 11
17.587
 21
6.971900948305439
 31
0.0
  0
LINE
  5
339
330
18
100
AcDbEntity
  8
Object
100
AcDbLine
 10
17.556
 20
6.637900948305439
 30
0.0
 11
17.587
 21
6.668900948305439
 31
0.0
  0
LINE
  5
33A
330
18
100
AcDbEntity
  8
Object
100
AcDbLine
 10
17.587
 20
6.971900948305439
 30
0.0
 11
17.556
 21
7.001900948305439
 31
0.0
  0
LINE
  5
33B
330
18
100
AcDbEntity
  8
Object
100
AcDbLine
 10
17.536
 20
6.598900948305439
 30
0.0
 11
17.556
 21
6.637900948305439
 31
0.0
  0
LINE
  5
33C
330
18
100
AcDbEntity
  8
Object
100
AcDbLine
 10
17.556
 20
7.001900948305439
 30
0.0
 11
17.536
 21
7.04090094830544
 31
0.0
  0
LINE
  5
33D
330
18
100
AcDbEntity
  8
Object
100
AcDbLine
 10
17.129
 20
8.006900948305439
 30
0.0
 11
17.136
 21
8.054900948305439
 31
0.0
  0
LINE
  5
33E
330
18
100
AcDbEntity
  8
Object
100
AcDbLine
 10
17.136
 20
8.054900948305439
 30
0.0
 11
17.129
 21
8.102900948305439
 31
0.0
  0
LINE
  5
33F
330
18
100
AcDbEntity
  8
Object
100
AcDbLine
 10
17.129
 20
5.506900948305439
 30
0.0
 11
17.136
 21
5.554900948305439
 31
0.0
  0
LINE
  5
340
330
18
100
AcDbEntity
  8
Object
100
AcDbLine
 10
17.136
 20
5.554900948305439
 30
0.0
 11
17.129
 21
5.602900948305439
 31
0.0
  0
LINE
  5
341
330
18
100
AcDbEntity
  8
Object
100
AcDbLine
 10
17.129
 20
8.006900948305439
 30
0.0
 11
17.107
 21
7.963900948305439
 31
0.0
  0
LINE
  5
342
330
18
100
AcDbEntity
  8
Object
100
AcDbLine
 10
17.107
 20
8.145900948305438
 30
0.0
 11
17.129
 21
8.102900948305439
 31
0.0
  0
LINE
  5
343
330
18
100
AcDbEntity
  8
Object
100
AcDbLine
 10
17.53
 20
7.083900948305439
 30
0.0
 11
17.53
 21
8.305900948305438
 31
0.0
  0
LINE
  5
344
330
18
100
AcDbEntity
  8
Object
100
AcDbLine
 10
17.53
 20
6.555900948305439
 30
0.0
 11
17.53
 21
5.333900948305439
 31
0.0
  0
LINE
  5
345
330
18
100
AcDbEntity
  8
Object
100
AcDbLine
 10
17.53
 20
5.333900948305439
 30
0.0
 11
17.536
 21
5.290900948305439
 31
0.0
  0
LINE
  5
346
330
18
100
AcDbEntity
  8
Object
100
AcDbLine
 10
17.129
 20
5.506900948305439
 30
0.0
 11
17.107
 21
5.463900948305439
 31
0.0
  0
LINE
  5
347
330
18
100
AcDbEntity
  8
Object
100
AcDbLine
 10
17.107
 20
5.645900948305439
 30
0.0
 11
17.129
 21
5.602900948305439
 31
0.0
  0
LINE
  5
348
330
18
100
AcDbEntity
  8
Object
100
AcDbLine
 10
17.072
 20
8.180900948305438
 30
0.0
 11
17.107
 21
8.145900948305438
 31
0.0
  0
LINE
  5
349
330
18
100
AcDbEntity
  8
Object
100
AcDbLine
 10
17.53
 20
8.305900948305438
 30
0.0
 11
17.536
 21
8.348900948305439
 31
0.0
  0
LINE
  5
34A
330
18
100
AcDbEntity
  8
Object
100
AcDbLine
 10
17.107
 20
7.963900948305439
 30
0.0
 11
17.072
 21
7.929900948305439
 31
0.0
  0
LINE
  5
34B
330
18
100
AcDbEntity
  8
Object
100
AcDbLine
 10
17.072
 20
5.679900948305439
 30
0.0
 11
17.107
 21
5.645900948305439
 31
0.0
  0
LINE
  5
34C
330
18
100
AcDbEntity
  8
Object
100
AcDbLine
 10
17.107
 20
5.463900948305439
 30
0.0
 11
17.072
 21
5.429900948305439
 31
0.0
  0
LINE
  5
34D
330
18
100
AcDbEntity
  8
Object
100
AcDbLine
 10
17.556
 20
5.251900948305439
 30
0.0
 11
17.536
 21
5.290900948305439
 31
0.0
  0
LINE
  5
34E
330
18
100
AcDbEntity
  8
Object
100
AcDbLine
 10
17.044
 20
4.56990094830544
 30
0.0
 11
18.294
 21
4.56990094830544
 31
0.0
  0
LINE
  5
34F
330
18
100
AcDbEntity
  8
Object
100
AcDbLine
 10
17.556
 20
5.251900948305439
 30
0.0
 11
17.587
 21
5.221900948305439
 31
0.0
  0
LINE
  5
350
330
18
100
AcDbEntity
  8
Object
100
AcDbLine
 10
17.587
 20
5.221900948305439
 30
0.0
 11
17.626
 21
5.201900948305439
 31
0.0
  0
LINE
  5
351
330
18
100
AcDbEntity
  8
Object
100
AcDbLine
 10
17.626
 20
5.201900948305439
 30
0.0
 11
17.669
 21
5.19490094830544
 31
0.0
  0
LINE
  5
352
330
18
100
AcDbEntity
  8
Object
100
AcDbLine
 10
17.536
 20
8.348900948305439
 30
0.0
 11
17.556
 21
8.387900948305439
 31
0.0
  0
LINE
  5
353
330
18
100
AcDbEntity
  8
Object
100
AcDbLine
 10
17.029
 20
8.20290094830544
 30
0.0
 11
17.072
 21
8.180900948305438
 31
0.0
  0
LINE
  5
354
330
18
100
AcDbEntity
  8
Object
100
AcDbLine
 10
17.072
 20
7.929900948305439
 30
0.0
 11
17.029
 21
7.90790094830544
 31
0.0
  0
LINE
  5
355
330
18
100
AcDbEntity
  8
Object
100
AcDbLine
 10
17.029
 20
5.701900948305439
 30
0.0
 11
17.072
 21
5.679900948305439
 31
0.0
  0
LINE
  5
356
330
18
100
AcDbEntity
  8
Object
100
AcDbLine
 10
17.072
 20
5.429900948305439
 30
0.0
 11
17.029
 21
5.407900948305439
 31
0.0
  0
LINE
  5
357
330
18
100
AcDbEntity
  8
Object
100
AcDbLine
 10
17.029
 20
7.90790094830544
 30
0.0
 11
16.981
 21
7.89990094830544
 31
0.0
  0
LINE
  5
358
330
18
100
AcDbEntity
  8
Object
100
AcDbLine
 10
16.981
 20
5.709900948305439
 30
0.0
 11
17.029
 21
5.701900948305439
 31
0.0
  0
LINE
  5
359
330
18
100
AcDbEntity
  8
Object
100
AcDbLine
 10
16.981
 20
7.89990094830544
 30
0.0
 11
16.933
 21
7.90790094830544
 31
0.0
  0
LINE
  5
35A
330
18
100
AcDbEntity
  8
Object
100
AcDbLine
 10
16.933
 20
5.701900948305439
 30
0.0
 11
16.981
 21
5.709900948305439
 31
0.0
  0
LINE
  5
35B
330
18
100
AcDbEntity
  8
Object
100
AcDbLine
 10
17.536
 20
7.04090094830544
 30
0.0
 11
17.53
 21
7.083900948305439
 31
0.0
  0
LINE
  5
35C
330
18
100
AcDbEntity
  8
Object
100
AcDbLine
 10
16.933
 20
7.90790094830544
 30
0.0
 11
16.89
 21
7.929900948305439
 31
0.0
  0
LINE
  5
35D
330
18
100
AcDbEntity
  8
Object
100
AcDbLine
 10
17.53
 20
6.555900948305439
 30
0.0
 11
17.536
 21
6.598900948305439
 31
0.0
  0
LINE
  5
35E
330
18
100
AcDbEntity
  8
Object
100
AcDbLine
 10
16.933
 20
5.701900948305439
 30
0.0
 11
16.89
 21
5.679900948305439
 31
0.0
  0
LINE
  5
35F
330
18
100
AcDbEntity
  8
Object
100
AcDbLine
 10
16.89
 20
5.679900948305439
 30
0.0
 11
16.856
 21
5.645900948305439
 31
0.0
  0
LINE
  5
360
330
18
100
AcDbEntity
  8
Object
100
AcDbLine
 10
16.89
 20
7.929900948305439
 30
0.0
 11
16.856
 21
7.963900948305439
 31
0.0
  0
LINE
  5
361
330
18
100
AcDbEntity
  8
Object
100
AcDbLine
 10
16.856
 20
7.963900948305439
 30
0.0
 11
16.834
 21
8.006900948305439
 31
0.0
  0
LINE
  5
362
330
18
100
AcDbEntity
  8
Object
100
AcDbLine
 10
16.834
 20
5.602900948305439
 30
0.0
 11
16.856
 21
5.645900948305439
 31
0.0
  0
LINE
  5
363
330
18
100
AcDbEntity
  8
Object
100
AcDbLine
 10
17.626
 20
8.43790094830544
 30
0.0
 11
17.669
 21
8.44490094830544
 31
0.0
  0
LINE
  5
364
330
18
100
AcDbEntity
  8
Object
100
AcDbLine
 10
17.416
 20
8.741900948305438
 30
0.0
 11
16.669
 21
8.741900948305438
 31
0.0
  0
LINE
  5
365
330
18
100
AcDbEntity
  8
Object
100
AcDbLine
 10
18.669
 20
8.741900948305438
 30
0.0
 11
17.922
 21
8.741900948305438
 31
0.0
  0
LINE
  5
366
330
18
100
AcDbEntity
  8
Object
100
AcDbLine
 10
17.626
 20
8.43790094830544
 30
0.0
 11
17.587
 21
8.418900948305438
 31
0.0
  0
LINE
  5
367
330
18
100
AcDbEntity
  8
Object
100
AcDbLine
 10
17.587
 20
8.418900948305438
 30
0.0
 11
17.556
 21
8.387900948305439
 31
0.0
  0
LINE
  5
368
330
18
100
AcDbEntity
  8
Object
100
AcDbLine
 10
16.981
 20
8.209900948305438
 30
0.0
 11
17.029
 21
8.20290094830544
 31
0.0
  0
LINE
  5
369
330
18
100
AcDbEntity
  8
Object
100
AcDbLine
 10
16.856
 20
8.145900948305438
 30
0.0
 11
16.89
 21
8.180900948305438
 31
0.0
  0
LINE
  5
36A
330
18
100
AcDbEntity
  8
Object
100
AcDbLine
 10
16.89
 20
8.180900948305438
 30
0.0
 11
16.933
 21
8.20290094830544
 31
0.0
  0
LINE
  5
36B
330
18
100
AcDbEntity
  8
Object
100
AcDbLine
 10
16.933
 20
8.20290094830544
 30
0.0
 11
16.981
 21
8.209900948305438
 31
0.0
  0
LINE
  5
36C
330
18
100
AcDbEntity
  8
Object
100
AcDbLine
 10
16.856
 20
8.145900948305438
 30
0.0
 11
16.834
 21
8.102900948305439
 31
0.0
  0
LINE
  5
36D
330
18
100
AcDbEntity
  8
Object
100
AcDbLine
 10
16.834
 20
8.102900948305439
 30
0.0
 11
16.826
 21
8.054900948305439
 31
0.0
  0
LINE
  5
36E
330
18
100
AcDbEntity
  8
Object
100
AcDbLine
 10
16.826
 20
8.054900948305439
 30
0.0
 11
16.834
 21
8.006900948305439
 31
0.0
  0
LINE
  5
36F
330
18
100
AcDbEntity
  8
Object
100
AcDbLine
 10
16.669
 20
8.741900948305438
 30
0.0
 11
16.669
 21
4.94490094830544
 31
0.0
  0
LINE
  5
370
330
18
100
AcDbEntity
  8
Object
100
AcDbLine
 10
16.834
 20
5.602900948305439
 30
0.0
 11
16.826
 21
5.554900948305439
 31
0.0
  0
LINE
  5
371
330
18
100
AcDbEntity
  8
Object
100
AcDbLine
 10
16.826
 20
5.554900948305439
 30
0.0
 11
16.834
 21
5.506900948305439
 31
0.0
  0
LINE
  5
372
330
18
100
AcDbEntity
  8
Object
100
AcDbLine
 10
16.834
 20
5.506900948305439
 30
0.0
 11
16.856
 21
5.463900948305439
 31
0.0
  0
LINE
  5
373
330
18
100
AcDbEntity
  8
Object
100
AcDbLine
 10
16.856
 20
5.463900948305439
 30
0.0
 11
16.89
 21
5.429900948305439
 31
0.0
  0
LINE
  5
374
330
18
100
AcDbEntity
  8
Object
100
AcDbLine
 10
16.89
 20
5.429900948305439
 30
0.0
 11
16.933
 21
5.407900948305439
 31
0.0
  0
LINE
  5
375
330
18
100
AcDbEntity
  8
Object
100
AcDbLine
 10
16.933
 20
5.407900948305439
 30
0.0
 11
16.981
 21
5.399900948305439
 31
0.0
  0
LINE
  5
376
330
18
100
AcDbEntity
  8
Object
100
AcDbLine
 10
16.981
 20
5.399900948305439
 30
0.0
 11
17.029
 21
5.407900948305439
 31
0.0
  0
LINE
  5
377
330
18
100
AcDbEntity
  8
Object
100
AcDbLine
 10
16.669
 20
4.94490094830544
 30
0.0
 11
17.044
 21
4.56990094830544
 31
0.0
  0
LINE
  5
378
330
18
100
AcDbEntity
  8
Object
100
AcDbLine
 10
18.294
 20
4.56990094830544
 30
0.0
 11
18.669
 21
4.94490094830544
 31
0.0
  0
LINE
  5
379
330
18
100
AcDbEntity
  8
Object
100
AcDbLine
 10
16.669
 20
4.94490094830544
 30
0.0
 11
17.044
 21
4.56990094830544
 31
0.0
  0
LINE
  5
37A
330
18
100
AcDbEntity
  8
Object
100
AcDbLine
 10
16.981
 20
5.399900948305439
 30
0.0
 11
16.933
 21
5.407900948305439
 31
0.0
  0
LINE
  5
37B
330
18
100
AcDbEntity
  8
Object
100
AcDbLine
 10
16.981
 20
5.709900948305439
 30
0.0
 11
16.933
 21
5.701900948305439
 31
0.0
  0
LINE
  5
37C
330
18
100
AcDbEntity
  8
Object
100
AcDbLine
 10
16.933
 20
5.701900948305439
 30
0.0
 11
16.89
 21
5.679900948305439
 31
0.0
  0
LINE
  5
37D
330
18
100
AcDbEntity
  8
Object
100
AcDbLine
 10
16.933
 20
5.407900948305439
 30
0.0
 11
16.89
 21
5.429900948305439
 31
0.0
  0
LINE
  5
37E
330
18
100
AcDbEntity
  8
Object
100
AcDbLine
 10
16.89
 20
5.429900948305439
 30
0.0
 11
16.856
 21
5.463900948305439
 31
0.0
  0
LINE
  5
37F
330
18
100
AcDbEntity
  8
Object
100
AcDbLine
 10
16.89
 20
5.679900948305439
 30
0.0
 11
16.856
 21
5.645900948305439
 31
0.0
  0
LINE
  5
380
330
18
100
AcDbEntity
  8
Object
100
AcDbLine
 10
16.856
 20
5.645900948305439
 30
0.0
 11
16.834
 21
5.602900948305439
 31
0.0
  0
LINE
  5
381
330
18
100
AcDbEntity
  8
Object
100
AcDbLine
 10
16.856
 20
5.463900948305439
 30
0.0
 11
16.834
 21
5.506900948305439
 31
0.0
  0
LINE
  5
382
330
18
100
AcDbEntity
  8
Object
100
AcDbLine
 10
16.834
 20
5.506900948305439
 30
0.0
 11
16.826
 21
5.554900948305439
 31
0.0
  0
LINE
  5
383
330
18
100
AcDbEntity
  8
Object
100
AcDbLine
 10
16.826
 20
5.554900948305439
 30
0.0
 11
16.834
 21
5.602900948305439
 31
0.0
  0
LINE
  5
384
330
18
100
AcDbEntity
  8
Object
100
AcDbLine
 10
16.981
 20
7.89990094830544
 30
0.0
 11
16.933
 21
7.90790094830544
 31
0.0
  0
LINE
  5
385
330
18
100
AcDbEntity
  8
Object
100
AcDbLine
 10
16.981
 20
8.209900948305438
 30
0.0
 11
16.933
 21
8.20290094830544
 31
0.0
  0
LINE
  5
386
330
18
100
AcDbEntity
  8
Object
100
AcDbLine
 10
16.933
 20
8.20290094830544
 30
0.0
 11
16.89
 21
8.180900948305438
 31
0.0
  0
LINE
  5
387
330
18
100
AcDbEntity
  8
Object
100
AcDbLine
 10
16.933
 20
7.90790094830544
 30
0.0
 11
16.89
 21
7.929900948305439
 31
0.0
  0
LINE
  5
388
330
18
100
AcDbEntity
  8
Object
100
AcDbLine
 10
16.89
 20
7.929900948305439
 30
0.0
 11
16.856
 21
7.963900948305439
 31
0.0
  0
LINE
  5
389
330
18
100
AcDbEntity
  8
Object
100
AcDbLine
 10
16.89
 20
8.180900948305438
 30
0.0
 11
16.856
 21
8.145900948305438
 31
0.0
  0
LINE
  5
38A
330
18
100
AcDbEntity
  8
Object
100
AcDbLine
 10
16.856
 20
8.145900948305438
 30
0.0
 11
16.834
 21
8.102900948305439
 31
0.0
  0
LINE
  5
38B
330
18
100
AcDbEntity
  8
Object
100
AcDbLine
 10
16.856
 20
7.963900948305439
 30
0.0
 11
16.834
 21
8.006900948305439
 31
0.0
  0
LINE
  5
38C
330
18
100
AcDbEntity
  8
Object
100
AcDbLine
 10
16.834
 20
8.006900948305439
 30
0.0
 11
16.826
 21
8.054900948305439
 31
0.0
  0
LINE
  5
38D
330
18
100
AcDbEntity
  8
Object
100
AcDbLine
 10
16.826
 20
8.054900948305439
 30
0.0
 11
16.834
 21
8.102900948305439
 31
0.0
  0
LINE
  5
38E
330
18
100
AcDbEntity
  8
Object
100
AcDbLine
 10
18.308
 20
8.20290094830544
 30
0.0
 11
18.356
 21
8.209900948305438
 31
0.0
  0
LINE
  5
38F
330
18
100
AcDbEntity
  8
Object
100
AcDbLine
 10
18.356
 20
7.89990094830544
 30
0.0
 11
18.308
 21
7.90790094830544
 31
0.0
  0
LINE
  5
390
330
18
100
AcDbEntity
  8
Object
100
AcDbLine
 10
18.308
 20
7.90790094830544
 30
0.0
 11
18.265
 21
7.929900948305439
 31
0.0
  0
LINE
  5
391
330
18
100
AcDbEntity
  8
Object
100
AcDbLine
 10
18.308
 20
8.20290094830544
 30
0.0
 11
18.265
 21
8.180900948305438
 31
0.0
  0
LINE
  5
392
330
18
100
AcDbEntity
  8
Object
100
AcDbLine
 10
18.265
 20
8.180900948305438
 30
0.0
 11
18.231
 21
8.145900948305438
 31
0.0
  0
LINE
  5
393
330
18
100
AcDbEntity
  8
Object
100
AcDbLine
 10
18.265
 20
7.929900948305439
 30
0.0
 11
18.231
 21
7.963900948305439
 31
0.0
  0
LINE
  5
394
330
18
100
AcDbEntity
  8
Object
100
AcDbLine
 10
18.231
 20
7.963900948305439
 30
0.0
 11
18.209
 21
8.006900948305439
 31
0.0
  0
LINE
  5
395
330
18
100
AcDbEntity
  8
Object
100
AcDbLine
 10
18.209
 20
8.102900948305439
 30
0.0
 11
18.231
 21
8.145900948305438
 31
0.0
  0
LINE
  5
396
330
18
100
AcDbEntity
  8
Object
100
AcDbLine
 10
18.209
 20
8.006900948305439
 30
0.0
 11
18.201
 21
8.054900948305439
 31
0.0
  0
LINE
  5
397
330
18
100
AcDbEntity
  8
Object
100
AcDbLine
 10
18.201
 20
8.054900948305439
 30
0.0
 11
18.209
 21
8.102900948305439
 31
0.0
  0
LINE
  5
398
330
18
100
AcDbEntity
  8
Object
100
AcDbLine
 10
17.808
 20
6.555900948305439
 30
0.0
 11
17.801
 21
6.598900948305439
 31
0.0
  0
LINE
  5
399
330
18
100
AcDbEntity
  8
Object
100
AcDbLine
 10
17.801
 20
6.598900948305439
 30
0.0
 11
17.781
 21
6.637900948305439
 31
0.0
  0
LINE
  5
39A
330
18
100
AcDbEntity
  8
Object
100
AcDbLine
 10
17.781
 20
6.637900948305439
 30
0.0
 11
17.75
 21
6.668900948305439
 31
0.0
  0
LINE
  5
39B
330
18
100
AcDbEntity
  8
Object
100
AcDbLine
 10
17.75
 20
6.668900948305439
 30
0.0
 11
17.712
 21
6.687900948305439
 31
0.0
  0
LINE
  5
39C
330
18
100
AcDbEntity
  8
Object
100
AcDbLine
 10
17.712
 20
6.687900948305439
 30
0.0
 11
17.669
 21
6.69490094830544
 31
0.0
  0
LINE
  5
39D
330
18
100
AcDbEntity
  8
Object
100
AcDbLine
 10
17.669
 20
6.69490094830544
 30
0.0
 11
17.626
 21
6.687900948305439
 31
0.0
  0
LINE
  5
39E
330
18
100
AcDbEntity
  8
Object
100
AcDbLine
 10
17.626
 20
6.687900948305439
 30
0.0
 11
17.587
 21
6.668900948305439
 31
0.0
  0
LINE
  5
39F
330
18
100
AcDbEntity
  8
Object
100
AcDbLine
 10
17.587
 20
6.668900948305439
 30
0.0
 11
17.556
 21
6.637900948305439
 31
0.0
  0
LINE
  5
3A0
330
18
100
AcDbEntity
  8
Object
100
AcDbLine
 10
17.556
 20
6.637900948305439
 30
0.0
 11
17.536
 21
6.598900948305439
 31
0.0
  0
LINE
  5
3A1
330
18
100
AcDbEntity
  8
Object
100
AcDbLine
 10
17.536
 20
6.598900948305439
 30
0.0
 11
17.53
 21
6.555900948305439
 31
0.0
  0
LINE
  5
3A2
330
18
100
AcDbEntity
  8
Object
100
AcDbLine
 10
17.808
 20
5.333900948305439
 30
0.0
 11
17.801
 21
5.290900948305439
 31
0.0
  0
LINE
  5
3A3
330
18
100
AcDbEntity
  8
Object
100
AcDbLine
 10
17.801
 20
5.290900948305439
 30
0.0
 11
17.781
 21
5.251900948305439
 31
0.0
  0
LINE
  5
3A4
330
18
100
AcDbEntity
  8
Object
100
AcDbLine
 10
17.781
 20
5.251900948305439
 30
0.0
 11
17.75
 21
5.221900948305439
 31
0.0
  0
LINE
  5
3A5
330
18
100
AcDbEntity
  8
Object
100
AcDbLine
 10
17.75
 20
5.221900948305439
 30
0.0
 11
17.712
 21
5.201900948305439
 31
0.0
  0
LINE
  5
3A6
330
18
100
AcDbEntity
  8
Object
100
AcDbLine
 10
17.712
 20
5.201900948305439
 30
0.0
 11
17.669
 21
5.19490094830544
 31
0.0
  0
LINE
  5
3A7
330
18
100
AcDbEntity
  8
Object
100
AcDbLine
 10
17.808
 20
8.305900948305438
 30
0.0
 11
17.808
 21
7.083900948305439
 31
0.0
  0
LINE
  5
3A8
330
18
100
AcDbEntity
  8
Object
100
AcDbLine
 10
17.129
 20
8.102900948305439
 30
0.0
 11
17.136
 21
8.054900948305439
 31
0.0
  0
LINE
  5
3A9
330
18
100
AcDbEntity
  8
Object
100
AcDbLine
 10
17.136
 20
8.054900948305439
 30
0.0
 11
17.129
 21
8.006900948305439
 31
0.0
  0
LINE
  5
3AA
330
18
100
AcDbEntity
  8
Object
100
AcDbLine
 10
17.129
 20
8.006900948305439
 30
0.0
 11
17.107
 21
7.963900948305439
 31
0.0
  0
LINE
  5
3AB
330
18
100
AcDbEntity
  8
Object
100
AcDbLine
 10
17.129
 20
8.102900948305439
 30
0.0
 11
17.107
 21
8.145900948305438
 31
0.0
  0
LINE
  5
3AC
330
18
100
AcDbEntity
  8
Object
100
AcDbLine
 10
17.107
 20
8.145900948305438
 30
0.0
 11
17.072
 21
8.180900948305438
 31
0.0
  0
LINE
  5
3AD
330
18
100
AcDbEntity
  8
Object
100
AcDbLine
 10
17.107
 20
7.963900948305439
 30
0.0
 11
17.072
 21
7.929900948305439
 31
0.0
  0
LINE
  5
3AE
330
18
100
AcDbEntity
  8
Object
100
AcDbLine
 10
17.072
 20
7.929900948305439
 30
0.0
 11
17.029
 21
7.90790094830544
 31
0.0
  0
LINE
  5
3AF
330
18
100
AcDbEntity
  8
Object
100
AcDbLine
 10
17.072
 20
8.180900948305438
 30
0.0
 11
17.029
 21
8.20290094830544
 31
0.0
  0
LINE
  5
3B0
330
18
100
AcDbEntity
  8
Object
100
AcDbLine
 10
17.029
 20
8.20290094830544
 30
0.0
 11
16.981
 21
8.209900948305438
 31
0.0
  0
LINE
  5
3B1
330
18
100
AcDbEntity
  8
Object
100
AcDbLine
 10
17.029
 20
7.90790094830544
 30
0.0
 11
16.981
 21
7.89990094830544
 31
0.0
  0
LINE
  5
3B2
330
18
100
AcDbEntity
  8
Object
100
AcDbLine
 10
17.53
 20
7.083900948305439
 30
0.0
 11
17.53
 21
8.305900948305438
 31
0.0
  0
LINE
  5
3B3
330
18
100
AcDbEntity
  8
Object
100
AcDbLine
 10
18.504
 20
8.102900948305439
 30
0.0
 11
18.511
 21
8.054900948305439
 31
0.0
  0
LINE
  5
3B4
330
18
100
AcDbEntity
  8
Object
100
AcDbLine
 10
18.511
 20
8.054900948305439
 30
0.0
 11
18.504
 21
8.006900948305439
 31
0.0
  0
LINE
  5
3B5
330
18
100
AcDbEntity
  8
Object
100
AcDbLine
 10
18.504
 20
8.006900948305439
 30
0.0
 11
18.482
 21
7.963900948305439
 31
0.0
  0
LINE
  5
3B6
330
18
100
AcDbEntity
  8
Object
100
AcDbLine
 10
18.504
 20
8.102900948305439
 30
0.0
 11
18.482
 21
8.145900948305438
 31
0.0
  0
LINE
  5
3B7
330
18
100
AcDbEntity
  8
Object
100
AcDbLine
 10
18.482
 20
8.145900948305438
 30
0.0
 11
18.447
 21
8.180900948305438
 31
0.0
  0
LINE
  5
3B8
330
18
100
AcDbEntity
  8
Object
100
AcDbLine
 10
18.482
 20
7.963900948305439
 30
0.0
 11
18.447
 21
7.929900948305439
 31
0.0
  0
LINE
  5
3B9
330
18
100
AcDbEntity
  8
Object
100
AcDbLine
 10
18.447
 20
7.929900948305439
 30
0.0
 11
18.404
 21
7.90790094830544
 31
0.0
  0
LINE
  5
3BA
330
18
100
AcDbEntity
  8
Object
100
AcDbLine
 10
18.447
 20
8.180900948305438
 30
0.0
 11
18.404
 21
8.20290094830544
 31
0.0
  0
LINE
  5
3BB
330
18
100
AcDbEntity
  8
Object
100
AcDbLine
 10
18.404
 20
8.20290094830544
 30
0.0
 11
18.356
 21
8.209900948305438
 31
0.0
  0
LINE
  5
3BC
330
18
100
AcDbEntity
  8
Object
100
AcDbLine
 10
18.404
 20
7.90790094830544
 30
0.0
 11
18.356
 21
7.89990094830544
 31
0.0
  0
LINE
  5
3BD
330
18
100
AcDbEntity
  8
Object
100
AcDbLine
 10
17.669
 20
5.19490094830544
 30
0.0
 11
17.626
 21
5.201900948305439
 31
0.0
  0
LINE
  5
3BE
330
18
100
AcDbEntity
  8
Object
100
AcDbLine
 10
17.626
 20
5.201900948305439
 30
0.0
 11
17.587
 21
5.221900948305439
 31
0.0
  0
LINE
  5
3BF
330
18
100
AcDbEntity
  8
Object
100
AcDbLine
 10
17.587
 20
5.221900948305439
 30
0.0
 11
17.556
 21
5.251900948305439
 31
0.0
  0
LINE
  5
3C0
330
18
100
AcDbEntity
  8
Object
100
AcDbLine
 10
17.556
 20
5.251900948305439
 30
0.0
 11
17.536
 21
5.290900948305439
 31
0.0
  0
LINE
  5
3C1
330
18
100
AcDbEntity
  8
Object
100
AcDbLine
 10
17.536
 20
5.290900948305439
 30
0.0
 11
17.53
 21
5.333900948305439
 31
0.0
  0
LINE
  5
3C2
330
18
100
AcDbEntity
  8
Object
100
AcDbLine
 10
18.308
 20
5.701900948305439
 30
0.0
 11
18.356
 21
5.709900948305439
 31
0.0
  0
LINE
  5
3C3
330
18
100
AcDbEntity
  8
Object
100
AcDbLine
 10
18.356
 20
5.399900948305439
 30
0.0
 11
18.308
 21
5.407900948305439
 31
0.0
  0
LINE
  5
3C4
330
18
100
AcDbEntity
  8
Object
100
AcDbLine
 10
18.308
 20
5.407900948305439
 30
0.0
 11
18.265
 21
5.429900948305439
 31
0.0
  0
LINE
  5
3C5
330
18
100
AcDbEntity
  8
Object
100
AcDbLine
 10
18.308
 20
5.701900948305439
 30
0.0
 11
18.265
 21
5.679900948305439
 31
0.0
  0
LINE
  5
3C6
330
18
100
AcDbEntity
  8
Object
100
AcDbLine
 10
18.265
 20
5.679900948305439
 30
0.0
 11
18.231
 21
5.645900948305439
 31
0.0
  0
LINE
  5
3C7
330
18
100
AcDbEntity
  8
Object
100
AcDbLine
 10
18.265
 20
5.429900948305439
 30
0.0
 11
18.231
 21
5.463900948305439
 31
0.0
  0
LINE
  5
3C8
330
18
100
AcDbEntity
  8
Object
100
AcDbLine
 10
18.231
 20
5.463900948305439
 30
0.0
 11
18.209
 21
5.506900948305439
 31
0.0
  0
LINE
  5
3C9
330
18
100
AcDbEntity
  8
Object
100
AcDbLine
 10
18.209
 20
5.602900948305439
 30
0.0
 11
18.231
 21
5.645900948305439
 31
0.0
  0
LINE
  5
3CA
330
18
100
AcDbEntity
  8
Object
100
AcDbLine
 10
18.209
 20
5.506900948305439
 30
0.0
 11
18.201
 21
5.554900948305439
 31
0.0
  0
LINE
  5
3CB
330
18
100
AcDbEntity
  8
Object
100
AcDbLine
 10
18.201
 20
5.554900948305439
 30
0.0
 11
18.209
 21
5.602900948305439
 31
0.0
  0
LINE
  5
3CC
330
18
100
AcDbEntity
  8
Object
100
AcDbLine
 10
17.129
 20
5.602900948305439
 30
0.0
 11
17.136
 21
5.554900948305439
 31
0.0
  0
LINE
  5
3CD
330
18
100
AcDbEntity
  8
Object
100
AcDbLine
 10
17.136
 20
5.554900948305439
 30
0.0
 11
17.129
 21
5.506900948305439
 31
0.0
  0
LINE
  5
3CE
330
18
100
AcDbEntity
  8
Object
100
AcDbLine
 10
17.129
 20
5.506900948305439
 30
0.0
 11
17.107
 21
5.463900948305439
 31
0.0
  0
LINE
  5
3CF
330
18
100
AcDbEntity
  8
Object
100
AcDbLine
 10
17.129
 20
5.602900948305439
 30
0.0
 11
17.107
 21
5.645900948305439
 31
0.0
  0
LINE
  5
3D0
330
18
100
AcDbEntity
  8
Object
100
AcDbLine
 10
17.107
 20
5.645900948305439
 30
0.0
 11
17.072
 21
5.679900948305439
 31
0.0
  0
LINE
  5
3D1
330
18
100
AcDbEntity
  8
Object
100
AcDbLine
 10
17.107
 20
5.463900948305439
 30
0.0
 11
17.072
 21
5.429900948305439
 31
0.0
  0
LINE
  5
3D2
330
18
100
AcDbEntity
  8
Object
100
AcDbLine
 10
17.072
 20
5.429900948305439
 30
0.0
 11
17.029
 21
5.407900948305439
 31
0.0
  0
LINE
  5
3D3
330
18
100
AcDbEntity
  8
Object
100
AcDbLine
 10
17.072
 20
5.679900948305439
 30
0.0
 11
17.029
 21
5.701900948305439
 31
0.0
  0
LINE
  5
3D4
330
18
100
AcDbEntity
  8
Object
100
AcDbLine
 10
17.029
 20
5.701900948305439
 30
0.0
 11
16.981
 21
5.709900948305439
 31
0.0
  0
LINE
  5
3D5
330
18
100
AcDbEntity
  8
Object
100
AcDbLine
 10
17.029
 20
5.407900948305439
 30
0.0
 11
16.981
 21
5.399900948305439
 31
0.0
  0
LINE
  5
3D6
330
18
100
AcDbEntity
  8
Object
100
AcDbLine
 10
17.044
 20
4.56990094830544
 30
0.0
 11
18.294
 21
4.56990094830544
 31
0.0
  0
LINE
  5
3D7
330
18
100
AcDbEntity
  8
Object
100
AcDbLine
 10
18.504
 20
5.602900948305439
 30
0.0
 11
18.511
 21
5.554900948305439
 31
0.0
  0
LINE
  5
3D8
330
18
100
AcDbEntity
  8
Object
100
AcDbLine
 10
18.511
 20
5.554900948305439
 30
0.0
 11
18.504
 21
5.506900948305439
 31
0.0
  0
LINE
  5
3D9
330
18
100
AcDbEntity
  8
Object
100
AcDbLine
 10
18.504
 20
5.506900948305439
 30
0.0
 11
18.482
 21
5.463900948305439
 31
0.0
  0
LINE
  5
3DA
330
18
100
AcDbEntity
  8
Object
100
AcDbLine
 10
18.504
 20
5.602900948305439
 30
0.0
 11
18.482
 21
5.645900948305439
 31
0.0
  0
LINE
  5
3DB
330
18
100
AcDbEntity
  8
Object
100
AcDbLine
 10
18.482
 20
5.645900948305439
 30
0.0
 11
18.447
 21
5.679900948305439
 31
0.0
  0
LINE
  5
3DC
330
18
100
AcDbEntity
  8
Object
100
AcDbLine
 10
18.482
 20
5.463900948305439
 30
0.0
 11
18.447
 21
5.429900948305439
 31
0.0
  0
LINE
  5
3DD
330
18
100
AcDbEntity
  8
Object
100
AcDbLine
 10
18.447
 20
5.429900948305439
 30
0.0
 11
18.404
 21
5.407900948305439
 31
0.0
  0
LINE
  5
3DE
330
18
100
AcDbEntity
  8
Object
100
AcDbLine
 10
18.447
 20
5.679900948305439
 30
0.0
 11
18.404
 21
5.701900948305439
 31
0.0
  0
LINE
  5
3DF
330
18
100
AcDbEntity
  8
Object
100
AcDbLine
 10
18.404
 20
5.701900948305439
 30
0.0
 11
18.356
 21
5.709900948305439
 31
0.0
  0
LINE
  5
3E0
330
18
100
AcDbEntity
  8
Object
100
AcDbLine
 10
18.404
 20
5.407900948305439
 30
0.0
 11
18.356
 21
5.399900948305439
 31
0.0
  0
LINE
  5
3E1
330
18
100
AcDbEntity
  8
Object
100
AcDbLine
 10
17.53
 20
5.333900948305439
 30
0.0
 11
17.53
 21
6.555900948305439
 31
0.0
  0
LINE
  5
3E2
330
18
100
AcDbEntity
  8
Object
100
AcDbLine
 10
17.808
 20
7.083900948305439
 30
0.0
 11
17.801
 21
7.04090094830544
 31
0.0
  0
LINE
  5
3E3
330
18
100
AcDbEntity
  8
Object
100
AcDbLine
 10
17.801
 20
7.04090094830544
 30
0.0
 11
17.781
 21
7.001900948305439
 31
0.0
  0
LINE
  5
3E4
330
18
100
AcDbEntity
  8
Object
100
AcDbLine
 10
17.781
 20
7.001900948305439
 30
0.0
 11
17.75
 21
6.971900948305439
 31
0.0
  0
LINE
  5
3E5
330
18
100
AcDbEntity
  8
Object
100
AcDbLine
 10
17.75
 20
6.971900948305439
 30
0.0
 11
17.712
 21
6.951900948305439
 31
0.0
  0
LINE
  5
3E6
330
18
100
AcDbEntity
  8
Object
100
AcDbLine
 10
17.712
 20
6.951900948305439
 30
0.0
 11
17.669
 21
6.94490094830544
 31
0.0
  0
LINE
  5
3E7
330
18
100
AcDbEntity
  8
Object
100
AcDbLine
 10
17.808
 20
6.555900948305439
 30
0.0
 11
17.808
 21
5.333900948305439
 31
0.0
  0
LINE
  5
3E8
330
18
100
AcDbEntity
  8
Object
100
AcDbLine
 10
17.808
 20
8.305900948305438
 30
0.0
 11
17.801
 21
8.348900948305439
 31
0.0
  0
LINE
  5
3E9
330
18
100
AcDbEntity
  8
Object
100
AcDbLine
 10
17.801
 20
8.348900948305439
 30
0.0
 11
17.781
 21
8.387900948305439
 31
0.0
  0
LINE
  5
3EA
330
18
100
AcDbEntity
  8
Object
100
AcDbLine
 10
17.781
 20
8.387900948305439
 30
0.0
 11
17.75
 21
8.418900948305438
 31
0.0
  0
LINE
  5
3EB
330
18
100
AcDbEntity
  8
Object
100
AcDbLine
 10
17.75
 20
8.418900948305438
 30
0.0
 11
17.712
 21
8.43790094830544
 31
0.0
  0
LINE
  5
3EC
330
18
100
AcDbEntity
  8
Object
100
AcDbLine
 10
17.712
 20
8.43790094830544
 30
0.0
 11
17.669
 21
8.44490094830544
 31
0.0
  0
LINE
  5
3ED
330
18
100
AcDbEntity
  8
Object
100
AcDbLine
 10
17.669
 20
8.44490094830544
 30
0.0
 11
17.626
 21
8.43790094830544
 31
0.0
  0
LINE
  5
3EE
330
18
100
AcDbEntity
  8
Object
100
AcDbLine
 10
17.626
 20
8.43790094830544
 30
0.0
 11
17.587
 21
8.418900948305438
 31
0.0
  0
LINE
  5
3EF
330
18
100
AcDbEntity
  8
Object
100
AcDbLine
 10
17.587
 20
8.418900948305438
 30
0.0
 11
17.556
 21
8.387900948305439
 31
0.0
  0
LINE
  5
3F0
330
18
100
AcDbEntity
  8
Object
100
AcDbLine
 10
17.556
 20
8.387900948305439
 30
0.0
 11
17.536
 21
8.348900948305439
 31
0.0
  0
LINE
  5
3F1
330
18
100
AcDbEntity
  8
Object
100
AcDbLine
 10
17.536
 20
8.348900948305439
 30
0.0
 11
17.53
 21
8.305900948305438
 31
0.0
  0
LINE
  5
3F2
330
18
100
AcDbEntity
  8
Object
100
AcDbLine
 10
17.669
 20
6.94490094830544
 30
0.0
 11
17.626
 21
6.951900948305439
 31
0.0
  0
LINE
  5
3F3
330
18
100
AcDbEntity
  8
Object
100
AcDbLine
 10
17.626
 20
6.951900948305439
 30
0.0
 11
17.587
 21
6.971900948305439
 31
0.0
  0
LINE
  5
3F4
330
18
100
AcDbEntity
  8
Object
100
AcDbLine
 10
17.587
 20
6.971900948305439
 30
0.0
 11
17.556
 21
7.001900948305439
 31
0.0
  0
LINE
  5
3F5
330
18
100
AcDbEntity
  8
Object
100
AcDbLine
 10
17.556
 20
7.001900948305439
 30
0.0
 11
17.536
 21
7.04090094830544
 31
0.0
  0
LINE
  5
3F6
330
18
100
AcDbEntity
  8
Object
100
AcDbLine
 10
17.536
 20
7.04090094830544
 30
0.0
 11
17.53
 21
7.083900948305439
 31
0.0
  0
LINE
  5
3F7
330
18
100
AcDbEntity
  8
Object
100
AcDbLine
 10
17.783
 20
9.305900948305438
 30
0.0
 11
17.779
 21
9.307900948305439
 31
0.0
  0
LINE
  5
3F8
330
18
100
AcDbEntity
  8
Object
100
AcDbLine
 10
17.569
 20
9.31990094830544
 30
0.0
 11
17.559
 21
9.31990094830544
 31
0.0
  0
LINE
  5
3F9
330
18
100
AcDbEntity
  8
Object
100
AcDbLine
 10
17.559
 20
9.31990094830544
 30
0.0
 11
17.548
 21
9.317900948305439
 31
0.0
  0
LINE
  5
3FA
330
18
100
AcDbEntity
  8
Object
100
AcDbLine
 10
17.558
 20
9.307900948305439
 30
0.0
 11
17.546
 21
9.314900948305439
 31
0.0
  0
LINE
  5
3FB
330
18
100
AcDbEntity
  8
Object
100
AcDbLine
 10
17.546
 20
9.314900948305439
 30
0.0
 11
17.544
 21
9.31590094830544
 31
0.0
  0
LINE
  5
3FC
330
18
100
AcDbEntity
  8
Object
100
AcDbLine
 10
17.544
 20
9.31590094830544
 30
0.0
 11
17.548
 21
9.317900948305439
 31
0.0
  0
LINE
  5
3FD
330
18
100
AcDbEntity
  8
Object
100
AcDbLine
 10
17.544
 20
9.31990094830544
 30
0.0
 11
17.544
 21
9.31590094830544
 31
0.0
  0
LINE
  5
3FE
330
18
100
AcDbEntity
  8
Object
100
AcDbLine
 10
17.569
 20
9.31990094830544
 30
0.0
 11
17.559
 21
9.31990094830544
 31
0.0
  0
LINE
  5
3FF
330
18
100
AcDbEntity
  8
Object
100
AcDbLine
 10
17.559
 20
9.31990094830544
 30
0.0
 11
17.551
 21
9.31990094830544
 31
0.0
  0
LINE
  5
400
330
18
100
AcDbEntity
  8
Object
100
AcDbLine
 10
17.551
 20
9.31990094830544
 30
0.0
 11
17.545
 21
9.31990094830544
 31
0.0
  0
LINE
  5
401
330
18
100
AcDbEntity
  8
Object
100
AcDbLine
 10
17.545
 20
9.31990094830544
 30
0.0
 11
17.544
 21
9.31990094830544
 31
0.0
  0
LINE
  5
402
330
18
100
AcDbEntity
  8
Object
100
AcDbLine
 10
17.559
 20
9.31990094830544
 30
0.0
 11
17.551
 21
9.31990094830544
 31
0.0
  0
LINE
  5
403
330
18
100
AcDbEntity
  8
Object
100
AcDbLine
 10
17.551
 20
9.31990094830544
 30
0.0
 11
17.545
 21
9.31990094830544
 31
0.0
  0
LINE
  5
404
330
18
100
AcDbEntity
  8
Object
100
AcDbLine
 10
17.545
 20
9.31990094830544
 30
0.0
 11
17.544
 21
9.31990094830544
 31
0.0
  0
LINE
  5
405
330
18
100
AcDbEntity
  8
Object
100
AcDbLine
 10
17.891
 20
9.22690094830544
 30
0.0
 11
17.891
 21
9.207900948305439
 31
0.0
  0
LINE
  5
406
330
18
100
AcDbEntity
  8
Object
100
AcDbLine
 10
17.891
 20
9.18190094830544
 30
0.0
 11
17.891
 21
9.150900948305439
 31
0.0
  0
LINE
  5
407
330
18
100
AcDbEntity
  8
Object
100
AcDbLine
 10
17.891
 20
9.14290094830544
 30
0.0
 11
17.891
 21
9.137900948305439
 31
0.0
  0
LINE
  5
408
330
18
100
AcDbEntity
  8
Object
100
AcDbLine
 10
17.891
 20
9.137900948305439
 30
0.0
 11
17.891
 21
9.135900948305438
 31
0.0
  0
LINE
  5
409
330
18
100
AcDbEntity
  8
Object
100
AcDbLine
 10
17.891
 20
9.150900948305439
 30
0.0
 11
17.891
 21
9.14290094830544
 31
0.0
  0
LINE
  5
40A
330
18
100
AcDbEntity
  8
Object
100
AcDbLine
 10
17.891
 20
9.207900948305439
 30
0.0
 11
17.891
 21
9.18190094830544
 31
0.0
  0
LINE
  5
40B
330
18
100
AcDbEntity
  8
Object
100
AcDbLine
 10
17.891
 20
9.22690094830544
 30
0.0
 11
17.891
 21
9.23590094830544
 31
0.0
  0
LINE
  5
40C
330
18
100
AcDbEntity
  8
Object
100
AcDbLine
 10
17.891
 20
9.23590094830544
 30
0.0
 11
17.891
 21
9.252900948305439
 31
0.0
  0
LINE
  5
40D
330
18
100
AcDbEntity
  8
Object
100
AcDbLine
 10
18.294
 20
9.207900948305439
 30
0.0
 11
18.294
 21
9.22690094830544
 31
0.0
  0
LINE
  5
40E
330
18
100
AcDbEntity
  8
Object
100
AcDbLine
 10
18.294
 20
9.150900948305439
 30
0.0
 11
18.294
 21
9.18190094830544
 31
0.0
  0
LINE
  5
40F
330
18
100
AcDbEntity
  8
Object
100
AcDbLine
 10
18.294
 20
9.137900948305439
 30
0.0
 11
18.294
 21
9.14290094830544
 31
0.0
  0
LINE
  5
410
330
18
100
AcDbEntity
  8
Object
100
AcDbLine
 10
18.294
 20
9.060900948305439
 30
0.0
 11
18.294
 21
9.135900948305438
 31
0.0
  0
LINE
  5
411
330
18
100
AcDbEntity
  8
Object
100
AcDbLine
 10
18.294
 20
9.135900948305438
 30
0.0
 11
18.294
 21
9.137900948305439
 31
0.0
  0
LINE
  5
412
330
18
100
AcDbEntity
  8
Object
100
AcDbLine
 10
18.294
 20
9.14290094830544
 30
0.0
 11
18.294
 21
9.150900948305439
 31
0.0
  0
LINE
  5
413
330
18
100
AcDbEntity
  8
Object
100
AcDbLine
 10
18.294
 20
9.18190094830544
 30
0.0
 11
18.294
 21
9.207900948305439
 31
0.0
  0
LINE
  5
414
330
18
100
AcDbEntity
  8
Object
100
AcDbLine
 10
18.294
 20
9.22690094830544
 30
0.0
 11
18.294
 21
9.23590094830544
 31
0.0
  0
LINE
  5
415
330
18
100
AcDbEntity
  8
Object
100
AcDbLine
 10
18.294
 20
9.23590094830544
 30
0.0
 11
18.294
 21
9.252900948305439
 31
0.0
  0
LINE
  5
416
330
18
100
AcDbEntity
  8
Object
100
AcDbLine
 10
18.294
 20
9.135900948305438
 30
0.0
 11
18.288
 21
9.135900948305438
 31
0.0
  0
LINE
  5
417
330
18
100
AcDbEntity
  8
Object
100
AcDbLine
 10
18.288
 20
9.135900948305438
 30
0.0
 11
18.27
 21
9.135900948305438
 31
0.0
  0
LINE
  5
418
330
18
100
AcDbEntity
  8
Object
100
AcDbLine
 10
18.27
 20
9.135900948305438
 30
0.0
 11
18.242
 21
9.135900948305438
 31
0.0
  0
LINE
  5
419
330
18
100
AcDbEntity
  8
Object
100
AcDbLine
 10
18.242
 20
9.135900948305438
 30
0.0
 11
18.207
 21
9.135900948305438
 31
0.0
  0
LINE
  5
41A
330
18
100
AcDbEntity
  8
Object
100
AcDbLine
 10
18.207
 20
9.135900948305438
 30
0.0
 11
18.169
 21
9.135900948305438
 31
0.0
  0
LINE
  5
41B
330
18
100
AcDbEntity
  8
Object
100
AcDbLine
 10
18.169
 20
9.135900948305438
 30
0.0
 11
17.169
 21
9.135900948305438
 31
0.0
  0
LINE
  5
41C
330
18
100
AcDbEntity
  8
Object
100
AcDbLine
 10
17.169
 20
9.135900948305438
 30
0.0
 11
17.13
 21
9.135900948305438
 31
0.0
  0
LINE
  5
41D
330
18
100
AcDbEntity
  8
Object
100
AcDbLine
 10
17.13
 20
9.135900948305438
 30
0.0
 11
17.095
 21
9.135900948305438
 31
0.0
  0
LINE
  5
41E
330
18
100
AcDbEntity
  8
Object
100
AcDbLine
 10
17.095
 20
9.135900948305438
 30
0.0
 11
17.067
 21
9.135900948305438
 31
0.0
  0
LINE
  5
41F
330
18
100
AcDbEntity
  8
Object
100
AcDbLine
 10
17.067
 20
9.135900948305438
 30
0.0
 11
17.05
 21
9.135900948305438
 31
0.0
  0
LINE
  5
420
330
18
100
AcDbEntity
  8
Object
100
AcDbLine
 10
17.05
 20
9.135900948305438
 30
0.0
 11
17.044
 21
9.135900948305438
 31
0.0
  0
LINE
  5
421
330
18
100
AcDbEntity
  8
Object
100
AcDbLine
 10
17.891
 20
9.150900948305439
 30
0.0
 11
17.891
 21
9.18190094830544
 31
0.0
  0
LINE
  5
422
330
18
100
AcDbEntity
  8
Object
100
AcDbLine
 10
17.891
 20
9.18190094830544
 30
0.0
 11
17.891
 21
9.207900948305439
 31
0.0
  0
LINE
  5
423
330
18
100
AcDbEntity
  8
Object
100
AcDbLine
 10
18.294
 20
9.207900948305439
 30
0.0
 11
18.294
 21
9.22690094830544
 31
0.0
  0
LINE
  5
424
330
18
100
AcDbEntity
  8
Object
100
AcDbLine
 10
17.891
 20
9.22690094830544
 30
0.0
 11
17.891
 21
9.23590094830544
 31
0.0
  0
LINE
  5
425
330
18
100
AcDbEntity
  8
Object
100
AcDbLine
 10
17.891
 20
9.23590094830544
 30
0.0
 11
18.294
 21
9.23590094830544
 31
0.0
  0
LINE
  5
426
330
18
100
AcDbEntity
  8
Object
100
AcDbLine
 10
18.294
 20
9.23590094830544
 30
0.0
 11
18.294
 21
9.22690094830544
 31
0.0
  0
LINE
  5
427
330
18
100
AcDbEntity
  8
Object
100
AcDbLine
 10
17.891
 20
9.22690094830544
 30
0.0
 11
17.891
 21
9.207900948305439
 31
0.0
  0
LINE
  5
428
330
18
100
AcDbEntity
  8
Object
100
AcDbLine
 10
18.294
 20
9.207900948305439
 30
0.0
 11
18.294
 21
9.18190094830544
 31
0.0
  0
LINE
  5
429
330
18
100
AcDbEntity
  8
Object
100
AcDbLine
 10
18.294
 20
9.18190094830544
 30
0.0
 11
18.294
 21
9.150900948305439
 31
0.0
  0
LINE
  5
42A
330
18
100
AcDbEntity
  8
Object
100
AcDbLine
 10
18.294
 20
9.150900948305439
 30
0.0
 11
17.891
 21
9.150900948305439
 31
0.0
  0
LINE
  5
42B
330
18
100
AcDbEntity
  8
Object
100
AcDbLine
 10
17.896
 20
9.25490094830544
 30
0.0
 11
17.891
 21
9.252900948305439
 31
0.0
  0
LINE
  5
42C
330
18
100
AcDbEntity
  8
Object
100
AcDbLine
 10
17.891
 20
9.14290094830544
 30
0.0
 11
17.891
 21
9.137900948305439
 31
0.0
  0
LINE
  5
42D
330
18
100
AcDbEntity
  8
Object
100
AcDbLine
 10
18.294
 20
9.135900948305438
 30
0.0
 11
18.294
 21
9.137900948305439
 31
0.0
  0
LINE
  5
42E
330
18
100
AcDbEntity
  8
Object
100
AcDbLine
 10
17.891
 20
9.137900948305439
 30
0.0
 11
17.891
 21
9.135900948305438
 31
0.0
  0
LINE
  5
42F
330
18
100
AcDbEntity
  8
Object
100
AcDbLine
 10
18.294
 20
9.137900948305439
 30
0.0
 11
18.294
 21
9.14290094830544
 31
0.0
  0
LINE
  5
430
330
18
100
AcDbEntity
  8
Object
100
AcDbLine
 10
17.891
 20
9.150900948305439
 30
0.0
 11
17.891
 21
9.14290094830544
 31
0.0
  0
LINE
  5
431
330
18
100
AcDbEntity
  8
Object
100
AcDbLine
 10
18.294
 20
9.14290094830544
 30
0.0
 11
18.294
 21
9.150900948305439
 31
0.0
  0
LINE
  5
432
330
18
100
AcDbEntity
  8
Object
100
AcDbLine
 10
18.254
 20
9.256900948305439
 30
0.0
 11
18.274
 21
9.256900948305439
 31
0.0
  0
LINE
  5
433
330
18
100
AcDbEntity
  8
Object
100
AcDbLine
 10
18.274
 20
9.256900948305439
 30
0.0
 11
18.288
 21
9.25490094830544
 31
0.0
  0
LINE
  5
434
330
18
100
AcDbEntity
  8
Object
100
AcDbLine
 10
18.288
 20
9.25490094830544
 30
0.0
 11
18.294
 21
9.252900948305439
 31
0.0
  0
LINE
  5
435
330
18
100
AcDbEntity
  8
Object
100
AcDbLine
 10
18.294
 20
9.252900948305439
 30
0.0
 11
18.294
 21
9.23590094830544
 31
0.0
  0
LINE
  5
436
330
18
100
AcDbEntity
  8
Object
100
AcDbLine
 10
17.931
 20
9.256900948305439
 30
0.0
 11
17.911
 21
9.256900948305439
 31
0.0
  0
LINE
  5
437
330
18
100
AcDbEntity
  8
Object
100
AcDbLine
 10
17.911
 20
9.256900948305439
 30
0.0
 11
17.896
 21
9.25490094830544
 31
0.0
  0
LINE
  5
438
330
18
100
AcDbEntity
  8
Object
100
AcDbLine
 10
17.891
 20
9.252900948305439
 30
0.0
 11
17.891
 21
9.23590094830544
 31
0.0
  0
LINE
  5
439
330
18
100
AcDbEntity
  8
Object
100
AcDbLine
 10
18.254
 20
9.256900948305439
 30
0.0
 11
17.931
 21
9.256900948305439
 31
0.0
  0
LINE
  5
43A
330
18
100
AcDbEntity
  8
Object
100
AcDbLine
 10
18.288
 20
9.135900948305438
 30
0.0
 11
18.294
 21
9.135900948305438
 31
0.0
  0
LINE
  5
43B
330
18
100
AcDbEntity
  8
Object
100
AcDbLine
 10
18.294
 20
9.135900948305438
 30
0.0
 11
18.294
 21
9.060900948305439
 31
0.0
  0
LINE
  5
43C
330
18
100
AcDbEntity
  8
Object
100
AcDbLine
 10
18.288
 20
9.135900948305438
 30
0.0
 11
18.27
 21
9.135900948305438
 31
0.0
  0
LINE
  5
43D
330
18
100
AcDbEntity
  8
Object
100
AcDbLine
 10
18.27
 20
9.135900948305438
 30
0.0
 11
18.242
 21
9.135900948305438
 31
0.0
  0
LINE
  5
43E
330
18
100
AcDbEntity
  8
Object
100
AcDbLine
 10
18.242
 20
9.135900948305438
 30
0.0
 11
18.207
 21
9.135900948305438
 31
0.0
  0
LINE
  5
43F
330
18
100
AcDbEntity
  8
Object
100
AcDbLine
 10
18.207
 20
9.135900948305438
 30
0.0
 11
18.169
 21
9.135900948305438
 31
0.0
  0
LINE
  5
440
330
18
100
AcDbEntity
  8
Object
100
AcDbLine
 10
18.169
 20
9.135900948305438
 30
0.0
 11
18.169
 21
9.060900948305439
 31
0.0
  0
LINE
  5
441
330
18
100
AcDbEntity
  8
Object
100
AcDbLine
 10
18.169
 20
9.135900948305438
 30
0.0
 11
17.169
 21
9.135900948305438
 31
0.0
  0
LINE
  5
442
330
18
100
AcDbEntity
  8
Object
100
AcDbLine
 10
17.169
 20
9.135900948305438
 30
0.0
 11
17.13
 21
9.135900948305438
 31
0.0
  0
LINE
  5
443
330
18
100
AcDbEntity
  8
Object
100
AcDbLine
 10
17.169
 20
9.060900948305439
 30
0.0
 11
17.169
 21
9.135900948305438
 31
0.0
  0
LINE
  5
444
330
18
100
AcDbEntity
  8
Object
100
AcDbLine
 10
17.13
 20
9.135900948305438
 30
0.0
 11
17.095
 21
9.135900948305438
 31
0.0
  0
LINE
  5
445
330
18
100
AcDbEntity
  8
Object
100
AcDbLine
 10
17.095
 20
9.135900948305438
 30
0.0
 11
17.067
 21
9.135900948305438
 31
0.0
  0
LINE
  5
446
330
18
100
AcDbEntity
  8
Object
100
AcDbLine
 10
17.067
 20
9.135900948305438
 30
0.0
 11
17.05
 21
9.135900948305438
 31
0.0
  0
LINE
  5
447
330
18
100
AcDbEntity
  8
Object
100
AcDbLine
 10
17.044
 20
9.060900948305439
 30
0.0
 11
17.044
 21
9.135900948305438
 31
0.0
  0
LINE
  5
448
330
18
100
AcDbEntity
  8
Object
100
AcDbLine
 10
17.044
 20
9.135900948305438
 30
0.0
 11
17.05
 21
9.135900948305438
 31
0.0
  0
LINE
  5
449
330
18
100
AcDbEntity
  8
Object
100
AcDbLine
 10
17.447
 20
9.137900948305439
 30
0.0
 11
17.447
 21
9.14290094830544
 31
0.0
  0
LINE
  5
44A
330
18
100
AcDbEntity
  8
Object
100
AcDbLine
 10
17.044
 20
9.14290094830544
 30
0.0
 11
17.044
 21
9.150900948305439
 31
0.0
  0
LINE
  5
44B
330
18
100
AcDbEntity
  8
Object
100
AcDbLine
 10
17.044
 20
9.150900948305439
 30
0.0
 11
17.447
 21
9.150900948305439
 31
0.0
  0
LINE
  5
44C
330
18
100
AcDbEntity
  8
Object
100
AcDbLine
 10
17.447
 20
9.150900948305439
 30
0.0
 11
17.447
 21
9.14290094830544
 31
0.0
  0
LINE
  5
44D
330
18
100
AcDbEntity
  8
Object
100
AcDbLine
 10
17.044
 20
9.14290094830544
 30
0.0
 11
17.044
 21
9.137900948305439
 31
0.0
  0
LINE
  5
44E
330
18
100
AcDbEntity
  8
Object
100
AcDbLine
 10
17.447
 20
9.135900948305438
 30
0.0
 11
17.447
 21
9.137900948305439
 31
0.0
  0
LINE
  5
44F
330
18
100
AcDbEntity
  8
Object
100
AcDbLine
 10
17.044
 20
9.137900948305439
 30
0.0
 11
17.044
 21
9.135900948305438
 31
0.0
  0
LINE
  5
450
330
18
100
AcDbEntity
  8
Object
100
AcDbLine
 10
17.044
 20
9.22690094830544
 30
0.0
 11
17.044
 21
9.207900948305439
 31
0.0
  0
LINE
  5
451
330
18
100
AcDbEntity
  8
Object
100
AcDbLine
 10
17.044
 20
9.18190094830544
 30
0.0
 11
17.044
 21
9.150900948305439
 31
0.0
  0
LINE
  5
452
330
18
100
AcDbEntity
  8
Object
100
AcDbLine
 10
17.044
 20
9.14290094830544
 30
0.0
 11
17.044
 21
9.137900948305439
 31
0.0
  0
LINE
  5
453
330
18
100
AcDbEntity
  8
Object
100
AcDbLine
 10
17.044
 20
9.060900948305439
 30
0.0
 11
17.044
 21
9.135900948305438
 31
0.0
  0
LINE
  5
454
330
18
100
AcDbEntity
  8
Object
100
AcDbLine
 10
17.044
 20
9.135900948305438
 30
0.0
 11
17.044
 21
9.137900948305439
 31
0.0
  0
LINE
  5
455
330
18
100
AcDbEntity
  8
Object
100
AcDbLine
 10
17.044
 20
9.150900948305439
 30
0.0
 11
17.044
 21
9.14290094830544
 31
0.0
  0
LINE
  5
456
330
18
100
AcDbEntity
  8
Object
100
AcDbLine
 10
17.044
 20
9.207900948305439
 30
0.0
 11
17.044
 21
9.18190094830544
 31
0.0
  0
LINE
  5
457
330
18
100
AcDbEntity
  8
Object
100
AcDbLine
 10
17.044
 20
9.22690094830544
 30
0.0
 11
17.044
 21
9.23590094830544
 31
0.0
  0
LINE
  5
458
330
18
100
AcDbEntity
  8
Object
100
AcDbLine
 10
17.044
 20
9.23590094830544
 30
0.0
 11
17.044
 21
9.252900948305439
 31
0.0
  0
LINE
  5
459
330
18
100
AcDbEntity
  8
Object
100
AcDbLine
 10
17.447
 20
9.207900948305439
 30
0.0
 11
17.447
 21
9.22690094830544
 31
0.0
  0
LINE
  5
45A
330
18
100
AcDbEntity
  8
Object
100
AcDbLine
 10
17.447
 20
9.150900948305439
 30
0.0
 11
17.447
 21
9.18190094830544
 31
0.0
  0
LINE
  5
45B
330
18
100
AcDbEntity
  8
Object
100
AcDbLine
 10
17.447
 20
9.14290094830544
 30
0.0
 11
17.447
 21
9.137900948305439
 31
0.0
  0
LINE
  5
45C
330
18
100
AcDbEntity
  8
Object
100
AcDbLine
 10
17.447
 20
9.137900948305439
 30
0.0
 11
17.447
 21
9.135900948305438
 31
0.0
  0
LINE
  5
45D
330
18
100
AcDbEntity
  8
Object
100
AcDbLine
 10
17.447
 20
9.14290094830544
 30
0.0
 11
17.447
 21
9.150900948305439
 31
0.0
  0
LINE
  5
45E
330
18
100
AcDbEntity
  8
Object
100
AcDbLine
 10
17.447
 20
9.18190094830544
 30
0.0
 11
17.447
 21
9.207900948305439
 31
0.0
  0
LINE
  5
45F
330
18
100
AcDbEntity
  8
Object
100
AcDbLine
 10
17.447
 20
9.22690094830544
 30
0.0
 11
17.447
 21
9.23590094830544
 31
0.0
  0
LINE
  5
460
330
18
100
AcDbEntity
  8
Object
100
AcDbLine
 10
17.447
 20
9.23590094830544
 30
0.0
 11
17.447
 21
9.252900948305439
 31
0.0
  0
LINE
  5
461
330
18
100
AcDbEntity
  8
Object
100
AcDbLine
 10
17.447
 20
9.18190094830544
 30
0.0
 11
17.447
 21
9.207900948305439
 31
0.0
  0
LINE
  5
462
330
18
100
AcDbEntity
  8
Object
100
AcDbLine
 10
17.044
 20
9.207900948305439
 30
0.0
 11
17.044
 21
9.22690094830544
 31
0.0
  0
LINE
  5
463
330
18
100
AcDbEntity
  8
Object
100
AcDbLine
 10
17.044
 20
9.22690094830544
 30
0.0
 11
17.044
 21
9.23590094830544
 31
0.0
  0
LINE
  5
464
330
18
100
AcDbEntity
  8
Object
100
AcDbLine
 10
17.044
 20
9.23590094830544
 30
0.0
 11
17.447
 21
9.23590094830544
 31
0.0
  0
LINE
  5
465
330
18
100
AcDbEntity
  8
Object
100
AcDbLine
 10
17.447
 20
9.23590094830544
 30
0.0
 11
17.447
 21
9.22690094830544
 31
0.0
  0
LINE
  5
466
330
18
100
AcDbEntity
  8
Object
100
AcDbLine
 10
17.447
 20
9.22690094830544
 30
0.0
 11
17.447
 21
9.207900948305439
 31
0.0
  0
LINE
  5
467
330
18
100
AcDbEntity
  8
Object
100
AcDbLine
 10
17.044
 20
9.207900948305439
 30
0.0
 11
17.044
 21
9.18190094830544
 31
0.0
  0
LINE
  5
468
330
18
100
AcDbEntity
  8
Object
100
AcDbLine
 10
17.447
 20
9.150900948305439
 30
0.0
 11
17.447
 21
9.18190094830544
 31
0.0
  0
LINE
  5
469
330
18
100
AcDbEntity
  8
Object
100
AcDbLine
 10
17.044
 20
9.18190094830544
 30
0.0
 11
17.044
 21
9.150900948305439
 31
0.0
  0
LINE
  5
46A
330
18
100
AcDbEntity
  8
Object
100
AcDbLine
 10
17.407
 20
9.256900948305439
 30
0.0
 11
17.427
 21
9.256900948305439
 31
0.0
  0
LINE
  5
46B
330
18
100
AcDbEntity
  8
Object
100
AcDbLine
 10
17.427
 20
9.256900948305439
 30
0.0
 11
17.441
 21
9.25490094830544
 31
0.0
  0
LINE
  5
46C
330
18
100
AcDbEntity
  8
Object
100
AcDbLine
 10
17.441
 20
9.25490094830544
 30
0.0
 11
17.447
 21
9.252900948305439
 31
0.0
  0
LINE
  5
46D
330
18
100
AcDbEntity
  8
Object
100
AcDbLine
 10
17.447
 20
9.252900948305439
 30
0.0
 11
17.447
 21
9.23590094830544
 31
0.0
  0
LINE
  5
46E
330
18
100
AcDbEntity
  8
Object
100
AcDbLine
 10
17.084
 20
9.256900948305439
 30
0.0
 11
17.064
 21
9.256900948305439
 31
0.0
  0
LINE
  5
46F
330
18
100
AcDbEntity
  8
Object
100
AcDbLine
 10
17.044
 20
9.252900948305439
 30
0.0
 11
17.049
 21
9.25490094830544
 31
0.0
  0
LINE
  5
470
330
18
100
AcDbEntity
  8
Object
100
AcDbLine
 10
17.049
 20
9.25490094830544
 30
0.0
 11
17.064
 21
9.256900948305439
 31
0.0
  0
LINE
  5
471
330
18
100
AcDbEntity
  8
Object
100
AcDbLine
 10
17.044
 20
9.252900948305439
 30
0.0
 11
17.044
 21
9.23590094830544
 31
0.0
  0
LINE
  5
472
330
18
100
AcDbEntity
  8
Object
100
AcDbLine
 10
17.407
 20
9.256900948305439
 30
0.0
 11
17.084
 21
9.256900948305439
 31
0.0
  0
LINE
  5
473
330
18
100
AcDbEntity
  8
Object
100
AcDbLine
 10
17.913
 20
8.81990094830544
 30
0.0
 11
17.906
 21
8.81990094830544
 31
0.0
  0
LINE
  5
474
330
18
100
AcDbEntity
  8
Object
100
AcDbLine
 10
17.906
 20
8.81990094830544
 30
0.0
 11
17.885
 21
8.81990094830544
 31
0.0
  0
LINE
  5
475
330
18
100
AcDbEntity
  8
Object
100
AcDbLine
 10
17.885
 20
8.81990094830544
 30
0.0
 11
17.852
 21
8.81990094830544
 31
0.0
  0
LINE
  5
476
330
18
100
AcDbEntity
  8
Object
100
AcDbLine
 10
17.852
 20
8.81990094830544
 30
0.0
 11
17.809
 21
8.81990094830544
 31
0.0
  0
LINE
  5
477
330
18
100
AcDbEntity
  8
Object
100
AcDbLine
 10
17.809
 20
8.81990094830544
 30
0.0
 11
17.757
 21
8.81990094830544
 31
0.0
  0
LINE
  5
478
330
18
100
AcDbEntity
  8
Object
100
AcDbLine
 10
17.757
 20
8.81990094830544
 30
0.0
 11
17.7
 21
8.81990094830544
 31
0.0
  0
LINE
  5
479
330
18
100
AcDbEntity
  8
Object
100
AcDbLine
 10
17.7
 20
8.81990094830544
 30
0.0
 11
17.642
 21
8.81990094830544
 31
0.0
  0
LINE
  5
47A
330
18
100
AcDbEntity
  8
Object
100
AcDbLine
 10
17.642
 20
8.81990094830544
 30
0.0
 11
17.585
 21
8.81990094830544
 31
0.0
  0
LINE
  5
47B
330
18
100
AcDbEntity
  8
Object
100
AcDbLine
 10
17.585
 20
8.81990094830544
 30
0.0
 11
17.533
 21
8.81990094830544
 31
0.0
  0
LINE
  5
47C
330
18
100
AcDbEntity
  8
Object
100
AcDbLine
 10
17.533
 20
8.81990094830544
 30
0.0
 11
17.488
 21
8.81990094830544
 31
0.0
  0
LINE
  5
47D
330
18
100
AcDbEntity
  8
Object
100
AcDbLine
 10
17.488
 20
8.81990094830544
 30
0.0
 11
17.454
 21
8.81990094830544
 31
0.0
  0
LINE
  5
47E
330
18
100
AcDbEntity
  8
Object
100
AcDbLine
 10
17.454
 20
8.81990094830544
 30
0.0
 11
17.432
 21
8.81990094830544
 31
0.0
  0
LINE
  5
47F
330
18
100
AcDbEntity
  8
Object
100
AcDbLine
 10
17.432
 20
8.81990094830544
 30
0.0
 11
17.424
 21
8.81990094830544
 31
0.0
  0
LINE
  5
480
330
18
100
AcDbEntity
  8
Object
100
AcDbLine
 10
17.913
 20
8.881900948305439
 30
0.0
 11
17.913
 21
8.81990094830544
 31
0.0
  0
LINE
  5
481
330
18
100
AcDbEntity
  8
Object
100
AcDbLine
 10
17.913
 20
8.81990094830544
 30
0.0
 11
17.906
 21
8.81990094830544
 31
0.0
  0
LINE
  5
482
330
18
100
AcDbEntity
  8
Object
100
AcDbLine
 10
17.906
 20
8.81990094830544
 30
0.0
 11
17.885
 21
8.81990094830544
 31
0.0
  0
LINE
  5
483
330
18
100
AcDbEntity
  8
Object
100
AcDbLine
 10
17.885
 20
8.81990094830544
 30
0.0
 11
17.852
 21
8.81990094830544
 31
0.0
  0
LINE
  5
484
330
18
100
AcDbEntity
  8
Object
100
AcDbLine
 10
17.852
 20
8.81990094830544
 30
0.0
 11
17.809
 21
8.81990094830544
 31
0.0
  0
LINE
  5
485
330
18
100
AcDbEntity
  8
Object
100
AcDbLine
 10
17.809
 20
8.81990094830544
 30
0.0
 11
17.757
 21
8.81990094830544
 31
0.0
  0
LINE
  5
486
330
18
100
AcDbEntity
  8
Object
100
AcDbLine
 10
17.757
 20
8.81990094830544
 30
0.0
 11
17.7
 21
8.81990094830544
 31
0.0
  0
LINE
  5
487
330
18
100
AcDbEntity
  8
Object
100
AcDbLine
 10
17.7
 20
8.81990094830544
 30
0.0
 11
17.642
 21
8.81990094830544
 31
0.0
  0
LINE
  5
488
330
18
100
AcDbEntity
  8
Object
100
AcDbLine
 10
17.642
 20
8.81990094830544
 30
0.0
 11
17.585
 21
8.81990094830544
 31
0.0
  0
LINE
  5
489
330
18
100
AcDbEntity
  8
Object
100
AcDbLine
 10
17.585
 20
8.81990094830544
 30
0.0
 11
17.533
 21
8.81990094830544
 31
0.0
  0
LINE
  5
48A
330
18
100
AcDbEntity
  8
Object
100
AcDbLine
 10
17.533
 20
8.81990094830544
 30
0.0
 11
17.488
 21
8.81990094830544
 31
0.0
  0
LINE
  5
48B
330
18
100
AcDbEntity
  8
Object
100
AcDbLine
 10
17.488
 20
8.81990094830544
 30
0.0
 11
17.454
 21
8.81990094830544
 31
0.0
  0
LINE
  5
48C
330
18
100
AcDbEntity
  8
Object
100
AcDbLine
 10
17.454
 20
8.81990094830544
 30
0.0
 11
17.432
 21
8.81990094830544
 31
0.0
  0
LINE
  5
48D
330
18
100
AcDbEntity
  8
Object
100
AcDbLine
 10
17.432
 20
8.81990094830544
 30
0.0
 11
17.424
 21
8.81990094830544
 31
0.0
  0
LINE
  5
48E
330
18
100
AcDbEntity
  8
Object
100
AcDbLine
 10
17.424
 20
8.81990094830544
 30
0.0
 11
17.424
 21
8.881900948305439
 31
0.0
  0
LINE
  5
48F
330
18
100
AcDbEntity
  8
Object
100
AcDbLine
 10
17.879
 20
9.305900948305438
 30
0.0
 11
17.871
 21
9.305900948305438
 31
0.0
  0
LINE
  5
490
330
18
100
AcDbEntity
  8
Object
100
AcDbLine
 10
17.871
 20
9.305900948305438
 30
0.0
 11
17.85
 21
9.305900948305438
 31
0.0
  0
LINE
  5
491
330
18
100
AcDbEntity
  8
Object
100
AcDbLine
 10
17.85
 20
9.305900948305438
 30
0.0
 11
17.817
 21
9.305900948305438
 31
0.0
  0
LINE
  5
492
330
18
100
AcDbEntity
  8
Object
100
AcDbLine
 10
17.817
 20
9.305900948305438
 30
0.0
 11
17.774
 21
9.305900948305438
 31
0.0
  0
LINE
  5
493
330
18
100
AcDbEntity
  8
Object
100
AcDbLine
 10
17.774
 20
9.305900948305438
 30
0.0
 11
17.723
 21
9.305900948305438
 31
0.0
  0
LINE
  5
494
330
18
100
AcDbEntity
  8
Object
100
AcDbLine
 10
17.723
 20
9.305900948305438
 30
0.0
 11
17.669
 21
9.305900948305438
 31
0.0
  0
LINE
  5
495
330
18
100
AcDbEntity
  8
Object
100
AcDbLine
 10
17.669
 20
9.305900948305438
 30
0.0
 11
17.614
 21
9.305900948305438
 31
0.0
  0
LINE
  5
496
330
18
100
AcDbEntity
  8
Object
100
AcDbLine
 10
17.614
 20
9.305900948305438
 30
0.0
 11
17.564
 21
9.305900948305438
 31
0.0
  0
LINE
  5
497
330
18
100
AcDbEntity
  8
Object
100
AcDbLine
 10
17.564
 20
9.305900948305438
 30
0.0
 11
17.52
 21
9.305900948305438
 31
0.0
  0
LINE
  5
498
330
18
100
AcDbEntity
  8
Object
100
AcDbLine
 10
17.52
 20
9.305900948305438
 30
0.0
 11
17.487
 21
9.305900948305438
 31
0.0
  0
LINE
  5
499
330
18
100
AcDbEntity
  8
Object
100
AcDbLine
 10
17.487
 20
9.305900948305438
 30
0.0
 11
17.466
 21
9.305900948305438
 31
0.0
  0
LINE
  5
49A
330
18
100
AcDbEntity
  8
Object
100
AcDbLine
 10
17.466
 20
9.305900948305438
 30
0.0
 11
17.459
 21
9.305900948305438
 31
0.0
  0
LINE
  5
49B
330
18
100
AcDbEntity
  8
Object
100
AcDbLine
 10
17.889
 20
9.295900948305439
 30
0.0
 11
17.879
 21
9.305900948305438
 31
0.0
  0
LINE
  5
49C
330
18
100
AcDbEntity
  8
Object
100
AcDbLine
 10
17.459
 20
9.305900948305438
 30
0.0
 11
17.449
 21
9.295900948305439
 31
0.0
  0
LINE
  5
49D
330
18
100
AcDbEntity
  8
Object
100
AcDbLine
 10
17.881
 20
9.295900948305439
 30
0.0
 11
17.889
 21
9.295900948305439
 31
0.0
  0
LINE
  5
49E
330
18
100
AcDbEntity
  8
Object
100
AcDbLine
 10
17.879
 20
9.305900948305438
 30
0.0
 11
17.871
 21
9.305900948305438
 31
0.0
  0
LINE
  5
49F
330
18
100
AcDbEntity
  8
Object
100
AcDbLine
 10
17.859
 20
9.295900948305439
 30
0.0
 11
17.881
 21
9.295900948305439
 31
0.0
  0
LINE
  5
4A0
330
18
100
AcDbEntity
  8
Object
100
AcDbLine
 10
17.871
 20
9.305900948305438
 30
0.0
 11
17.85
 21
9.305900948305438
 31
0.0
  0
LINE
  5
4A1
330
18
100
AcDbEntity
  8
Object
100
AcDbLine
 10
17.824
 20
9.295900948305439
 30
0.0
 11
17.859
 21
9.295900948305439
 31
0.0
  0
LINE
  5
4A2
330
18
100
AcDbEntity
  8
Object
100
AcDbLine
 10
17.85
 20
9.305900948305438
 30
0.0
 11
17.817
 21
9.305900948305438
 31
0.0
  0
LINE
  5
4A3
330
18
100
AcDbEntity
  8
Object
100
AcDbLine
 10
17.779
 20
9.295900948305439
 30
0.0
 11
17.824
 21
9.295900948305439
 31
0.0
  0
LINE
  5
4A4
330
18
100
AcDbEntity
  8
Object
100
AcDbLine
 10
17.817
 20
9.305900948305438
 30
0.0
 11
17.774
 21
9.305900948305438
 31
0.0
  0
LINE
  5
4A5
330
18
100
AcDbEntity
  8
Object
100
AcDbLine
 10
17.726
 20
9.295900948305439
 30
0.0
 11
17.779
 21
9.295900948305439
 31
0.0
  0
LINE
  5
4A6
330
18
100
AcDbEntity
  8
Object
100
AcDbLine
 10
17.774
 20
9.305900948305438
 30
0.0
 11
17.723
 21
9.305900948305438
 31
0.0
  0
LINE
  5
4A7
330
18
100
AcDbEntity
  8
Object
100
AcDbLine
 10
17.723
 20
9.305900948305438
 30
0.0
 11
17.669
 21
9.305900948305438
 31
0.0
  0
LINE
  5
4A8
330
18
100
AcDbEntity
  8
Object
100
AcDbLine
 10
17.726
 20
9.295900948305439
 30
0.0
 11
17.669
 21
9.295900948305439
 31
0.0
  0
LINE
  5
4A9
330
18
100
AcDbEntity
  8
Object
100
AcDbLine
 10
17.669
 20
9.295900948305439
 30
0.0
 11
17.612
 21
9.295900948305439
 31
0.0
  0
LINE
  5
4AA
330
18
100
AcDbEntity
  8
Object
100
AcDbLine
 10
17.669
 20
9.305900948305438
 30
0.0
 11
17.614
 21
9.305900948305438
 31
0.0
  0
LINE
  5
4AB
330
18
100
AcDbEntity
  8
Object
100
AcDbLine
 10
17.614
 20
9.305900948305438
 30
0.0
 11
17.564
 21
9.305900948305438
 31
0.0
  0
LINE
  5
4AC
330
18
100
AcDbEntity
  8
Object
100
AcDbLine
 10
17.559
 20
9.295900948305439
 30
0.0
 11
17.612
 21
9.295900948305439
 31
0.0
  0
LINE
  5
4AD
330
18
100
AcDbEntity
  8
Object
100
AcDbLine
 10
17.564
 20
9.305900948305438
 30
0.0
 11
17.52
 21
9.305900948305438
 31
0.0
  0
LINE
  5
4AE
330
18
100
AcDbEntity
  8
Object
100
AcDbLine
 10
17.513
 20
9.295900948305439
 30
0.0
 11
17.559
 21
9.295900948305439
 31
0.0
  0
LINE
  5
4AF
330
18
100
AcDbEntity
  8
Object
100
AcDbLine
 10
17.52
 20
9.305900948305438
 30
0.0
 11
17.487
 21
9.305900948305438
 31
0.0
  0
LINE
  5
4B0
330
18
100
AcDbEntity
  8
Object
100
AcDbLine
 10
17.478
 20
9.295900948305439
 30
0.0
 11
17.513
 21
9.295900948305439
 31
0.0
  0
LINE
  5
4B1
330
18
100
AcDbEntity
  8
Object
100
AcDbLine
 10
17.487
 20
9.305900948305438
 30
0.0
 11
17.466
 21
9.305900948305438
 31
0.0
  0
LINE
  5
4B2
330
18
100
AcDbEntity
  8
Object
100
AcDbLine
 10
17.478
 20
9.295900948305439
 30
0.0
 11
17.456
 21
9.295900948305439
 31
0.0
  0
LINE
  5
4B3
330
18
100
AcDbEntity
  8
Object
100
AcDbLine
 10
17.456
 20
9.295900948305439
 30
0.0
 11
17.449
 21
9.295900948305439
 31
0.0
  0
LINE
  5
4B4
330
18
100
AcDbEntity
  8
Object
100
AcDbLine
 10
17.466
 20
9.305900948305438
 30
0.0
 11
17.459
 21
9.305900948305438
 31
0.0
  0
LINE
  5
4B5
330
18
100
AcDbEntity
  8
Object
100
AcDbLine
 10
17.889
 20
9.135900948305438
 30
0.0
 11
17.889
 21
9.295900948305439
 31
0.0
  0
LINE
  5
4B6
330
18
100
AcDbEntity
  8
Object
100
AcDbLine
 10
17.449
 20
9.295900948305439
 30
0.0
 11
17.449
 21
9.135900948305438
 31
0.0
  0
LINE
  5
4B7
330
18
100
AcDbEntity
  8
Object
100
AcDbLine
 10
17.45
 20
8.656900948305439
 30
0.0
 11
17.457
 21
8.656900948305439
 31
0.0
  0
LINE
  5
4B8
330
18
100
AcDbEntity
  8
Object
100
AcDbLine
 10
17.447
 20
8.662900948305439
 30
0.0
 11
17.479
 21
8.656900948305439
 31
0.0
  0
LINE
  5
4B9
330
18
100
AcDbEntity
  8
Object
100
AcDbLine
 10
17.479
 20
8.656900948305439
 30
0.0
 11
17.457
 21
8.656900948305439
 31
0.0
  0
LINE
  5
4BA
330
18
100
AcDbEntity
  8
Object
100
AcDbLine
 10
17.45
 20
8.656900948305439
 30
0.0
 11
17.416
 21
8.676900948305439
 31
0.0
  0
LINE
  5
4BB
330
18
100
AcDbEntity
  8
Object
100
AcDbLine
 10
17.416
 20
8.676900948305439
 30
0.0
 11
17.447
 21
8.662900948305439
 31
0.0
  0
LINE
  5
4BC
330
18
100
AcDbEntity
  8
Object
100
AcDbLine
 10
17.416
 20
8.800900948305439
 30
0.0
 11
17.416
 21
8.676900948305439
 31
0.0
  0
LINE
  5
4BD
330
18
100
AcDbEntity
  8
Object
100
AcDbLine
 10
17.511
 20
8.814900948305439
 30
0.0
 11
17.542
 21
8.800900948305439
 31
0.0
  0
LINE
  5
4BE
330
18
100
AcDbEntity
  8
Object
100
AcDbLine
 10
17.542
 20
8.800900948305439
 30
0.0
 11
17.542
 21
8.676900948305439
 31
0.0
  0
LINE
  5
4BF
330
18
100
AcDbEntity
  8
Object
100
AcDbLine
 10
17.542
 20
8.676900948305439
 30
0.0
 11
17.511
 21
8.662900948305439
 31
0.0
  0
LINE
  5
4C0
330
18
100
AcDbEntity
  8
Object
100
AcDbLine
 10
17.511
 20
8.814900948305439
 30
0.0
 11
17.479
 21
8.81990094830544
 31
0.0
  0
LINE
  5
4C1
330
18
100
AcDbEntity
  8
Object
100
AcDbLine
 10
17.479
 20
8.656900948305439
 30
0.0
 11
17.511
 21
8.662900948305439
 31
0.0
  0
LINE
  5
4C2
330
18
100
AcDbEntity
  8
Object
100
AcDbLine
 10
17.479
 20
8.81990094830544
 30
0.0
 11
17.447
 21
8.814900948305439
 31
0.0
  0
LINE
  5
4C3
330
18
100
AcDbEntity
  8
Object
100
AcDbLine
 10
17.447
 20
8.814900948305439
 30
0.0
 11
17.416
 21
8.800900948305439
 31
0.0
  0
LINE
  5
4C4
330
18
100
AcDbEntity
  8
Object
100
AcDbLine
 10
17.888
 20
8.656900948305439
 30
0.0
 11
17.88
 21
8.656900948305439
 31
0.0
  0
LINE
  5
4C5
330
18
100
AcDbEntity
  8
Object
100
AcDbLine
 10
17.88
 20
8.656900948305439
 30
0.0
 11
17.858
 21
8.656900948305439
 31
0.0
  0
LINE
  5
4C6
330
18
100
AcDbEntity
  8
Object
100
AcDbLine
 10
17.858
 20
8.656900948305439
 30
0.0
 11
17.837
 21
8.656900948305439
 31
0.0
  0
LINE
  5
4C7
330
18
100
AcDbEntity
  8
Object
100
AcDbLine
 10
17.837
 20
8.656900948305439
 30
0.0
 11
17.812
 21
8.656900948305439
 31
0.0
  0
LINE
  5
4C8
330
18
100
AcDbEntity
  8
Object
100
AcDbLine
 10
17.812
 20
8.656900948305439
 30
0.0
 11
17.782
 21
8.656900948305439
 31
0.0
  0
LINE
  5
4C9
330
18
100
AcDbEntity
  8
Object
100
AcDbLine
 10
17.782
 20
8.656900948305439
 30
0.0
 11
17.746
 21
8.656900948305439
 31
0.0
  0
LINE
  5
4CA
330
18
100
AcDbEntity
  8
Object
100
AcDbLine
 10
17.746
 20
8.656900948305439
 30
0.0
 11
17.708
 21
8.656900948305439
 31
0.0
  0
LINE
  5
4CB
330
18
100
AcDbEntity
  8
Object
100
AcDbLine
 10
17.708
 20
8.656900948305439
 30
0.0
 11
17.669
 21
8.656900948305439
 31
0.0
  0
LINE
  5
4CC
330
18
100
AcDbEntity
  8
Object
100
AcDbLine
 10
17.669
 20
8.656900948305439
 30
0.0
 11
17.612
 21
8.656900948305439
 31
0.0
  0
LINE
  5
4CD
330
18
100
AcDbEntity
  8
Object
100
AcDbLine
 10
17.612
 20
8.656900948305439
 30
0.0
 11
17.559
 21
8.656900948305439
 31
0.0
  0
LINE
  5
4CE
330
18
100
AcDbEntity
  8
Object
100
AcDbLine
 10
17.559
 20
8.656900948305439
 30
0.0
 11
17.514
 21
8.656900948305439
 31
0.0
  0
LINE
  5
4CF
330
18
100
AcDbEntity
  8
Object
100
AcDbLine
 10
17.514
 20
8.656900948305439
 30
0.0
 11
17.479
 21
8.656900948305439
 31
0.0
  0
LINE
  5
4D0
330
18
100
AcDbEntity
  8
Object
100
AcDbLine
 10
17.479
 20
8.656900948305439
 30
0.0
 11
17.457
 21
8.656900948305439
 31
0.0
  0
LINE
  5
4D1
330
18
100
AcDbEntity
  8
Object
100
AcDbLine
 10
17.457
 20
8.656900948305439
 30
0.0
 11
17.45
 21
8.656900948305439
 31
0.0
  0
LINE
  5
4D2
330
18
100
AcDbEntity
  8
Object
100
AcDbLine
 10
17.45
 20
8.81990094830544
 30
0.0
 11
17.416
 21
8.800900948305439
 31
0.0
  0
LINE
  5
4D3
330
18
100
AcDbEntity
  8
Object
100
AcDbLine
 10
17.732
 20
8.814900948305439
 30
0.0
 11
17.795
 21
8.800900948305439
 31
0.0
  0
LINE
  5
4D4
330
18
100
AcDbEntity
  8
Object
100
AcDbLine
 10
17.795
 20
8.800900948305439
 30
0.0
 11
17.795
 21
8.676900948305439
 31
0.0
  0
LINE
  5
4D5
330
18
100
AcDbEntity
  8
Object
100
AcDbLine
 10
17.795
 20
8.676900948305439
 30
0.0
 11
17.732
 21
8.662900948305439
 31
0.0
  0
LINE
  5
4D6
330
18
100
AcDbEntity
  8
Object
100
AcDbLine
 10
17.732
 20
8.814900948305439
 30
0.0
 11
17.669
 21
8.81990094830544
 31
0.0
  0
LINE
  5
4D7
330
18
100
AcDbEntity
  8
Object
100
AcDbLine
 10
17.732
 20
8.662900948305439
 30
0.0
 11
17.669
 21
8.656900948305439
 31
0.0
  0
LINE
  5
4D8
330
18
100
AcDbEntity
  8
Object
100
AcDbLine
 10
17.669
 20
8.656900948305439
 30
0.0
 11
17.605
 21
8.662900948305439
 31
0.0
  0
LINE
  5
4D9
330
18
100
AcDbEntity
  8
Object
100
AcDbLine
 10
17.669
 20
8.81990094830544
 30
0.0
 11
17.605
 21
8.814900948305439
 31
0.0
  0
LINE
  5
4DA
330
18
100
AcDbEntity
  8
Object
100
AcDbLine
 10
17.542
 20
8.676900948305439
 30
0.0
 11
17.605
 21
8.662900948305439
 31
0.0
  0
LINE
  5
4DB
330
18
100
AcDbEntity
  8
Object
100
AcDbLine
 10
17.605
 20
8.814900948305439
 30
0.0
 11
17.542
 21
8.800900948305439
 31
0.0
  0
LINE
  5
4DC
330
18
100
AcDbEntity
  8
Object
100
AcDbLine
 10
17.669
 20
8.656900948305439
 30
0.0
 11
17.612
 21
8.656900948305439
 31
0.0
  0
LINE
  5
4DD
330
18
100
AcDbEntity
  8
Object
100
AcDbLine
 10
17.612
 20
8.656900948305439
 30
0.0
 11
17.559
 21
8.656900948305439
 31
0.0
  0
LINE
  5
4DE
330
18
100
AcDbEntity
  8
Object
100
AcDbLine
 10
17.559
 20
8.656900948305439
 30
0.0
 11
17.514
 21
8.656900948305439
 31
0.0
  0
LINE
  5
4DF
330
18
100
AcDbEntity
  8
Object
100
AcDbLine
 10
17.514
 20
8.656900948305439
 30
0.0
 11
17.479
 21
8.656900948305439
 31
0.0
  0
LINE
  5
4E0
330
18
100
AcDbEntity
  8
Object
100
AcDbLine
 10
17.826
 20
8.662900948305439
 30
0.0
 11
17.858
 21
8.656900948305439
 31
0.0
  0
LINE
  5
4E1
330
18
100
AcDbEntity
  8
Object
100
AcDbLine
 10
17.858
 20
8.656900948305439
 30
0.0
 11
17.837
 21
8.656900948305439
 31
0.0
  0
LINE
  5
4E2
330
18
100
AcDbEntity
  8
Object
100
AcDbLine
 10
17.837
 20
8.656900948305439
 30
0.0
 11
17.812
 21
8.656900948305439
 31
0.0
  0
LINE
  5
4E3
330
18
100
AcDbEntity
  8
Object
100
AcDbLine
 10
17.826
 20
8.662900948305439
 30
0.0
 11
17.795
 21
8.676900948305439
 31
0.0
  0
LINE
  5
4E4
330
18
100
AcDbEntity
  8
Object
100
AcDbLine
 10
17.782
 20
8.656900948305439
 30
0.0
 11
17.812
 21
8.656900948305439
 31
0.0
  0
LINE
  5
4E5
330
18
100
AcDbEntity
  8
Object
100
AcDbLine
 10
17.89
 20
8.662900948305439
 30
0.0
 11
17.922
 21
8.676900948305439
 31
0.0
  0
LINE
  5
4E6
330
18
100
AcDbEntity
  8
Object
100
AcDbLine
 10
17.922
 20
8.676900948305439
 30
0.0
 11
17.888
 21
8.656900948305439
 31
0.0
  0
LINE
  5
4E7
330
18
100
AcDbEntity
  8
Object
100
AcDbLine
 10
17.888
 20
8.656900948305439
 30
0.0
 11
17.88
 21
8.656900948305439
 31
0.0
  0
LINE
  5
4E8
330
18
100
AcDbEntity
  8
Object
100
AcDbLine
 10
17.88
 20
8.656900948305439
 30
0.0
 11
17.858
 21
8.656900948305439
 31
0.0
  0
LINE
  5
4E9
330
18
100
AcDbEntity
  8
Object
100
AcDbLine
 10
17.858
 20
8.656900948305439
 30
0.0
 11
17.89
 21
8.662900948305439
 31
0.0
  0
LINE
  5
4EA
330
18
100
AcDbEntity
  8
Object
100
AcDbLine
 10
17.795
 20
8.676900948305439
 30
0.0
 11
17.782
 21
8.656900948305439
 31
0.0
  0
LINE
  5
4EB
330
18
100
AcDbEntity
  8
Object
100
AcDbLine
 10
17.782
 20
8.656900948305439
 30
0.0
 11
17.746
 21
8.656900948305439
 31
0.0
  0
LINE
  5
4EC
330
18
100
AcDbEntity
  8
Object
100
AcDbLine
 10
17.746
 20
8.656900948305439
 30
0.0
 11
17.708
 21
8.656900948305439
 31
0.0
  0
LINE
  5
4ED
330
18
100
AcDbEntity
  8
Object
100
AcDbLine
 10
17.708
 20
8.656900948305439
 30
0.0
 11
17.669
 21
8.656900948305439
 31
0.0
  0
LINE
  5
4EE
330
18
100
AcDbEntity
  8
Object
100
AcDbLine
 10
17.922
 20
8.676900948305439
 30
0.0
 11
17.922
 21
8.800900948305439
 31
0.0
  0
LINE
  5
4EF
330
18
100
AcDbEntity
  8
Object
100
AcDbLine
 10
17.795
 20
8.800900948305439
 30
0.0
 11
17.782
 21
8.81990094830544
 31
0.0
  0
LINE
  5
4F0
330
18
100
AcDbEntity
  8
Object
100
AcDbLine
 10
17.89
 20
8.814900948305439
 30
0.0
 11
17.858
 21
8.81990094830544
 31
0.0
  0
LINE
  5
4F1
330
18
100
AcDbEntity
  8
Object
100
AcDbLine
 10
17.858
 20
8.81990094830544
 30
0.0
 11
17.826
 21
8.814900948305439
 31
0.0
  0
LINE
  5
4F2
330
18
100
AcDbEntity
  8
Object
100
AcDbLine
 10
17.826
 20
8.814900948305439
 30
0.0
 11
17.795
 21
8.800900948305439
 31
0.0
  0
LINE
  5
4F3
330
18
100
AcDbEntity
  8
Object
100
AcDbLine
 10
17.888
 20
8.81990094830544
 30
0.0
 11
17.922
 21
8.800900948305439
 31
0.0
  0
LINE
  5
4F4
330
18
100
AcDbEntity
  8
Object
100
AcDbLine
 10
17.922
 20
8.800900948305439
 30
0.0
 11
17.89
 21
8.814900948305439
 31
0.0
  0
LINE
  5
4F5
330
18
100
AcDbEntity
  8
Object
100
AcDbLine
 10
17.761
 20
9.31990094830544
 30
0.0
 11
17.778
 21
9.31990094830544
 31
0.0
  0
LINE
  5
4F6
330
18
100
AcDbEntity
  8
Object
100
AcDbLine
 10
17.778
 20
9.31990094830544
 30
0.0
 11
17.752
 21
9.317900948305439
 31
0.0
  0
LINE
  5
4F7
330
18
100
AcDbEntity
  8
Object
100
AcDbLine
 10
17.761
 20
9.31990094830544
 30
0.0
 11
17.74
 21
9.31990094830544
 31
0.0
  0
LINE
  5
4F8
330
18
100
AcDbEntity
  8
Object
100
AcDbLine
 10
17.718
 20
9.314900948305439
 30
0.0
 11
17.752
 21
9.317900948305439
 31
0.0
  0
LINE
  5
4F9
330
18
100
AcDbEntity
  8
Object
100
AcDbLine
 10
17.74
 20
9.31990094830544
 30
0.0
 11
17.717
 21
9.31990094830544
 31
0.0
  0
LINE
  5
4FA
330
18
100
AcDbEntity
  8
Object
100
AcDbLine
 10
17.717
 20
9.31990094830544
 30
0.0
 11
17.691
 21
9.31990094830544
 31
0.0
  0
LINE
  5
4FB
330
18
100
AcDbEntity
  8
Object
100
AcDbLine
 10
17.678
 20
9.31290094830544
 30
0.0
 11
17.718
 21
9.314900948305439
 31
0.0
  0
LINE
  5
4FC
330
18
100
AcDbEntity
  8
Object
100
AcDbLine
 10
17.691
 20
9.31990094830544
 30
0.0
 11
17.666
 21
9.31990094830544
 31
0.0
  0
LINE
  5
4FD
330
18
100
AcDbEntity
  8
Object
100
AcDbLine
 10
17.637
 20
9.30990094830544
 30
0.0
 11
17.678
 21
9.31290094830544
 31
0.0
  0
LINE
  5
4FE
330
18
100
AcDbEntity
  8
Object
100
AcDbLine
 10
17.666
 20
9.31990094830544
 30
0.0
 11
17.641
 21
9.31990094830544
 31
0.0
  0
LINE
  5
4FF
330
18
100
AcDbEntity
  8
Object
100
AcDbLine
 10
17.6
 20
9.31990094830544
 30
0.0
 11
17.618
 21
9.31990094830544
 31
0.0
  0
LINE
  5
500
330
18
100
AcDbEntity
  8
Object
100
AcDbLine
 10
17.618
 20
9.31990094830544
 30
0.0
 11
17.641
 21
9.31990094830544
 31
0.0
  0
LINE
  5
501
330
18
100
AcDbEntity
  8
Object
100
AcDbLine
 10
17.6
 20
9.30690094830544
 30
0.0
 11
17.637
 21
9.30990094830544
 31
0.0
  0
LINE
  5
502
330
18
100
AcDbEntity
  8
Object
100
AcDbLine
 10
17.577
 20
9.316900948305439
 30
0.0
 11
17.587
 21
9.31890094830544
 31
0.0
  0
LINE
  5
503
330
18
100
AcDbEntity
  8
Object
100
AcDbLine
 10
17.587
 20
9.31890094830544
 30
0.0
 11
17.6
 21
9.31990094830544
 31
0.0
  0
LINE
  5
504
330
18
100
AcDbEntity
  8
Object
100
AcDbLine
 10
17.588
 20
9.305900948305438
 30
0.0
 11
17.6
 21
9.30690094830544
 31
0.0
  0
LINE
  5
505
330
18
100
AcDbEntity
  8
Object
100
AcDbLine
 10
17.577
 20
9.316900948305439
 30
0.0
 11
17.571
 21
9.31590094830544
 31
0.0
  0
LINE
  5
506
330
18
100
AcDbEntity
  8
Object
100
AcDbLine
 10
17.571
 20
9.31590094830544
 30
0.0
 11
17.554
 21
9.305900948305438
 31
0.0
  0
LINE
  5
507
330
18
100
AcDbEntity
  8
Object
100
AcDbLine
 10
17.791
 20
9.314900948305439
 30
0.0
 11
17.794
 21
9.31590094830544
 31
0.0
  0
LINE
  5
508
330
18
100
AcDbEntity
  8
Object
100
AcDbLine
 10
17.773
 20
9.311900948305439
 30
0.0
 11
17.784
 21
9.31290094830544
 31
0.0
  0
LINE
  5
509
330
18
100
AcDbEntity
  8
Object
100
AcDbLine
 10
17.784
 20
9.31290094830544
 30
0.0
 11
17.791
 21
9.314900948305439
 31
0.0
  0
LINE
  5
50A
330
18
100
AcDbEntity
  8
Object
100
AcDbLine
 10
17.791
 20
9.314900948305439
 30
0.0
 11
17.776
 21
9.305900948305438
 31
0.0
  0
LINE
  5
50B
330
18
100
AcDbEntity
  8
Object
100
AcDbLine
 10
17.773
 20
9.311900948305439
 30
0.0
 11
17.757
 21
9.30990094830544
 31
0.0
  0
LINE
  5
50C
330
18
100
AcDbEntity
  8
Object
100
AcDbLine
 10
17.757
 20
9.30990094830544
 30
0.0
 11
17.738
 21
9.307900948305439
 31
0.0
  0
LINE
  5
50D
330
18
100
AcDbEntity
  8
Object
100
AcDbLine
 10
17.738
 20
9.307900948305439
 30
0.0
 11
17.716
 21
9.30690094830544
 31
0.0
  0
LINE
  5
50E
330
18
100
AcDbEntity
  8
Object
100
AcDbLine
 10
17.716
 20
9.30690094830544
 30
0.0
 11
17.708
 21
9.305900948305438
 31
0.0
  0
LINE
  5
50F
330
18
100
AcDbEntity
  8
Object
100
AcDbLine
 10
17.569
 20
9.31990094830544
 30
0.0
 11
17.569
 21
9.313900948305439
 31
0.0
  0
LINE
  5
510
330
18
100
AcDbEntity
  8
Object
100
AcDbLine
 10
17.792
 20
9.31990094830544
 30
0.0
 11
17.794
 21
9.31990094830544
 31
0.0
  0
LINE
  5
511
330
18
100
AcDbEntity
  8
Object
100
AcDbLine
 10
17.794
 20
9.31990094830544
 30
0.0
 11
17.794
 21
9.31590094830544
 31
0.0
  0
LINE
  5
512
330
18
100
AcDbEntity
  8
Object
100
AcDbLine
 10
17.792
 20
9.31990094830544
 30
0.0
 11
17.787
 21
9.31990094830544
 31
0.0
  0
LINE
  5
513
330
18
100
AcDbEntity
  8
Object
100
AcDbLine
 10
17.787
 20
9.31990094830544
 30
0.0
 11
17.778
 21
9.31990094830544
 31
0.0
  0
LINE
  5
514
330
18
100
AcDbEntity
  8
Object
100
AcDbLine
 10
17.6
 20
9.31990094830544
 30
0.0
 11
17.583
 21
9.31990094830544
 31
0.0
  0
LINE
  5
515
330
18
100
AcDbEntity
  8
Object
100
AcDbLine
 10
17.583
 20
9.31990094830544
 30
0.0
 11
17.572
 21
9.31990094830544
 31
0.0
  0
LINE
  5
516
330
18
100
AcDbEntity
  8
Object
100
AcDbLine
 10
17.572
 20
9.31990094830544
 30
0.0
 11
17.569
 21
9.31990094830544
 31
0.0
  0
LINE
  5
517
330
18
100
AcDbEntity
  8
Object
100
AcDbLine
 10
17.794
 20
9.31990094830544
 30
0.0
 11
17.792
 21
9.31990094830544
 31
0.0
  0
LINE
  5
518
330
18
100
AcDbEntity
  8
Object
100
AcDbLine
 10
17.792
 20
9.31990094830544
 30
0.0
 11
17.787
 21
9.31990094830544
 31
0.0
  0
LINE
  5
519
330
18
100
AcDbEntity
  8
Object
100
AcDbLine
 10
17.787
 20
9.31990094830544
 30
0.0
 11
17.778
 21
9.31990094830544
 31
0.0
  0
LINE
  5
51A
330
18
100
AcDbEntity
  8
Object
100
AcDbLine
 10
17.778
 20
9.31990094830544
 30
0.0
 11
17.761
 21
9.31990094830544
 31
0.0
  0
LINE
  5
51B
330
18
100
AcDbEntity
  8
Object
100
AcDbLine
 10
17.761
 20
9.31990094830544
 30
0.0
 11
17.74
 21
9.31990094830544
 31
0.0
  0
LINE
  5
51C
330
18
100
AcDbEntity
  8
Object
100
AcDbLine
 10
17.74
 20
9.31990094830544
 30
0.0
 11
17.717
 21
9.31990094830544
 31
0.0
  0
LINE
  5
51D
330
18
100
AcDbEntity
  8
Object
100
AcDbLine
 10
17.717
 20
9.31990094830544
 30
0.0
 11
17.691
 21
9.31990094830544
 31
0.0
  0
LINE
  5
51E
330
18
100
AcDbEntity
  8
Object
100
AcDbLine
 10
17.691
 20
9.31990094830544
 30
0.0
 11
17.666
 21
9.31990094830544
 31
0.0
  0
LINE
  5
51F
330
18
100
AcDbEntity
  8
Object
100
AcDbLine
 10
17.666
 20
9.31990094830544
 30
0.0
 11
17.641
 21
9.31990094830544
 31
0.0
  0
LINE
  5
520
330
18
100
AcDbEntity
  8
Object
100
AcDbLine
 10
17.641
 20
9.31990094830544
 30
0.0
 11
17.618
 21
9.31990094830544
 31
0.0
  0
LINE
  5
521
330
18
100
AcDbEntity
  8
Object
100
AcDbLine
 10
17.618
 20
9.31990094830544
 30
0.0
 11
17.6
 21
9.31990094830544
 31
0.0
  0
LINE
  5
522
330
18
100
AcDbEntity
  8
Object
100
AcDbLine
 10
17.6
 20
9.31990094830544
 30
0.0
 11
17.583
 21
9.31990094830544
 31
0.0
  0
LINE
  5
523
330
18
100
AcDbEntity
  8
Object
100
AcDbLine
 10
17.583
 20
9.31990094830544
 30
0.0
 11
17.572
 21
9.31990094830544
 31
0.0
  0
LINE
  5
524
330
18
100
AcDbEntity
  8
Object
100
AcDbLine
 10
17.572
 20
9.31990094830544
 30
0.0
 11
17.569
 21
9.31990094830544
 31
0.0
  0
LINE
  5
525
330
18
100
AcDbEntity
  8
Object
100
AcDbLine
 10
11.36
 20
8.881900948305439
 30
0.0
 11
10.985
 21
8.881900948305439
 31
0.0
  0
LINE
  5
526
330
18
100
AcDbEntity
  8
Object
100
AcDbLine
 10
10.985
 20
8.881900948305439
 30
0.0
 11
2.798
 21
8.881900948305439
 31
0.0
  0
LINE
  5
527
330
18
100
AcDbEntity
  8
Object
100
AcDbLine
 10
10.985
 20
8.881900948305439
 30
0.0
 11
11.36
 21
8.881900948305439
 31
0.0
  0
LINE
  5
528
330
18
100
AcDbEntity
  8
Object
100
AcDbLine
 10
10.985
 20
9.060900948305439
 30
0.0
 11
11.36
 21
9.060900948305439
 31
0.0
  0
LINE
  5
529
330
18
100
AcDbEntity
  8
Object
100
AcDbLine
 10
11.36
 20
9.060900948305439
 30
0.0
 11
11.36
 21
8.881900948305439
 31
0.0
  0
LINE
  5
52A
330
18
100
AcDbEntity
  8
Object
100
AcDbLine
 10
2.798
 20
8.881900948305439
 30
0.0
 11
2.754999999999999
 21
8.874900948305439
 31
0.0
  0
LINE
  5
52B
330
18
100
AcDbEntity
  8
Object
100
AcDbLine
 10
2.754999999999999
 20
8.874900948305439
 30
0.0
 11
2.716000000000001
 21
8.855900948305439
 31
0.0
  0
LINE
  5
52C
330
18
100
AcDbEntity
  8
Object
100
AcDbLine
 10
2.716000000000001
 20
8.855900948305439
 30
0.0
 11
2.685
 21
8.82490094830544
 31
0.0
  0
LINE
  5
52D
330
18
100
AcDbEntity
  8
Object
100
AcDbLine
 10
2.685
 20
8.82490094830544
 30
0.0
 11
2.664999999999999
 21
8.785900948305439
 31
0.0
  0
LINE
  5
52E
330
18
100
AcDbEntity
  8
Object
100
AcDbLine
 10
2.664999999999999
 20
8.785900948305439
 30
0.0
 11
2.657999999999999
 21
8.741900948305438
 31
0.0
  0
LINE
  5
52F
330
18
100
AcDbEntity
  8
Object
100
AcDbLine
 10
11.36
 20
8.881900948305439
 30
0.0
 11
11.36
 21
9.060900948305439
 31
0.0
  0
LINE
  5
530
330
18
100
AcDbEntity
  8
Object
100
AcDbLine
 10
2.813
 20
9.060900948305439
 30
0.0
 11
10.985
 21
9.060900948305439
 31
0.0
  0
LINE
  5
531
330
18
100
AcDbEntity
  8
Object
100
AcDbLine
 10
10.985
 20
9.060900948305439
 30
0.0
 11
10.985
 21
8.881900948305439
 31
0.0
  0
LINE
  5
532
330
18
100
AcDbEntity
  8
Object
100
AcDbLine
 10
10.985
 20
8.881900948305439
 30
0.0
 11
2.798
 21
8.881900948305439
 31
0.0
  0
LINE
  5
533
330
18
100
AcDbEntity
  8
Object
100
AcDbLine
 10
2.813
 20
9.060900948305439
 30
0.0
 11
2.748000000000001
 21
9.054900948305439
 31
0.0
  0
LINE
  5
534
330
18
100
AcDbEntity
  8
Object
100
AcDbLine
 10
2.754999999999999
 20
8.874900948305439
 30
0.0
 11
2.798
 21
8.881900948305439
 31
0.0
  0
LINE
  5
535
330
18
100
AcDbEntity
  8
Object
100
AcDbLine
 10
2.748000000000001
 20
9.054900948305439
 30
0.0
 11
2.685
 21
9.035900948305439
 31
0.0
  0
LINE
  5
536
330
18
100
AcDbEntity
  8
Object
100
AcDbLine
 10
2.685
 20
9.035900948305439
 30
0.0
 11
2.628
 21
9.00490094830544
 31
0.0
  0
LINE
  5
537
330
18
100
AcDbEntity
  8
Object
100
AcDbLine
 10
2.754999999999999
 20
8.874900948305439
 30
0.0
 11
2.716000000000001
 21
8.855900948305439
 31
0.0
  0
LINE
  5
538
330
18
100
AcDbEntity
  8
Object
100
AcDbLine
 10
2.716000000000001
 20
8.855900948305439
 30
0.0
 11
2.685
 21
8.82490094830544
 31
0.0
  0
LINE
  5
539
330
18
100
AcDbEntity
  8
Object
100
AcDbLine
 10
2.628
 20
9.00490094830544
 30
0.0
 11
2.576999999999999
 21
8.96390094830544
 31
0.0
  0
LINE
  5
53A
330
18
100
AcDbEntity
  8
Object
100
AcDbLine
 10
2.576999999999999
 20
8.96390094830544
 30
0.0
 11
2.535
 21
8.912900948305439
 31
0.0
  0
LINE
  5
53B
330
18
100
AcDbEntity
  8
Object
100
AcDbLine
 10
2.664999999999999
 20
8.785900948305439
 30
0.0
 11
2.685
 21
8.82490094830544
 31
0.0
  0
LINE
  5
53C
330
18
100
AcDbEntity
  8
Object
100
AcDbLine
 10
2.535
 20
8.912900948305439
 30
0.0
 11
2.504999999999999
 21
8.854900948305438
 31
0.0
  0
LINE
  5
53D
330
18
100
AcDbEntity
  8
Object
100
AcDbLine
 10
2.657999999999999
 20
8.741900948305438
 30
0.0
 11
2.664999999999999
 21
8.785900948305439
 31
0.0
  0
LINE
  5
53E
330
18
100
AcDbEntity
  8
Object
100
AcDbLine
 10
2.504999999999999
 20
8.854900948305438
 30
0.0
 11
2.486
 21
8.791900948305439
 31
0.0
  0
LINE
  5
53F
330
18
100
AcDbEntity
  8
Object
100
AcDbLine
 10
2.486
 20
8.791900948305439
 30
0.0
 11
2.478999999999999
 21
8.72690094830544
 31
0.0
  0
LINE
  5
540
330
18
100
AcDbEntity
  8
Object
100
AcDbLine
 10
2.657999999999999
 20
4.94490094830544
 30
0.0
 11
2.657999999999999
 21
8.741900948305438
 31
0.0
  0
LINE
  5
541
330
18
100
AcDbEntity
  8
Object
100
AcDbLine
 10
2.478999999999999
 20
8.72690094830544
 30
0.0
 11
2.478999999999999
 21
4.94490094830544
 31
0.0
  0
LINE
  5
542
330
18
100
AcDbEntity
  8
Object
100
AcDbLine
 10
11.36
 20
9.060900948305439
 30
0.0
 11
10.985
 21
9.060900948305439
 31
0.0
  0
LINE
  5
543
330
18
100
AcDbEntity
  8
Object
100
AcDbLine
 10
10.985
 20
9.060900948305439
 30
0.0
 11
2.813
 21
9.060900948305439
 31
0.0
  0
LINE
  5
544
330
18
100
AcDbEntity
  8
Object
100
AcDbLine
 10
2.657999999999999
 20
4.56990094830544
 30
0.0
 11
2.657999999999999
 21
4.94490094830544
 31
0.0
  0
LINE
  5
545
330
18
100
AcDbEntity
  8
Object
100
AcDbLine
 10
2.657999999999999
 20
4.94490094830544
 30
0.0
 11
2.657999999999999
 21
8.741900948305438
 31
0.0
  0
LINE
  5
546
330
18
100
AcDbEntity
  8
Object
100
AcDbLine
 10
2.813
 20
9.060900948305439
 30
0.0
 11
2.748000000000001
 21
9.054900948305439
 31
0.0
  0
LINE
  5
547
330
18
100
AcDbEntity
  8
Object
100
AcDbLine
 10
2.748000000000001
 20
9.054900948305439
 30
0.0
 11
2.685
 21
9.035900948305439
 31
0.0
  0
LINE
  5
548
330
18
100
AcDbEntity
  8
Object
100
AcDbLine
 10
2.685
 20
9.035900948305439
 30
0.0
 11
2.628
 21
9.00490094830544
 31
0.0
  0
LINE
  5
549
330
18
100
AcDbEntity
  8
Object
100
AcDbLine
 10
2.628
 20
9.00490094830544
 30
0.0
 11
2.576999999999999
 21
8.96390094830544
 31
0.0
  0
LINE
  5
54A
330
18
100
AcDbEntity
  8
Object
100
AcDbLine
 10
2.576999999999999
 20
8.96390094830544
 30
0.0
 11
2.535
 21
8.912900948305439
 31
0.0
  0
LINE
  5
54B
330
18
100
AcDbEntity
  8
Object
100
AcDbLine
 10
2.535
 20
8.912900948305439
 30
0.0
 11
2.504999999999999
 21
8.854900948305438
 31
0.0
  0
LINE
  5
54C
330
18
100
AcDbEntity
  8
Object
100
AcDbLine
 10
2.504999999999999
 20
8.854900948305438
 30
0.0
 11
2.486
 21
8.791900948305439
 31
0.0
  0
LINE
  5
54D
330
18
100
AcDbEntity
  8
Object
100
AcDbLine
 10
2.486
 20
8.791900948305439
 30
0.0
 11
2.478999999999999
 21
8.72690094830544
 31
0.0
  0
LINE
  5
54E
330
18
100
AcDbEntity
  8
Object
100
AcDbLine
 10
2.478999999999999
 20
4.56990094830544
 30
0.0
 11
2.478999999999999
 21
4.94490094830544
 31
0.0
  0
LINE
  5
54F
330
18
100
AcDbEntity
  8
Object
100
AcDbLine
 10
2.478999999999999
 20
4.94490094830544
 30
0.0
 11
2.478999999999999
 21
8.72690094830544
 31
0.0
  0
LINE
  5
550
330
18
100
AcDbEntity
  8
Object
100
AcDbLine
 10
2.657999999999999
 20
4.94490094830544
 30
0.0
 11
2.657999999999999
 21
4.56990094830544
 31
0.0
  0
LINE
  5
551
330
18
100
AcDbEntity
  8
Object
100
AcDbLine
 10
2.657999999999999
 20
4.56990094830544
 30
0.0
 11
2.478999999999999
 21
4.56990094830544
 31
0.0
  0
LINE
  5
552
330
18
100
AcDbEntity
  8
Object
100
AcDbLine
 10
2.478999999999999
 20
4.56990094830544
 30
0.0
 11
2.478999999999999
 21
4.94490094830544
 31
0.0
  0
LINE
  5
553
330
18
100
AcDbEntity
  8
Object
100
AcDbLine
 10
2.478999999999999
 20
4.94490094830544
 30
0.0
 11
2.657999999999999
 21
4.94490094830544
 31
0.0
  0
LINE
  5
554
330
18
100
AcDbEntity
  8
Object
100
AcDbLine
 10
2.478999999999999
 20
4.56990094830544
 30
0.0
 11
2.657999999999999
 21
4.56990094830544
 31
0.0
  0
LINE
  5
555
330
18
100
AcDbEntity
  8
Object
100
AcDbLine
 10
4.059000000000001
 20
9.160900948305439
 30
0.0
 11
4.053
 21
9.15890094830544
 31
0.0
  0
LINE
  5
556
330
18
100
AcDbEntity
  8
Object
100
AcDbLine
 10
4.053
 20
9.15890094830544
 30
0.0
 11
4.048
 21
9.153900948305439
 31
0.0
  0
LINE
  5
557
330
18
100
AcDbEntity
  8
Object
100
AcDbLine
 10
4.048
 20
9.153900948305439
 30
0.0
 11
4.045999999999999
 21
9.146900948305439
 31
0.0
  0
LINE
  5
558
330
18
100
AcDbEntity
  8
Object
100
AcDbLine
 10
4.051999999999999
 20
9.23590094830544
 30
0.0
 11
4.216000000000001
 21
9.252900948305439
 31
0.0
  0
LINE
  5
559
330
18
100
AcDbEntity
  8
Object
100
AcDbLine
 10
4.216000000000001
 20
9.252900948305439
 30
0.0
 11
4.224
 21
9.17890094830544
 31
0.0
  0
LINE
  5
55A
330
18
100
AcDbEntity
  8
Object
100
AcDbLine
 10
4.224
 20
9.17890094830544
 30
0.0
 11
4.059000000000001
 21
9.160900948305439
 31
0.0
  0
LINE
  5
55B
330
18
100
AcDbEntity
  8
Object
100
AcDbLine
 10
4.059000000000001
 20
9.160900948305439
 30
0.0
 11
4.053
 21
9.15890094830544
 31
0.0
  0
LINE
  5
55C
330
18
100
AcDbEntity
  8
Object
100
AcDbLine
 10
4.051999999999999
 20
9.23590094830544
 30
0.0
 11
4.021
 21
9.22690094830544
 31
0.0
  0
LINE
  5
55D
330
18
100
AcDbEntity
  8
Object
100
AcDbLine
 10
4.021
 20
9.22690094830544
 30
0.0
 11
3.996
 21
9.207900948305439
 31
0.0
  0
LINE
  5
55E
330
18
100
AcDbEntity
  8
Object
100
AcDbLine
 10
4.053
 20
9.15890094830544
 30
0.0
 11
4.048
 21
9.153900948305439
 31
0.0
  0
LINE
  5
55F
330
18
100
AcDbEntity
  8
Object
100
AcDbLine
 10
4.048
 20
9.153900948305439
 30
0.0
 11
4.045999999999999
 21
9.146900948305439
 31
0.0
  0
LINE
  5
560
330
18
100
AcDbEntity
  8
Object
100
AcDbLine
 10
3.996
 20
9.207900948305439
 30
0.0
 11
3.977999999999999
 21
9.18190094830544
 31
0.0
  0
LINE
  5
561
330
18
100
AcDbEntity
  8
Object
100
AcDbLine
 10
3.977999999999999
 20
9.18190094830544
 30
0.0
 11
3.971
 21
9.150900948305439
 31
0.0
  0
LINE
  5
562
330
18
100
AcDbEntity
  8
Object
100
AcDbLine
 10
4.038
 20
9.11390094830544
 30
0.0
 11
4.045999999999999
 21
9.146900948305439
 31
0.0
  0
LINE
  5
563
330
18
100
AcDbEntity
  8
Object
100
AcDbLine
 10
3.971
 20
9.150900948305439
 30
0.0
 11
3.968999999999999
 21
9.14290094830544
 31
0.0
  0
LINE
  5
564
330
18
100
AcDbEntity
  8
Object
100
AcDbLine
 10
4.018
 20
9.08590094830544
 30
0.0
 11
4.038
 21
9.11390094830544
 31
0.0
  0
LINE
  5
565
330
18
100
AcDbEntity
  8
Object
100
AcDbLine
 10
3.968999999999999
 20
9.14290094830544
 30
0.0
 11
3.963
 21
9.137900948305439
 31
0.0
  0
LINE
  5
566
330
18
100
AcDbEntity
  8
Object
100
AcDbLine
 10
4.018
 20
9.08590094830544
 30
0.0
 11
3.99
 21
9.067900948305439
 31
0.0
  0
LINE
  5
567
330
18
100
AcDbEntity
  8
Object
100
AcDbLine
 10
3.99
 20
9.067900948305439
 30
0.0
 11
3.955999999999999
 21
9.060900948305439
 31
0.0
  0
LINE
  5
568
330
18
100
AcDbEntity
  8
Object
100
AcDbLine
 10
3.963
 20
9.137900948305439
 30
0.0
 11
3.955999999999999
 21
9.135900948305438
 31
0.0
  0
LINE
  5
569
330
18
100
AcDbEntity
  8
Object
100
AcDbLine
 10
3.955999999999999
 20
9.135900948305438
 30
0.0
 11
3.448999999999999
 21
9.135900948305438
 31
0.0
  0
LINE
  5
56A
330
18
100
AcDbEntity
  8
Object
100
AcDbLine
 10
4.045999999999999
 20
9.146900948305439
 30
0.0
 11
4.038
 21
9.11390094830544
 31
0.0
  0
LINE
  5
56B
330
18
100
AcDbEntity
  8
Object
100
AcDbLine
 10
4.038
 20
9.11390094830544
 30
0.0
 11
4.018
 21
9.08590094830544
 31
0.0
  0
LINE
  5
56C
330
18
100
AcDbEntity
  8
Object
100
AcDbLine
 10
4.018
 20
9.08590094830544
 30
0.0
 11
3.99
 21
9.067900948305439
 31
0.0
  0
LINE
  5
56D
330
18
100
AcDbEntity
  8
Object
100
AcDbLine
 10
3.99
 20
9.067900948305439
 30
0.0
 11
3.955999999999999
 21
9.060900948305439
 31
0.0
  0
LINE
  5
56E
330
18
100
AcDbEntity
  8
Object
100
AcDbLine
 10
4.262999999999999
 20
9.182900948305439
 30
0.0
 11
4.257999999999999
 21
9.18190094830544
 31
0.0
  0
LINE
  5
56F
330
18
100
AcDbEntity
  8
Object
100
AcDbLine
 10
4.257999999999999
 20
9.18190094830544
 30
0.0
 11
4.243999999999999
 21
9.180900948305438
 31
0.0
  0
LINE
  5
570
330
18
100
AcDbEntity
  8
Object
100
AcDbLine
 10
4.243999999999999
 20
9.180900948305438
 30
0.0
 11
4.224
 21
9.17890094830544
 31
0.0
  0
LINE
  5
571
330
18
100
AcDbEntity
  8
Object
100
AcDbLine
 10
4.224
 20
9.17890094830544
 30
0.0
 11
4.059000000000001
 21
9.160900948305439
 31
0.0
  0
LINE
  5
572
330
18
100
AcDbEntity
  8
Object
100
AcDbLine
 10
3.955999999999999
 20
9.135900948305438
 30
0.0
 11
3.448999999999999
 21
9.135900948305438
 31
0.0
  0
LINE
  5
573
330
18
100
AcDbEntity
  8
Object
100
AcDbLine
 10
3.448999999999999
 20
9.135900948305438
 30
0.0
 11
3.410999999999999
 21
9.135900948305438
 31
0.0
  0
LINE
  5
574
330
18
100
AcDbEntity
  8
Object
100
AcDbLine
 10
3.410999999999999
 20
9.135900948305438
 30
0.0
 11
3.375999999999999
 21
9.135900948305438
 31
0.0
  0
LINE
  5
575
330
18
100
AcDbEntity
  8
Object
100
AcDbLine
 10
3.375999999999999
 20
9.135900948305438
 30
0.0
 11
3.347999999999998
 21
9.135900948305438
 31
0.0
  0
LINE
  5
576
330
18
100
AcDbEntity
  8
Object
100
AcDbLine
 10
3.347999999999998
 20
9.135900948305438
 30
0.0
 11
3.33
 21
9.135900948305438
 31
0.0
  0
LINE
  5
577
330
18
100
AcDbEntity
  8
Object
100
AcDbLine
 10
3.33
 20
9.135900948305438
 30
0.0
 11
3.323999999999999
 21
9.135900948305438
 31
0.0
  0
LINE
  5
578
330
18
100
AcDbEntity
  8
Object
100
AcDbLine
 10
4.051999999999999
 20
9.23590094830544
 30
0.0
 11
4.021
 21
9.22690094830544
 31
0.0
  0
LINE
  5
579
330
18
100
AcDbEntity
  8
Object
100
AcDbLine
 10
4.021
 20
9.22690094830544
 30
0.0
 11
3.996
 21
9.207900948305439
 31
0.0
  0
LINE
  5
57A
330
18
100
AcDbEntity
  8
Object
100
AcDbLine
 10
3.996
 20
9.207900948305439
 30
0.0
 11
3.977999999999999
 21
9.18190094830544
 31
0.0
  0
LINE
  5
57B
330
18
100
AcDbEntity
  8
Object
100
AcDbLine
 10
3.977999999999999
 20
9.18190094830544
 30
0.0
 11
3.971
 21
9.150900948305439
 31
0.0
  0
LINE
  5
57C
330
18
100
AcDbEntity
  8
Object
100
AcDbLine
 10
3.971
 20
9.150900948305439
 30
0.0
 11
3.968999999999999
 21
9.14290094830544
 31
0.0
  0
LINE
  5
57D
330
18
100
AcDbEntity
  8
Object
100
AcDbLine
 10
3.968999999999999
 20
9.14290094830544
 30
0.0
 11
3.963
 21
9.137900948305439
 31
0.0
  0
LINE
  5
57E
330
18
100
AcDbEntity
  8
Object
100
AcDbLine
 10
3.963
 20
9.137900948305439
 30
0.0
 11
3.955999999999999
 21
9.135900948305438
 31
0.0
  0
LINE
  5
57F
330
18
100
AcDbEntity
  8
Object
100
AcDbLine
 10
4.256
 20
9.256900948305439
 30
0.0
 11
4.25
 21
9.256900948305439
 31
0.0
  0
LINE
  5
580
330
18
100
AcDbEntity
  8
Object
100
AcDbLine
 10
4.25
 20
9.256900948305439
 30
0.0
 11
4.236
 21
9.25490094830544
 31
0.0
  0
LINE
  5
581
330
18
100
AcDbEntity
  8
Object
100
AcDbLine
 10
4.236
 20
9.25490094830544
 30
0.0
 11
4.216000000000001
 21
9.252900948305439
 31
0.0
  0
LINE
  5
582
330
18
100
AcDbEntity
  8
Object
100
AcDbLine
 10
4.216000000000001
 20
9.252900948305439
 30
0.0
 11
4.051999999999999
 21
9.23590094830544
 31
0.0
  0
LINE
  5
583
330
18
100
AcDbEntity
  8
Object
100
AcDbLine
 10
3.410999999999999
 20
9.135900948305438
 30
0.0
 11
3.448999999999999
 21
9.135900948305438
 31
0.0
  0
LINE
  5
584
330
18
100
AcDbEntity
  8
Object
100
AcDbLine
 10
3.448999999999999
 20
9.135900948305438
 30
0.0
 11
3.448999999999999
 21
9.060900948305439
 31
0.0
  0
LINE
  5
585
330
18
100
AcDbEntity
  8
Object
100
AcDbLine
 10
3.410999999999999
 20
9.135900948305438
 30
0.0
 11
3.375999999999999
 21
9.135900948305438
 31
0.0
  0
LINE
  5
586
330
18
100
AcDbEntity
  8
Object
100
AcDbLine
 10
3.375999999999999
 20
9.135900948305438
 30
0.0
 11
3.347999999999998
 21
9.135900948305438
 31
0.0
  0
LINE
  5
587
330
18
100
AcDbEntity
  8
Object
100
AcDbLine
 10
3.347999999999998
 20
9.135900948305438
 30
0.0
 11
3.33
 21
9.135900948305438
 31
0.0
  0
LINE
  5
588
330
18
100
AcDbEntity
  8
Object
100
AcDbLine
 10
3.33
 20
9.135900948305438
 30
0.0
 11
3.323999999999999
 21
9.135900948305438
 31
0.0
  0
LINE
  5
589
330
18
100
AcDbEntity
  8
Object
100
AcDbLine
 10
3.323999999999999
 20
9.135900948305438
 30
0.0
 11
3.323999999999999
 21
9.060900948305439
 31
0.0
  0
LINE
  5
58A
330
18
100
AcDbEntity
  8
Object
100
AcDbLine
 10
4.256
 20
9.256900948305439
 30
0.0
 11
4.262999999999999
 21
9.182900948305439
 31
0.0
  0
LINE
  5
58B
330
18
100
AcDbEntity
  8
Object
100
AcDbLine
 10
4.262999999999999
 20
9.182900948305439
 30
0.0
 11
4.257999999999999
 21
9.18190094830544
 31
0.0
  0
LINE
  5
58C
330
18
100
AcDbEntity
  8
Object
100
AcDbLine
 10
4.256
 20
9.256900948305439
 30
0.0
 11
4.25
 21
9.256900948305439
 31
0.0
  0
LINE
  5
58D
330
18
100
AcDbEntity
  8
Object
100
AcDbLine
 10
4.243999999999999
 20
9.180900948305438
 30
0.0
 11
4.257999999999999
 21
9.18190094830544
 31
0.0
  0
LINE
  5
58E
330
18
100
AcDbEntity
  8
Object
100
AcDbLine
 10
4.25
 20
9.256900948305439
 30
0.0
 11
4.236
 21
9.25490094830544
 31
0.0
  0
LINE
  5
58F
330
18
100
AcDbEntity
  8
Object
100
AcDbLine
 10
4.224
 20
9.17890094830544
 30
0.0
 11
4.243999999999999
 21
9.180900948305438
 31
0.0
  0
LINE
  5
590
330
18
100
AcDbEntity
  8
Object
100
AcDbLine
 10
4.236
 20
9.25490094830544
 30
0.0
 11
4.216000000000001
 21
9.252900948305439
 31
0.0
  0
LINE
  5
591
330
18
100
AcDbEntity
  8
Object
100
AcDbLine
 10
4.262999999999999
 20
9.182900948305439
 30
0.0
 11
4.256
 21
9.256900948305439
 31
0.0
  0
LINE
  5
592
330
18
100
AcDbEntity
  8
Object
100
AcDbLine
 10
3.323999999999999
 20
9.135900948305438
 30
0.0
 11
3.323999999999999
 21
9.060900948305439
 31
0.0
  0
LINE
  5
593
330
18
100
AcDbEntity
  8
Object
100
AcDbLine
 10
4.277000000000001
 20
8.82290094830544
 30
0.0
 11
4.274
 21
8.825900948305438
 31
0.0
  0
LINE
  5
594
330
18
100
AcDbEntity
  8
Object
100
AcDbLine
 10
4.274
 20
8.825900948305438
 30
0.0
 11
4.266
 21
8.832900948305439
 31
0.0
  0
LINE
  5
595
330
18
100
AcDbEntity
  8
Object
100
AcDbLine
 10
4.266
 20
8.832900948305439
 30
0.0
 11
4.256
 21
8.843900948305439
 31
0.0
  0
LINE
  5
596
330
18
100
AcDbEntity
  8
Object
100
AcDbLine
 10
4.038999999999999
 20
9.060900948305439
 30
0.0
 11
4.015
 21
9.083900948305439
 31
0.0
  0
LINE
  5
597
330
18
100
AcDbEntity
  8
Object
100
AcDbLine
 10
4.256
 20
8.843900948305439
 30
0.0
 11
4.217999999999999
 21
8.881900948305439
 31
0.0
  0
LINE
  5
598
330
18
100
AcDbEntity
  8
Object
100
AcDbLine
 10
4.224
 20
8.769900948305439
 30
0.0
 11
4.221
 21
8.772900948305439
 31
0.0
  0
LINE
  5
599
330
18
100
AcDbEntity
  8
Object
100
AcDbLine
 10
4.221
 20
8.772900948305439
 30
0.0
 11
4.213
 21
8.779900948305439
 31
0.0
  0
LINE
  5
59A
330
18
100
AcDbEntity
  8
Object
100
AcDbLine
 10
4.213
 20
8.779900948305439
 30
0.0
 11
4.202999999999999
 21
8.79090094830544
 31
0.0
  0
LINE
  5
59B
330
18
100
AcDbEntity
  8
Object
100
AcDbLine
 10
4.202999999999999
 20
8.79090094830544
 30
0.0
 11
4.111
 21
8.881900948305439
 31
0.0
  0
LINE
  5
59C
330
18
100
AcDbEntity
  8
Object
100
AcDbLine
 10
4.038999999999999
 20
9.060900948305439
 30
0.0
 11
4.015
 21
9.083900948305439
 31
0.0
  0
LINE
  5
59D
330
18
100
AcDbEntity
  8
Object
100
AcDbLine
 10
4.217999999999999
 20
8.881900948305439
 30
0.0
 11
4.256
 21
8.843900948305439
 31
0.0
  0
LINE
  5
59E
330
18
100
AcDbEntity
  8
Object
100
AcDbLine
 10
4.256
 20
8.843900948305439
 30
0.0
 11
4.202999999999999
 21
8.79090094830544
 31
0.0
  0
LINE
  5
59F
330
18
100
AcDbEntity
  8
Object
100
AcDbLine
 10
4.202999999999999
 20
8.79090094830544
 30
0.0
 11
4.111
 21
8.881900948305439
 31
0.0
  0
LINE
  5
5A0
330
18
100
AcDbEntity
  8
Object
100
AcDbLine
 10
4.274
 20
8.825900948305438
 30
0.0
 11
4.277000000000001
 21
8.82290094830544
 31
0.0
  0
LINE
  5
5A1
330
18
100
AcDbEntity
  8
Object
100
AcDbLine
 10
4.277000000000001
 20
8.82290094830544
 30
0.0
 11
4.224
 21
8.769900948305439
 31
0.0
  0
LINE
  5
5A2
330
18
100
AcDbEntity
  8
Object
100
AcDbLine
 10
4.224
 20
8.769900948305439
 30
0.0
 11
4.221
 21
8.772900948305439
 31
0.0
  0
LINE
  5
5A3
330
18
100
AcDbEntity
  8
Object
100
AcDbLine
 10
4.274
 20
8.825900948305438
 30
0.0
 11
4.266
 21
8.832900948305439
 31
0.0
  0
LINE
  5
5A4
330
18
100
AcDbEntity
  8
Object
100
AcDbLine
 10
4.221
 20
8.772900948305439
 30
0.0
 11
4.213
 21
8.779900948305439
 31
0.0
  0
LINE
  5
5A5
330
18
100
AcDbEntity
  8
Object
100
AcDbLine
 10
4.213
 20
8.779900948305439
 30
0.0
 11
4.202999999999999
 21
8.79090094830544
 31
0.0
  0
LINE
  5
5A6
330
18
100
AcDbEntity
  8
Object
100
AcDbLine
 10
4.266
 20
8.832900948305439
 30
0.0
 11
4.256
 21
8.843900948305439
 31
0.0
  0
LINE
  5
5A7
330
18
100
AcDbEntity
  8
Object
100
AcDbLine
 10
4.224
 20
8.769900948305439
 30
0.0
 11
4.277000000000001
 21
8.82290094830544
 31
0.0
  0
LINE
  5
5A8
330
18
100
AcDbEntity
  8
Object
100
AcDbLine
 10
3.868
 20
8.81990094830544
 30
0.0
 11
3.852999999999999
 21
8.81990094830544
 31
0.0
  0
LINE
  5
5A9
330
18
100
AcDbEntity
  8
Object
100
AcDbLine
 10
3.852999999999999
 20
8.81990094830544
 30
0.0
 11
3.824999999999999
 21
8.81990094830544
 31
0.0
  0
LINE
  5
5AA
330
18
100
AcDbEntity
  8
Object
100
AcDbLine
 10
3.824999999999999
 20
8.81990094830544
 30
0.0
 11
3.785999999999999
 21
8.81990094830544
 31
0.0
  0
LINE
  5
5AB
330
18
100
AcDbEntity
  8
Object
100
AcDbLine
 10
3.785999999999999
 20
8.81990094830544
 30
0.0
 11
3.737999999999999
 21
8.81990094830544
 31
0.0
  0
LINE
  5
5AC
330
18
100
AcDbEntity
  8
Object
100
AcDbLine
 10
3.737999999999999
 20
8.81990094830544
 30
0.0
 11
3.682999999999999
 21
8.81990094830544
 31
0.0
  0
LINE
  5
5AD
330
18
100
AcDbEntity
  8
Object
100
AcDbLine
 10
3.682999999999999
 20
8.81990094830544
 30
0.0
 11
3.625
 21
8.81990094830544
 31
0.0
  0
LINE
  5
5AE
330
18
100
AcDbEntity
  8
Object
100
AcDbLine
 10
3.625
 20
8.81990094830544
 30
0.0
 11
3.567
 21
8.81990094830544
 31
0.0
  0
LINE
  5
5AF
330
18
100
AcDbEntity
  8
Object
100
AcDbLine
 10
3.567
 20
8.81990094830544
 30
0.0
 11
3.512
 21
8.81990094830544
 31
0.0
  0
LINE
  5
5B0
330
18
100
AcDbEntity
  8
Object
100
AcDbLine
 10
3.512
 20
8.81990094830544
 30
0.0
 11
3.464
 21
8.81990094830544
 31
0.0
  0
LINE
  5
5B1
330
18
100
AcDbEntity
  8
Object
100
AcDbLine
 10
3.464
 20
8.81990094830544
 30
0.0
 11
3.425
 21
8.81990094830544
 31
0.0
  0
LINE
  5
5B2
330
18
100
AcDbEntity
  8
Object
100
AcDbLine
 10
3.425
 20
8.81990094830544
 30
0.0
 11
3.397
 21
8.81990094830544
 31
0.0
  0
LINE
  5
5B3
330
18
100
AcDbEntity
  8
Object
100
AcDbLine
 10
3.397
 20
8.81990094830544
 30
0.0
 11
3.382999999999999
 21
8.81990094830544
 31
0.0
  0
LINE
  5
5B4
330
18
100
AcDbEntity
  8
Object
100
AcDbLine
 10
3.382999999999999
 20
8.81990094830544
 30
0.0
 11
3.381999999999999
 21
8.81990094830544
 31
0.0
  0
LINE
  5
5B5
330
18
100
AcDbEntity
  8
Object
100
AcDbLine
 10
3.868
 20
8.881900948305439
 30
0.0
 11
3.868
 21
8.81990094830544
 31
0.0
  0
LINE
  5
5B6
330
18
100
AcDbEntity
  8
Object
100
AcDbLine
 10
3.868
 20
8.81990094830544
 30
0.0
 11
3.852999999999999
 21
8.81990094830544
 31
0.0
  0
LINE
  5
5B7
330
18
100
AcDbEntity
  8
Object
100
AcDbLine
 10
3.852999999999999
 20
8.81990094830544
 30
0.0
 11
3.824999999999999
 21
8.81990094830544
 31
0.0
  0
LINE
  5
5B8
330
18
100
AcDbEntity
  8
Object
100
AcDbLine
 10
3.824999999999999
 20
8.81990094830544
 30
0.0
 11
3.785999999999999
 21
8.81990094830544
 31
0.0
  0
LINE
  5
5B9
330
18
100
AcDbEntity
  8
Object
100
AcDbLine
 10
3.785999999999999
 20
8.81990094830544
 30
0.0
 11
3.737999999999999
 21
8.81990094830544
 31
0.0
  0
LINE
  5
5BA
330
18
100
AcDbEntity
  8
Object
100
AcDbLine
 10
3.737999999999999
 20
8.81990094830544
 30
0.0
 11
3.682999999999999
 21
8.81990094830544
 31
0.0
  0
LINE
  5
5BB
330
18
100
AcDbEntity
  8
Object
100
AcDbLine
 10
3.682999999999999
 20
8.81990094830544
 30
0.0
 11
3.625
 21
8.81990094830544
 31
0.0
  0
LINE
  5
5BC
330
18
100
AcDbEntity
  8
Object
100
AcDbLine
 10
3.625
 20
8.81990094830544
 30
0.0
 11
3.567
 21
8.81990094830544
 31
0.0
  0
LINE
  5
5BD
330
18
100
AcDbEntity
  8
Object
100
AcDbLine
 10
3.625
 20
8.81990094830544
 30
0.0
 11
3.625
 21
8.881900948305439
 31
0.0
  0
LINE
  5
5BE
330
18
100
AcDbEntity
  8
Object
100
AcDbLine
 10
3.567
 20
8.81990094830544
 30
0.0
 11
3.512
 21
8.81990094830544
 31
0.0
  0
LINE
  5
5BF
330
18
100
AcDbEntity
  8
Object
100
AcDbLine
 10
3.512
 20
8.81990094830544
 30
0.0
 11
3.464
 21
8.81990094830544
 31
0.0
  0
LINE
  5
5C0
330
18
100
AcDbEntity
  8
Object
100
AcDbLine
 10
3.464
 20
8.81990094830544
 30
0.0
 11
3.425
 21
8.81990094830544
 31
0.0
  0
LINE
  5
5C1
330
18
100
AcDbEntity
  8
Object
100
AcDbLine
 10
3.425
 20
8.81990094830544
 30
0.0
 11
3.397
 21
8.81990094830544
 31
0.0
  0
LINE
  5
5C2
330
18
100
AcDbEntity
  8
Object
100
AcDbLine
 10
3.397
 20
8.81990094830544
 30
0.0
 11
3.382999999999999
 21
8.81990094830544
 31
0.0
  0
LINE
  5
5C3
330
18
100
AcDbEntity
  8
Object
100
AcDbLine
 10
3.381999999999999
 20
8.881900948305439
 30
0.0
 11
3.381999999999999
 21
8.81990094830544
 31
0.0
  0
LINE
  5
5C4
330
18
100
AcDbEntity
  8
Object
100
AcDbLine
 10
3.381999999999999
 20
8.81990094830544
 30
0.0
 11
3.382999999999999
 21
8.81990094830544
 31
0.0
  0
LINE
  5
5C5
330
18
100
AcDbEntity
  8
Object
100
AcDbLine
 10
3.835
 20
9.305900948305438
 30
0.0
 11
3.827999999999999
 21
9.305900948305438
 31
0.0
  0
LINE
  5
5C6
330
18
100
AcDbEntity
  8
Object
100
AcDbLine
 10
3.827999999999999
 20
9.305900948305438
 30
0.0
 11
3.807
 21
9.305900948305438
 31
0.0
  0
LINE
  5
5C7
330
18
100
AcDbEntity
  8
Object
100
AcDbLine
 10
3.807
 20
9.305900948305438
 30
0.0
 11
3.774
 21
9.305900948305438
 31
0.0
  0
LINE
  5
5C8
330
18
100
AcDbEntity
  8
Object
100
AcDbLine
 10
3.774
 20
9.305900948305438
 30
0.0
 11
3.73
 21
9.305900948305438
 31
0.0
  0
LINE
  5
5C9
330
18
100
AcDbEntity
  8
Object
100
AcDbLine
 10
3.73
 20
9.305900948305438
 30
0.0
 11
3.679999999999999
 21
9.305900948305438
 31
0.0
  0
LINE
  5
5CA
330
18
100
AcDbEntity
  8
Object
100
AcDbLine
 10
3.679999999999999
 20
9.305900948305438
 30
0.0
 11
3.625
 21
9.305900948305438
 31
0.0
  0
LINE
  5
5CB
330
18
100
AcDbEntity
  8
Object
100
AcDbLine
 10
3.625
 20
9.305900948305438
 30
0.0
 11
3.570999999999999
 21
9.305900948305438
 31
0.0
  0
LINE
  5
5CC
330
18
100
AcDbEntity
  8
Object
100
AcDbLine
 10
3.570999999999999
 20
9.305900948305438
 30
0.0
 11
3.519999999999999
 21
9.305900948305438
 31
0.0
  0
LINE
  5
5CD
330
18
100
AcDbEntity
  8
Object
100
AcDbLine
 10
3.519999999999999
 20
9.305900948305438
 30
0.0
 11
3.477
 21
9.305900948305438
 31
0.0
  0
LINE
  5
5CE
330
18
100
AcDbEntity
  8
Object
100
AcDbLine
 10
3.477
 20
9.305900948305438
 30
0.0
 11
3.442999999999999
 21
9.305900948305438
 31
0.0
  0
LINE
  5
5CF
330
18
100
AcDbEntity
  8
Object
100
AcDbLine
 10
3.442999999999999
 20
9.305900948305438
 30
0.0
 11
3.422
 21
9.305900948305438
 31
0.0
  0
LINE
  5
5D0
330
18
100
AcDbEntity
  8
Object
100
AcDbLine
 10
3.422
 20
9.305900948305438
 30
0.0
 11
3.414999999999999
 21
9.305900948305438
 31
0.0
  0
LINE
  5
5D1
330
18
100
AcDbEntity
  8
Object
100
AcDbLine
 10
3.835
 20
9.305900948305438
 30
0.0
 11
3.845
 21
9.295900948305439
 31
0.0
  0
LINE
  5
5D2
330
18
100
AcDbEntity
  8
Object
100
AcDbLine
 10
3.845
 20
9.295900948305439
 30
0.0
 11
3.838
 21
9.295900948305439
 31
0.0
  0
LINE
  5
5D3
330
18
100
AcDbEntity
  8
Object
100
AcDbLine
 10
3.835
 20
9.305900948305438
 30
0.0
 11
3.827999999999999
 21
9.305900948305438
 31
0.0
  0
LINE
  5
5D4
330
18
100
AcDbEntity
  8
Object
100
AcDbLine
 10
3.816
 20
9.295900948305439
 30
0.0
 11
3.838
 21
9.295900948305439
 31
0.0
  0
LINE
  5
5D5
330
18
100
AcDbEntity
  8
Object
100
AcDbLine
 10
3.827999999999999
 20
9.305900948305438
 30
0.0
 11
3.807
 21
9.305900948305438
 31
0.0
  0
LINE
  5
5D6
330
18
100
AcDbEntity
  8
Object
100
AcDbLine
 10
3.781
 20
9.295900948305439
 30
0.0
 11
3.816
 21
9.295900948305439
 31
0.0
  0
LINE
  5
5D7
330
18
100
AcDbEntity
  8
Object
100
AcDbLine
 10
3.807
 20
9.305900948305438
 30
0.0
 11
3.774
 21
9.305900948305438
 31
0.0
  0
LINE
  5
5D8
330
18
100
AcDbEntity
  8
Object
100
AcDbLine
 10
3.734999999999999
 20
9.295900948305439
 30
0.0
 11
3.781
 21
9.295900948305439
 31
0.0
  0
LINE
  5
5D9
330
18
100
AcDbEntity
  8
Object
100
AcDbLine
 10
3.774
 20
9.305900948305438
 30
0.0
 11
3.73
 21
9.305900948305438
 31
0.0
  0
LINE
  5
5DA
330
18
100
AcDbEntity
  8
Object
100
AcDbLine
 10
3.73
 20
9.305900948305438
 30
0.0
 11
3.679999999999999
 21
9.305900948305438
 31
0.0
  0
LINE
  5
5DB
330
18
100
AcDbEntity
  8
Object
100
AcDbLine
 10
3.734999999999999
 20
9.295900948305439
 30
0.0
 11
3.682
 21
9.295900948305439
 31
0.0
  0
LINE
  5
5DC
330
18
100
AcDbEntity
  8
Object
100
AcDbLine
 10
3.682
 20
9.295900948305439
 30
0.0
 11
3.625
 21
9.295900948305439
 31
0.0
  0
LINE
  5
5DD
330
18
100
AcDbEntity
  8
Object
100
AcDbLine
 10
3.679999999999999
 20
9.305900948305438
 30
0.0
 11
3.625
 21
9.305900948305438
 31
0.0
  0
LINE
  5
5DE
330
18
100
AcDbEntity
  8
Object
100
AcDbLine
 10
3.625
 20
9.305900948305438
 30
0.0
 11
3.570999999999999
 21
9.305900948305438
 31
0.0
  0
LINE
  5
5DF
330
18
100
AcDbEntity
  8
Object
100
AcDbLine
 10
3.625
 20
9.305900948305438
 30
0.0
 11
3.625
 21
9.295900948305439
 31
0.0
  0
LINE
  5
5E0
330
18
100
AcDbEntity
  8
Object
100
AcDbLine
 10
3.625
 20
9.295900948305439
 30
0.0
 11
3.567999999999999
 21
9.295900948305439
 31
0.0
  0
LINE
  5
5E1
330
18
100
AcDbEntity
  8
Object
100
AcDbLine
 10
3.567999999999999
 20
9.295900948305439
 30
0.0
 11
3.515
 21
9.295900948305439
 31
0.0
  0
LINE
  5
5E2
330
18
100
AcDbEntity
  8
Object
100
AcDbLine
 10
3.570999999999999
 20
9.305900948305438
 30
0.0
 11
3.519999999999999
 21
9.305900948305438
 31
0.0
  0
LINE
  5
5E3
330
18
100
AcDbEntity
  8
Object
100
AcDbLine
 10
3.519999999999999
 20
9.305900948305438
 30
0.0
 11
3.477
 21
9.305900948305438
 31
0.0
  0
LINE
  5
5E4
330
18
100
AcDbEntity
  8
Object
100
AcDbLine
 10
3.47
 20
9.295900948305439
 30
0.0
 11
3.515
 21
9.295900948305439
 31
0.0
  0
LINE
  5
5E5
330
18
100
AcDbEntity
  8
Object
100
AcDbLine
 10
3.477
 20
9.305900948305438
 30
0.0
 11
3.442999999999999
 21
9.305900948305438
 31
0.0
  0
LINE
  5
5E6
330
18
100
AcDbEntity
  8
Object
100
AcDbLine
 10
3.435
 20
9.295900948305439
 30
0.0
 11
3.47
 21
9.295900948305439
 31
0.0
  0
LINE
  5
5E7
330
18
100
AcDbEntity
  8
Object
100
AcDbLine
 10
3.442999999999999
 20
9.305900948305438
 30
0.0
 11
3.422
 21
9.305900948305438
 31
0.0
  0
LINE
  5
5E8
330
18
100
AcDbEntity
  8
Object
100
AcDbLine
 10
3.422
 20
9.305900948305438
 30
0.0
 11
3.414999999999999
 21
9.305900948305438
 31
0.0
  0
LINE
  5
5E9
330
18
100
AcDbEntity
  8
Object
100
AcDbLine
 10
3.435
 20
9.295900948305439
 30
0.0
 11
3.413
 21
9.295900948305439
 31
0.0
  0
LINE
  5
5EA
330
18
100
AcDbEntity
  8
Object
100
AcDbLine
 10
3.413
 20
9.295900948305439
 30
0.0
 11
3.405000000000001
 21
9.295900948305439
 31
0.0
  0
LINE
  5
5EB
330
18
100
AcDbEntity
  8
Object
100
AcDbLine
 10
3.405000000000001
 20
9.295900948305439
 30
0.0
 11
3.414999999999999
 21
9.305900948305438
 31
0.0
  0
LINE
  5
5EC
330
18
100
AcDbEntity
  8
Object
100
AcDbLine
 10
3.845
 20
9.135900948305438
 30
0.0
 11
3.845
 21
9.295900948305439
 31
0.0
  0
LINE
  5
5ED
330
18
100
AcDbEntity
  8
Object
100
AcDbLine
 10
3.625
 20
9.135900948305438
 30
0.0
 11
3.625
 21
9.295900948305439
 31
0.0
  0
LINE
  5
5EE
330
18
100
AcDbEntity
  8
Object
100
AcDbLine
 10
3.405000000000001
 20
9.295900948305439
 30
0.0
 11
3.405000000000001
 21
9.135900948305438
 31
0.0
  0
LINE
  5
5EF
330
18
100
AcDbEntity
  8
Object
100
AcDbLine
 10
3.843999999999999
 20
8.656900948305439
 30
0.0
 11
3.836999999999999
 21
8.656900948305439
 31
0.0
  0
LINE
  5
5F0
330
18
100
AcDbEntity
  8
Object
100
AcDbLine
 10
3.836999999999999
 20
8.656900948305439
 30
0.0
 11
3.814999999999999
 21
8.656900948305439
 31
0.0
  0
LINE
  5
5F1
330
18
100
AcDbEntity
  8
Object
100
AcDbLine
 10
3.814999999999999
 20
8.656900948305439
 30
0.0
 11
3.780000000000001
 21
8.656900948305439
 31
0.0
  0
LINE
  5
5F2
330
18
100
AcDbEntity
  8
Object
100
AcDbLine
 10
3.780000000000001
 20
8.656900948305439
 30
0.0
 11
3.734999999999999
 21
8.656900948305439
 31
0.0
  0
LINE
  5
5F3
330
18
100
AcDbEntity
  8
Object
100
AcDbLine
 10
3.734999999999999
 20
8.656900948305439
 30
0.0
 11
3.682
 21
8.656900948305439
 31
0.0
  0
LINE
  5
5F4
330
18
100
AcDbEntity
  8
Object
100
AcDbLine
 10
3.682
 20
8.656900948305439
 30
0.0
 11
3.625
 21
8.656900948305439
 31
0.0
  0
LINE
  5
5F5
330
18
100
AcDbEntity
  8
Object
100
AcDbLine
 10
3.625
 20
8.656900948305439
 30
0.0
 11
3.567999999999999
 21
8.656900948305439
 31
0.0
  0
LINE
  5
5F6
330
18
100
AcDbEntity
  8
Object
100
AcDbLine
 10
3.567999999999999
 20
8.656900948305439
 30
0.0
 11
3.516
 21
8.656900948305439
 31
0.0
  0
LINE
  5
5F7
330
18
100
AcDbEntity
  8
Object
100
AcDbLine
 10
3.516
 20
8.656900948305439
 30
0.0
 11
3.486
 21
8.656900948305439
 31
0.0
  0
LINE
  5
5F8
330
18
100
AcDbEntity
  8
Object
100
AcDbLine
 10
3.486
 20
8.656900948305439
 30
0.0
 11
3.458999999999999
 21
8.656900948305439
 31
0.0
  0
LINE
  5
5F9
330
18
100
AcDbEntity
  8
Object
100
AcDbLine
 10
3.458999999999999
 20
8.656900948305439
 30
0.0
 11
3.438
 21
8.656900948305439
 31
0.0
  0
LINE
  5
5FA
330
18
100
AcDbEntity
  8
Object
100
AcDbLine
 10
3.438
 20
8.656900948305439
 30
0.0
 11
3.419999999999999
 21
8.656900948305439
 31
0.0
  0
LINE
  5
5FB
330
18
100
AcDbEntity
  8
Object
100
AcDbLine
 10
3.419999999999999
 20
8.656900948305439
 30
0.0
 11
3.41
 21
8.656900948305439
 31
0.0
  0
LINE
  5
5FC
330
18
100
AcDbEntity
  8
Object
100
AcDbLine
 10
3.41
 20
8.656900948305439
 30
0.0
 11
3.406
 21
8.656900948305439
 31
0.0
  0
LINE
  5
5FD
330
18
100
AcDbEntity
  8
Object
100
AcDbLine
 10
3.843999999999999
 20
8.656900948305439
 30
0.0
 11
3.843999999999999
 21
8.662900948305439
 31
0.0
  0
LINE
  5
5FE
330
18
100
AcDbEntity
  8
Object
100
AcDbLine
 10
3.843999999999999
 20
8.662900948305439
 30
0.0
 11
3.843999999999999
 21
8.676900948305439
 31
0.0
  0
LINE
  5
5FF
330
18
100
AcDbEntity
  8
Object
100
AcDbLine
 10
3.843999999999999
 20
8.676900948305439
 30
0.0
 11
3.843999999999999
 21
8.800900948305439
 31
0.0
  0
LINE
  5
600
330
18
100
AcDbEntity
  8
Object
100
AcDbLine
 10
3.843999999999999
 20
8.800900948305439
 30
0.0
 11
3.843999999999999
 21
8.814900948305439
 31
0.0
  0
LINE
  5
601
330
18
100
AcDbEntity
  8
Object
100
AcDbLine
 10
3.843999999999999
 20
8.814900948305439
 30
0.0
 11
3.843999999999999
 21
8.81990094830544
 31
0.0
  0
LINE
  5
602
330
18
100
AcDbEntity
  8
Object
100
AcDbLine
 10
3.406
 20
8.81990094830544
 30
0.0
 11
3.406
 21
8.814900948305439
 31
0.0
  0
LINE
  5
603
330
18
100
AcDbEntity
  8
Object
100
AcDbLine
 10
3.406
 20
8.814900948305439
 30
0.0
 11
3.406
 21
8.800900948305439
 31
0.0
  0
LINE
  5
604
330
18
100
AcDbEntity
  8
Object
100
AcDbLine
 10
3.406
 20
8.800900948305439
 30
0.0
 11
3.406
 21
8.676900948305439
 31
0.0
  0
LINE
  5
605
330
18
100
AcDbEntity
  8
Object
100
AcDbLine
 10
3.406
 20
8.676900948305439
 30
0.0
 11
3.406
 21
8.662900948305439
 31
0.0
  0
LINE
  5
606
330
18
100
AcDbEntity
  8
Object
100
AcDbLine
 10
3.406
 20
8.662900948305439
 30
0.0
 11
3.406
 21
8.656900948305439
 31
0.0
  0
LINE
  5
607
330
18
100
AcDbEntity
  8
Object
100
AcDbLine
 10
3.46
 20
8.662900948305439
 30
0.0
 11
3.516
 21
8.656900948305439
 31
0.0
  0
LINE
  5
608
330
18
100
AcDbEntity
  8
Object
100
AcDbLine
 10
3.516
 20
8.656900948305439
 30
0.0
 11
3.486
 21
8.656900948305439
 31
0.0
  0
LINE
  5
609
330
18
100
AcDbEntity
  8
Object
100
AcDbLine
 10
3.486
 20
8.656900948305439
 30
0.0
 11
3.458999999999999
 21
8.656900948305439
 31
0.0
  0
LINE
  5
60A
330
18
100
AcDbEntity
  8
Object
100
AcDbLine
 10
3.46
 20
8.662900948305439
 30
0.0
 11
3.406
 21
8.676900948305439
 31
0.0
  0
LINE
  5
60B
330
18
100
AcDbEntity
  8
Object
100
AcDbLine
 10
3.458999999999999
 20
8.656900948305439
 30
0.0
 11
3.438
 21
8.656900948305439
 31
0.0
  0
LINE
  5
60C
330
18
100
AcDbEntity
  8
Object
100
AcDbLine
 10
3.438
 20
8.656900948305439
 30
0.0
 11
3.406
 21
8.676900948305439
 31
0.0
  0
LINE
  5
60D
330
18
100
AcDbEntity
  8
Object
100
AcDbLine
 10
3.682
 20
8.656900948305439
 30
0.0
 11
3.734999999999999
 21
8.656900948305439
 31
0.0
  0
LINE
  5
60E
330
18
100
AcDbEntity
  8
Object
100
AcDbLine
 10
3.734999999999999
 20
8.656900948305439
 30
0.0
 11
3.679
 21
8.662900948305439
 31
0.0
  0
LINE
  5
60F
330
18
100
AcDbEntity
  8
Object
100
AcDbLine
 10
3.625
 20
8.656900948305439
 30
0.0
 11
3.682
 21
8.656900948305439
 31
0.0
  0
LINE
  5
610
330
18
100
AcDbEntity
  8
Object
100
AcDbLine
 10
3.679
 20
8.662900948305439
 30
0.0
 11
3.625
 21
8.676900948305439
 31
0.0
  0
LINE
  5
611
330
18
100
AcDbEntity
  8
Object
100
AcDbLine
 10
3.625
 20
8.676900948305439
 30
0.0
 11
3.570999999999999
 21
8.662900948305439
 31
0.0
  0
LINE
  5
612
330
18
100
AcDbEntity
  8
Object
100
AcDbLine
 10
3.625
 20
8.656900948305439
 30
0.0
 11
3.567999999999999
 21
8.656900948305439
 31
0.0
  0
LINE
  5
613
330
18
100
AcDbEntity
  8
Object
100
AcDbLine
 10
3.567999999999999
 20
8.656900948305439
 30
0.0
 11
3.516
 21
8.656900948305439
 31
0.0
  0
LINE
  5
614
330
18
100
AcDbEntity
  8
Object
100
AcDbLine
 10
3.516
 20
8.656900948305439
 30
0.0
 11
3.570999999999999
 21
8.662900948305439
 31
0.0
  0
LINE
  5
615
330
18
100
AcDbEntity
  8
Object
100
AcDbLine
 10
3.843999999999999
 20
8.662900948305439
 30
0.0
 11
3.843999999999999
 21
8.656900948305439
 31
0.0
  0
LINE
  5
616
330
18
100
AcDbEntity
  8
Object
100
AcDbLine
 10
3.843999999999999
 20
8.656900948305439
 30
0.0
 11
3.836999999999999
 21
8.656900948305439
 31
0.0
  0
LINE
  5
617
330
18
100
AcDbEntity
  8
Object
100
AcDbLine
 10
3.843999999999999
 20
8.662900948305439
 30
0.0
 11
3.843999999999999
 21
8.676900948305439
 31
0.0
  0
LINE
  5
618
330
18
100
AcDbEntity
  8
Object
100
AcDbLine
 10
3.814999999999999
 20
8.656900948305439
 30
0.0
 11
3.836999999999999
 21
8.656900948305439
 31
0.0
  0
LINE
  5
619
330
18
100
AcDbEntity
  8
Object
100
AcDbLine
 10
3.843999999999999
 20
8.676900948305439
 30
0.0
 11
3.789999999999999
 21
8.662900948305439
 31
0.0
  0
LINE
  5
61A
330
18
100
AcDbEntity
  8
Object
100
AcDbLine
 10
3.814999999999999
 20
8.656900948305439
 30
0.0
 11
3.780000000000001
 21
8.656900948305439
 31
0.0
  0
LINE
  5
61B
330
18
100
AcDbEntity
  8
Object
100
AcDbLine
 10
3.780000000000001
 20
8.656900948305439
 30
0.0
 11
3.734999999999999
 21
8.656900948305439
 31
0.0
  0
LINE
  5
61C
330
18
100
AcDbEntity
  8
Object
100
AcDbLine
 10
3.734999999999999
 20
8.656900948305439
 30
0.0
 11
3.789999999999999
 21
8.662900948305439
 31
0.0
  0
LINE
  5
61D
330
18
100
AcDbEntity
  8
Object
100
AcDbLine
 10
3.419999999999999
 20
8.656900948305439
 30
0.0
 11
3.41
 21
8.656900948305439
 31
0.0
  0
LINE
  5
61E
330
18
100
AcDbEntity
  8
Object
100
AcDbLine
 10
3.41
 20
8.656900948305439
 30
0.0
 11
3.406
 21
8.656900948305439
 31
0.0
  0
LINE
  5
61F
330
18
100
AcDbEntity
  8
Object
100
AcDbLine
 10
3.406
 20
8.656900948305439
 30
0.0
 11
3.406
 21
8.662900948305439
 31
0.0
  0
LINE
  5
620
330
18
100
AcDbEntity
  8
Object
100
AcDbLine
 10
3.406
 20
8.662900948305439
 30
0.0
 11
3.406
 21
8.676900948305439
 31
0.0
  0
LINE
  5
621
330
18
100
AcDbEntity
  8
Object
100
AcDbLine
 10
3.419999999999999
 20
8.656900948305439
 30
0.0
 11
3.438
 21
8.656900948305439
 31
0.0
  0
LINE
  5
622
330
18
100
AcDbEntity
  8
Object
100
AcDbLine
 10
3.843999999999999
 20
8.81990094830544
 30
0.0
 11
3.843999999999999
 21
8.814900948305439
 31
0.0
  0
LINE
  5
623
330
18
100
AcDbEntity
  8
Object
100
AcDbLine
 10
3.843999999999999
 20
8.814900948305439
 30
0.0
 11
3.843999999999999
 21
8.800900948305439
 31
0.0
  0
LINE
  5
624
330
18
100
AcDbEntity
  8
Object
100
AcDbLine
 10
3.843999999999999
 20
8.800900948305439
 30
0.0
 11
3.789999999999999
 21
8.814900948305439
 31
0.0
  0
LINE
  5
625
330
18
100
AcDbEntity
  8
Object
100
AcDbLine
 10
3.789999999999999
 20
8.814900948305439
 30
0.0
 11
3.734999999999999
 21
8.81990094830544
 31
0.0
  0
LINE
  5
626
330
18
100
AcDbEntity
  8
Object
100
AcDbLine
 10
3.843999999999999
 20
8.676900948305439
 30
0.0
 11
3.843999999999999
 21
8.800900948305439
 31
0.0
  0
LINE
  5
627
330
18
100
AcDbEntity
  8
Object
100
AcDbLine
 10
3.734999999999999
 20
8.81990094830544
 30
0.0
 11
3.679
 21
8.814900948305439
 31
0.0
  0
LINE
  5
628
330
18
100
AcDbEntity
  8
Object
100
AcDbLine
 10
3.679
 20
8.814900948305439
 30
0.0
 11
3.625
 21
8.800900948305439
 31
0.0
  0
LINE
  5
629
330
18
100
AcDbEntity
  8
Object
100
AcDbLine
 10
3.406
 20
8.814900948305439
 30
0.0
 11
3.406
 21
8.800900948305439
 31
0.0
  0
LINE
  5
62A
330
18
100
AcDbEntity
  8
Object
100
AcDbLine
 10
3.406
 20
8.800900948305439
 30
0.0
 11
3.438
 21
8.81990094830544
 31
0.0
  0
LINE
  5
62B
330
18
100
AcDbEntity
  8
Object
100
AcDbLine
 10
3.406
 20
8.81990094830544
 30
0.0
 11
3.406
 21
8.814900948305439
 31
0.0
  0
LINE
  5
62C
330
18
100
AcDbEntity
  8
Object
100
AcDbLine
 10
3.570999999999999
 20
8.814900948305439
 30
0.0
 11
3.625
 21
8.800900948305439
 31
0.0
  0
LINE
  5
62D
330
18
100
AcDbEntity
  8
Object
100
AcDbLine
 10
3.625
 20
8.800900948305439
 30
0.0
 11
3.625
 21
8.676900948305439
 31
0.0
  0
LINE
  5
62E
330
18
100
AcDbEntity
  8
Object
100
AcDbLine
 10
3.570999999999999
 20
8.814900948305439
 30
0.0
 11
3.516
 21
8.81990094830544
 31
0.0
  0
LINE
  5
62F
330
18
100
AcDbEntity
  8
Object
100
AcDbLine
 10
3.516
 20
8.81990094830544
 30
0.0
 11
3.46
 21
8.814900948305439
 31
0.0
  0
LINE
  5
630
330
18
100
AcDbEntity
  8
Object
100
AcDbLine
 10
3.406
 20
8.676900948305439
 30
0.0
 11
3.406
 21
8.800900948305439
 31
0.0
  0
LINE
  5
631
330
18
100
AcDbEntity
  8
Object
100
AcDbLine
 10
3.406
 20
8.800900948305439
 30
0.0
 11
3.46
 21
8.814900948305439
 31
0.0
  0
LINE
  5
632
330
18
100
AcDbEntity
  8
Object
100
AcDbLine
 10
3.544999999999999
 20
9.31990094830544
 30
0.0
 11
3.564
 21
9.31990094830544
 31
0.0
  0
LINE
  5
633
330
18
100
AcDbEntity
  8
Object
100
AcDbLine
 10
3.564
 20
9.31990094830544
 30
0.0
 11
3.532
 21
9.317900948305439
 31
0.0
  0
LINE
  5
634
330
18
100
AcDbEntity
  8
Object
100
AcDbLine
 10
3.544999999999999
 20
9.31990094830544
 30
0.0
 11
3.530000000000001
 21
9.31990094830544
 31
0.0
  0
LINE
  5
635
330
18
100
AcDbEntity
  8
Object
100
AcDbLine
 10
3.513999999999999
 20
9.31990094830544
 30
0.0
 11
3.519
 21
9.31990094830544
 31
0.0
  0
LINE
  5
636
330
18
100
AcDbEntity
  8
Object
100
AcDbLine
 10
3.519
 20
9.31990094830544
 30
0.0
 11
3.530000000000001
 21
9.31990094830544
 31
0.0
  0
LINE
  5
637
330
18
100
AcDbEntity
  8
Object
100
AcDbLine
 10
3.509999999999999
 20
9.314900948305439
 30
0.0
 11
3.532
 21
9.317900948305439
 31
0.0
  0
LINE
  5
638
330
18
100
AcDbEntity
  8
Object
100
AcDbLine
 10
3.513999999999999
 20
9.31990094830544
 30
0.0
 11
3.5
 21
9.31290094830544
 31
0.0
  0
LINE
  5
639
330
18
100
AcDbEntity
  8
Object
100
AcDbLine
 10
3.5
 20
9.31290094830544
 30
0.0
 11
3.509999999999999
 21
9.314900948305439
 31
0.0
  0
LINE
  5
63A
330
18
100
AcDbEntity
  8
Object
100
AcDbLine
 10
3.736
 20
9.31990094830544
 30
0.0
 11
3.724999999999999
 21
9.31290094830544
 31
0.0
  0
LINE
  5
63B
330
18
100
AcDbEntity
  8
Object
100
AcDbLine
 10
3.724999999999999
 20
9.31290094830544
 30
0.0
 11
3.717
 21
9.310900948305439
 31
0.0
  0
LINE
  5
63C
330
18
100
AcDbEntity
  8
Object
100
AcDbLine
 10
3.736
 20
9.31990094830544
 30
0.0
 11
3.730999999999999
 21
9.31990094830544
 31
0.0
  0
LINE
  5
63D
330
18
100
AcDbEntity
  8
Object
100
AcDbLine
 10
3.705
 20
9.31990094830544
 30
0.0
 11
3.721
 21
9.31990094830544
 31
0.0
  0
LINE
  5
63E
330
18
100
AcDbEntity
  8
Object
100
AcDbLine
 10
3.721
 20
9.31990094830544
 30
0.0
 11
3.730999999999999
 21
9.31990094830544
 31
0.0
  0
LINE
  5
63F
330
18
100
AcDbEntity
  8
Object
100
AcDbLine
 10
3.701999999999999
 20
9.308900948305439
 30
0.0
 11
3.717
 21
9.310900948305439
 31
0.0
  0
LINE
  5
640
330
18
100
AcDbEntity
  8
Object
100
AcDbLine
 10
3.705
 20
9.31990094830544
 30
0.0
 11
3.685999999999999
 21
9.31990094830544
 31
0.0
  0
LINE
  5
641
330
18
100
AcDbEntity
  8
Object
100
AcDbLine
 10
3.701999999999999
 20
9.308900948305439
 30
0.0
 11
3.679999999999999
 21
9.30690094830544
 31
0.0
  0
LINE
  5
642
330
18
100
AcDbEntity
  8
Object
100
AcDbLine
 10
3.679999999999999
 20
9.30690094830544
 30
0.0
 11
3.673999999999999
 21
9.305900948305438
 31
0.0
  0
LINE
  5
643
330
18
100
AcDbEntity
  8
Object
100
AcDbLine
 10
3.685999999999999
 20
9.31990094830544
 30
0.0
 11
3.657
 21
9.317900948305439
 31
0.0
  0
LINE
  5
644
330
18
100
AcDbEntity
  8
Object
100
AcDbLine
 10
3.657
 20
9.317900948305439
 30
0.0
 11
3.625
 21
9.31590094830544
 31
0.0
  0
LINE
  5
645
330
18
100
AcDbEntity
  8
Object
100
AcDbLine
 10
3.625
 20
9.31590094830544
 30
0.0
 11
3.600999999999999
 21
9.314900948305439
 31
0.0
  0
LINE
  5
646
330
18
100
AcDbEntity
  8
Object
100
AcDbLine
 10
3.600999999999999
 20
9.314900948305439
 30
0.0
 11
3.576999999999999
 21
9.31290094830544
 31
0.0
  0
LINE
  5
647
330
18
100
AcDbEntity
  8
Object
100
AcDbLine
 10
3.576999999999999
 20
9.31290094830544
 30
0.0
 11
3.556
 21
9.311900948305439
 31
0.0
  0
LINE
  5
648
330
18
100
AcDbEntity
  8
Object
100
AcDbLine
 10
3.536999999999999
 20
9.30990094830544
 30
0.0
 11
3.521
 21
9.307900948305439
 31
0.0
  0
LINE
  5
649
330
18
100
AcDbEntity
  8
Object
100
AcDbLine
 10
3.521
 20
9.307900948305439
 30
0.0
 11
3.509999999999999
 21
9.30690094830544
 31
0.0
  0
LINE
  5
64A
330
18
100
AcDbEntity
  8
Object
100
AcDbLine
 10
3.509999999999999
 20
9.30690094830544
 30
0.0
 11
3.506999999999999
 21
9.305900948305438
 31
0.0
  0
LINE
  5
64B
330
18
100
AcDbEntity
  8
Object
100
AcDbLine
 10
3.724999999999999
 20
9.305900948305438
 30
0.0
 11
3.724999999999999
 21
9.31290094830544
 31
0.0
  0
LINE
  5
64C
330
18
100
AcDbEntity
  8
Object
100
AcDbLine
 10
3.603999999999999
 20
9.31990094830544
 30
0.0
 11
3.625
 21
9.31990094830544
 31
0.0
  0
LINE
  5
64D
330
18
100
AcDbEntity
  8
Object
100
AcDbLine
 10
3.625
 20
9.31990094830544
 30
0.0
 11
3.625
 21
9.31590094830544
 31
0.0
  0
LINE
  5
64E
330
18
100
AcDbEntity
  8
Object
100
AcDbLine
 10
3.603999999999999
 20
9.31990094830544
 30
0.0
 11
3.583999999999999
 21
9.31990094830544
 31
0.0
  0
LINE
  5
64F
330
18
100
AcDbEntity
  8
Object
100
AcDbLine
 10
3.583999999999999
 20
9.31990094830544
 30
0.0
 11
3.564
 21
9.31990094830544
 31
0.0
  0
LINE
  5
650
330
18
100
AcDbEntity
  8
Object
100
AcDbLine
 10
3.536999999999999
 20
9.30990094830544
 30
0.0
 11
3.556
 21
9.311900948305439
 31
0.0
  0
LINE
  5
651
330
18
100
AcDbEntity
  8
Object
100
AcDbLine
 10
3.5
 20
9.31290094830544
 30
0.0
 11
3.5
 21
9.305900948305438
 31
0.0
  0
LINE
  5
652
330
18
100
AcDbEntity
  8
Object
100
AcDbLine
 10
3.736
 20
9.31990094830544
 30
0.0
 11
3.730999999999999
 21
9.31990094830544
 31
0.0
  0
LINE
  5
653
330
18
100
AcDbEntity
  8
Object
100
AcDbLine
 10
3.730999999999999
 20
9.31990094830544
 30
0.0
 11
3.721
 21
9.31990094830544
 31
0.0
  0
LINE
  5
654
330
18
100
AcDbEntity
  8
Object
100
AcDbLine
 10
3.721
 20
9.31990094830544
 30
0.0
 11
3.705
 21
9.31990094830544
 31
0.0
  0
LINE
  5
655
330
18
100
AcDbEntity
  8
Object
100
AcDbLine
 10
3.705
 20
9.31990094830544
 30
0.0
 11
3.685999999999999
 21
9.31990094830544
 31
0.0
  0
LINE
  5
656
330
18
100
AcDbEntity
  8
Object
100
AcDbLine
 10
3.685999999999999
 20
9.31990094830544
 30
0.0
 11
3.666999999999999
 21
9.31990094830544
 31
0.0
  0
LINE
  5
657
330
18
100
AcDbEntity
  8
Object
100
AcDbLine
 10
3.666999999999999
 20
9.31990094830544
 30
0.0
 11
3.646
 21
9.31990094830544
 31
0.0
  0
LINE
  5
658
330
18
100
AcDbEntity
  8
Object
100
AcDbLine
 10
3.646
 20
9.31990094830544
 30
0.0
 11
3.625
 21
9.31990094830544
 31
0.0
  0
LINE
  5
659
330
18
100
AcDbEntity
  8
Object
100
AcDbLine
 10
3.625
 20
9.31990094830544
 30
0.0
 11
3.603999999999999
 21
9.31990094830544
 31
0.0
  0
LINE
  5
65A
330
18
100
AcDbEntity
  8
Object
100
AcDbLine
 10
3.603999999999999
 20
9.31990094830544
 30
0.0
 11
3.583999999999999
 21
9.31990094830544
 31
0.0
  0
LINE
  5
65B
330
18
100
AcDbEntity
  8
Object
100
AcDbLine
 10
3.583999999999999
 20
9.31990094830544
 30
0.0
 11
3.564
 21
9.31990094830544
 31
0.0
  0
LINE
  5
65C
330
18
100
AcDbEntity
  8
Object
100
AcDbLine
 10
3.564
 20
9.31990094830544
 30
0.0
 11
3.544999999999999
 21
9.31990094830544
 31
0.0
  0
LINE
  5
65D
330
18
100
AcDbEntity
  8
Object
100
AcDbLine
 10
3.544999999999999
 20
9.31990094830544
 30
0.0
 11
3.530000000000001
 21
9.31990094830544
 31
0.0
  0
LINE
  5
65E
330
18
100
AcDbEntity
  8
Object
100
AcDbLine
 10
3.530000000000001
 20
9.31990094830544
 30
0.0
 11
3.519
 21
9.31990094830544
 31
0.0
  0
LINE
  5
65F
330
18
100
AcDbEntity
  8
Object
100
AcDbLine
 10
3.519
 20
9.31990094830544
 30
0.0
 11
3.513999999999999
 21
9.31990094830544
 31
0.0
  0
LINE
  5
660
330
18
100
AcDbEntity
  8
Object
100
AcDbLine
 10
3.685999999999999
 20
9.31990094830544
 30
0.0
 11
3.666999999999999
 21
9.31990094830544
 31
0.0
  0
LINE
  5
661
330
18
100
AcDbEntity
  8
Object
100
AcDbLine
 10
3.666999999999999
 20
9.31990094830544
 30
0.0
 11
3.646
 21
9.31990094830544
 31
0.0
  0
LINE
  5
662
330
18
100
AcDbEntity
  8
Object
100
AcDbLine
 10
3.646
 20
9.31990094830544
 30
0.0
 11
3.625
 21
9.31990094830544
 31
0.0
  0
LINE
  5
663
330
18
100
AcDbEntity
  8
Object
100
AcDbLine
 10
11.021
 20
9.135900948305438
 30
0.0
 11
11.015
 21
9.135900948305438
 31
0.0
  0
LINE
  5
664
330
18
100
AcDbEntity
  8
Object
100
AcDbLine
 10
11.015
 20
9.135900948305438
 30
0.0
 11
10.997
 21
9.135900948305438
 31
0.0
  0
LINE
  5
665
330
18
100
AcDbEntity
  8
Object
100
AcDbLine
 10
10.997
 20
9.135900948305438
 30
0.0
 11
10.969
 21
9.135900948305438
 31
0.0
  0
LINE
  5
666
330
18
100
AcDbEntity
  8
Object
100
AcDbLine
 10
10.969
 20
9.135900948305438
 30
0.0
 11
10.935
 21
9.135900948305438
 31
0.0
  0
LINE
  5
667
330
18
100
AcDbEntity
  8
Object
100
AcDbLine
 10
10.935
 20
9.135900948305438
 30
0.0
 11
10.896
 21
9.135900948305438
 31
0.0
  0
LINE
  5
668
330
18
100
AcDbEntity
  8
Object
100
AcDbLine
 10
10.896
 20
9.135900948305438
 30
0.0
 11
10.389
 21
9.135900948305438
 31
0.0
  0
LINE
  5
669
330
18
100
AcDbEntity
  8
Object
100
AcDbLine
 10
11.021
 20
9.060900948305439
 30
0.0
 11
11.021
 21
9.135900948305438
 31
0.0
  0
LINE
  5
66A
330
18
100
AcDbEntity
  8
Object
100
AcDbLine
 10
11.021
 20
9.135900948305438
 30
0.0
 11
11.015
 21
9.135900948305438
 31
0.0
  0
LINE
  5
66B
330
18
100
AcDbEntity
  8
Object
100
AcDbLine
 10
11.021
 20
9.060900948305439
 30
0.0
 11
11.021
 21
9.135900948305438
 31
0.0
  0
LINE
  5
66C
330
18
100
AcDbEntity
  8
Object
100
AcDbLine
 10
11.015
 20
9.135900948305438
 30
0.0
 11
10.997
 21
9.135900948305438
 31
0.0
  0
LINE
  5
66D
330
18
100
AcDbEntity
  8
Object
100
AcDbLine
 10
10.997
 20
9.135900948305438
 30
0.0
 11
10.969
 21
9.135900948305438
 31
0.0
  0
LINE
  5
66E
330
18
100
AcDbEntity
  8
Object
100
AcDbLine
 10
10.969
 20
9.135900948305438
 30
0.0
 11
10.935
 21
9.135900948305438
 31
0.0
  0
LINE
  5
66F
330
18
100
AcDbEntity
  8
Object
100
AcDbLine
 10
10.935
 20
9.135900948305438
 30
0.0
 11
10.896
 21
9.135900948305438
 31
0.0
  0
LINE
  5
670
330
18
100
AcDbEntity
  8
Object
100
AcDbLine
 10
10.389
 20
9.135900948305438
 30
0.0
 11
10.382
 21
9.137900948305439
 31
0.0
  0
LINE
  5
671
330
18
100
AcDbEntity
  8
Object
100
AcDbLine
 10
10.382
 20
9.137900948305439
 30
0.0
 11
10.376
 21
9.14290094830544
 31
0.0
  0
LINE
  5
672
330
18
100
AcDbEntity
  8
Object
100
AcDbLine
 10
10.376
 20
9.14290094830544
 30
0.0
 11
10.374
 21
9.150900948305439
 31
0.0
  0
LINE
  5
673
330
18
100
AcDbEntity
  8
Object
100
AcDbLine
 10
10.389
 20
9.135900948305438
 30
0.0
 11
10.896
 21
9.135900948305438
 31
0.0
  0
LINE
  5
674
330
18
100
AcDbEntity
  8
Object
100
AcDbLine
 10
10.896
 20
9.135900948305438
 30
0.0
 11
10.896
 21
9.060900948305439
 31
0.0
  0
LINE
  5
675
330
18
100
AcDbEntity
  8
Object
100
AcDbLine
 10
10.356
 20
9.067900948305439
 30
0.0
 11
10.389
 21
9.060900948305439
 31
0.0
  0
LINE
  5
676
330
18
100
AcDbEntity
  8
Object
100
AcDbLine
 10
10.389
 20
9.135900948305438
 30
0.0
 11
10.382
 21
9.137900948305439
 31
0.0
  0
LINE
  5
677
330
18
100
AcDbEntity
  8
Object
100
AcDbLine
 10
10.382
 20
9.137900948305439
 30
0.0
 11
10.376
 21
9.14290094830544
 31
0.0
  0
LINE
  5
678
330
18
100
AcDbEntity
  8
Object
100
AcDbLine
 10
10.327
 20
9.08590094830544
 30
0.0
 11
10.356
 21
9.067900948305439
 31
0.0
  0
LINE
  5
679
330
18
100
AcDbEntity
  8
Object
100
AcDbLine
 10
10.376
 20
9.14290094830544
 30
0.0
 11
10.374
 21
9.150900948305439
 31
0.0
  0
LINE
  5
67A
330
18
100
AcDbEntity
  8
Object
100
AcDbLine
 10
10.307
 20
9.11390094830544
 30
0.0
 11
10.327
 21
9.08590094830544
 31
0.0
  0
LINE
  5
67B
330
18
100
AcDbEntity
  8
Object
100
AcDbLine
 10
10.374
 20
9.150900948305439
 30
0.0
 11
10.367
 21
9.18190094830544
 31
0.0
  0
LINE
  5
67C
330
18
100
AcDbEntity
  8
Object
100
AcDbLine
 10
10.307
 20
9.11390094830544
 30
0.0
 11
10.299
 21
9.146900948305439
 31
0.0
  0
LINE
  5
67D
330
18
100
AcDbEntity
  8
Object
100
AcDbLine
 10
10.299
 20
9.146900948305439
 30
0.0
 11
10.297
 21
9.153900948305439
 31
0.0
  0
LINE
  5
67E
330
18
100
AcDbEntity
  8
Object
100
AcDbLine
 10
10.367
 20
9.18190094830544
 30
0.0
 11
10.35
 21
9.207900948305439
 31
0.0
  0
LINE
  5
67F
330
18
100
AcDbEntity
  8
Object
100
AcDbLine
 10
10.35
 20
9.207900948305439
 30
0.0
 11
10.324
 21
9.22690094830544
 31
0.0
  0
LINE
  5
680
330
18
100
AcDbEntity
  8
Object
100
AcDbLine
 10
10.297
 20
9.153900948305439
 30
0.0
 11
10.292
 21
9.15890094830544
 31
0.0
  0
LINE
  5
681
330
18
100
AcDbEntity
  8
Object
100
AcDbLine
 10
10.292
 20
9.15890094830544
 30
0.0
 11
10.286
 21
9.160900948305439
 31
0.0
  0
LINE
  5
682
330
18
100
AcDbEntity
  8
Object
100
AcDbLine
 10
10.324
 20
9.22690094830544
 30
0.0
 11
10.294
 21
9.23590094830544
 31
0.0
  0
LINE
  5
683
330
18
100
AcDbEntity
  8
Object
100
AcDbLine
 10
10.122
 20
9.17890094830544
 30
0.0
 11
10.286
 21
9.160900948305439
 31
0.0
  0
LINE
  5
684
330
18
100
AcDbEntity
  8
Object
100
AcDbLine
 10
10.294
 20
9.23590094830544
 30
0.0
 11
10.129
 21
9.252900948305439
 31
0.0
  0
LINE
  5
685
330
18
100
AcDbEntity
  8
Object
100
AcDbLine
 10
10.389
 20
9.060900948305439
 30
0.0
 11
10.356
 21
9.067900948305439
 31
0.0
  0
LINE
  5
686
330
18
100
AcDbEntity
  8
Object
100
AcDbLine
 10
10.356
 20
9.067900948305439
 30
0.0
 11
10.327
 21
9.08590094830544
 31
0.0
  0
LINE
  5
687
330
18
100
AcDbEntity
  8
Object
100
AcDbLine
 10
10.327
 20
9.08590094830544
 30
0.0
 11
10.307
 21
9.11390094830544
 31
0.0
  0
LINE
  5
688
330
18
100
AcDbEntity
  8
Object
100
AcDbLine
 10
10.307
 20
9.11390094830544
 30
0.0
 11
10.299
 21
9.146900948305439
 31
0.0
  0
LINE
  5
689
330
18
100
AcDbEntity
  8
Object
100
AcDbLine
 10
10.374
 20
9.150900948305439
 30
0.0
 11
10.367
 21
9.18190094830544
 31
0.0
  0
LINE
  5
68A
330
18
100
AcDbEntity
  8
Object
100
AcDbLine
 10
10.367
 20
9.18190094830544
 30
0.0
 11
10.35
 21
9.207900948305439
 31
0.0
  0
LINE
  5
68B
330
18
100
AcDbEntity
  8
Object
100
AcDbLine
 10
10.35
 20
9.207900948305439
 30
0.0
 11
10.324
 21
9.22690094830544
 31
0.0
  0
LINE
  5
68C
330
18
100
AcDbEntity
  8
Object
100
AcDbLine
 10
10.324
 20
9.22690094830544
 30
0.0
 11
10.294
 21
9.23590094830544
 31
0.0
  0
LINE
  5
68D
330
18
100
AcDbEntity
  8
Object
100
AcDbLine
 10
10.299
 20
9.146900948305439
 30
0.0
 11
10.297
 21
9.153900948305439
 31
0.0
  0
LINE
  5
68E
330
18
100
AcDbEntity
  8
Object
100
AcDbLine
 10
10.297
 20
9.153900948305439
 30
0.0
 11
10.292
 21
9.15890094830544
 31
0.0
  0
LINE
  5
68F
330
18
100
AcDbEntity
  8
Object
100
AcDbLine
 10
10.292
 20
9.15890094830544
 30
0.0
 11
10.286
 21
9.160900948305439
 31
0.0
  0
LINE
  5
690
330
18
100
AcDbEntity
  8
Object
100
AcDbLine
 10
10.294
 20
9.23590094830544
 30
0.0
 11
10.129
 21
9.252900948305439
 31
0.0
  0
LINE
  5
691
330
18
100
AcDbEntity
  8
Object
100
AcDbLine
 10
10.129
 20
9.252900948305439
 30
0.0
 11
10.109
 21
9.25490094830544
 31
0.0
  0
LINE
  5
692
330
18
100
AcDbEntity
  8
Object
100
AcDbLine
 10
10.109
 20
9.25490094830544
 30
0.0
 11
10.095
 21
9.256900948305439
 31
0.0
  0
LINE
  5
693
330
18
100
AcDbEntity
  8
Object
100
AcDbLine
 10
10.095
 20
9.256900948305439
 30
0.0
 11
10.09
 21
9.256900948305439
 31
0.0
  0
LINE
  5
694
330
18
100
AcDbEntity
  8
Object
100
AcDbLine
 10
10.109
 20
9.25490094830544
 30
0.0
 11
10.129
 21
9.252900948305439
 31
0.0
  0
LINE
  5
695
330
18
100
AcDbEntity
  8
Object
100
AcDbLine
 10
10.129
 20
9.252900948305439
 30
0.0
 11
10.122
 21
9.17890094830544
 31
0.0
  0
LINE
  5
696
330
18
100
AcDbEntity
  8
Object
100
AcDbLine
 10
10.122
 20
9.17890094830544
 30
0.0
 11
10.102
 21
9.180900948305438
 31
0.0
  0
LINE
  5
697
330
18
100
AcDbEntity
  8
Object
100
AcDbLine
 10
10.109
 20
9.25490094830544
 30
0.0
 11
10.095
 21
9.256900948305439
 31
0.0
  0
LINE
  5
698
330
18
100
AcDbEntity
  8
Object
100
AcDbLine
 10
10.087
 20
9.18190094830544
 30
0.0
 11
10.102
 21
9.180900948305438
 31
0.0
  0
LINE
  5
699
330
18
100
AcDbEntity
  8
Object
100
AcDbLine
 10
10.095
 20
9.256900948305439
 30
0.0
 11
10.09
 21
9.256900948305439
 31
0.0
  0
LINE
  5
69A
330
18
100
AcDbEntity
  8
Object
100
AcDbLine
 10
10.087
 20
9.18190094830544
 30
0.0
 11
10.082
 21
9.182900948305439
 31
0.0
  0
LINE
  5
69B
330
18
100
AcDbEntity
  8
Object
100
AcDbLine
 10
10.082
 20
9.182900948305439
 30
0.0
 11
10.09
 21
9.256900948305439
 31
0.0
  0
LINE
  5
69C
330
18
100
AcDbEntity
  8
Object
100
AcDbLine
 10
10.286
 20
9.160900948305439
 30
0.0
 11
10.122
 21
9.17890094830544
 31
0.0
  0
LINE
  5
69D
330
18
100
AcDbEntity
  8
Object
100
AcDbLine
 10
10.122
 20
9.17890094830544
 30
0.0
 11
10.102
 21
9.180900948305438
 31
0.0
  0
LINE
  5
69E
330
18
100
AcDbEntity
  8
Object
100
AcDbLine
 10
10.102
 20
9.180900948305438
 30
0.0
 11
10.087
 21
9.18190094830544
 31
0.0
  0
LINE
  5
69F
330
18
100
AcDbEntity
  8
Object
100
AcDbLine
 10
10.087
 20
9.18190094830544
 30
0.0
 11
10.082
 21
9.182900948305439
 31
0.0
  0
LINE
  5
6A0
330
18
100
AcDbEntity
  8
Object
100
AcDbLine
 10
10.127
 20
8.881900948305439
 30
0.0
 11
10.09
 21
8.843900948305439
 31
0.0
  0
LINE
  5
6A1
330
18
100
AcDbEntity
  8
Object
100
AcDbLine
 10
10.329
 20
9.083900948305439
 30
0.0
 11
10.306
 21
9.060900948305439
 31
0.0
  0
LINE
  5
6A2
330
18
100
AcDbEntity
  8
Object
100
AcDbLine
 10
10.09
 20
8.843900948305439
 30
0.0
 11
10.079
 21
8.832900948305439
 31
0.0
  0
LINE
  5
6A3
330
18
100
AcDbEntity
  8
Object
100
AcDbLine
 10
10.079
 20
8.832900948305439
 30
0.0
 11
10.071
 21
8.825900948305438
 31
0.0
  0
LINE
  5
6A4
330
18
100
AcDbEntity
  8
Object
100
AcDbLine
 10
10.071
 20
8.825900948305438
 30
0.0
 11
10.068
 21
8.82290094830544
 31
0.0
  0
LINE
  5
6A5
330
18
100
AcDbEntity
  8
Object
100
AcDbLine
 10
10.233
 20
8.881900948305439
 30
0.0
 11
10.143
 21
8.79090094830544
 31
0.0
  0
LINE
  5
6A6
330
18
100
AcDbEntity
  8
Object
100
AcDbLine
 10
10.143
 20
8.79090094830544
 30
0.0
 11
10.132
 21
8.779900948305439
 31
0.0
  0
LINE
  5
6A7
330
18
100
AcDbEntity
  8
Object
100
AcDbLine
 10
10.132
 20
8.779900948305439
 30
0.0
 11
10.124
 21
8.772900948305439
 31
0.0
  0
LINE
  5
6A8
330
18
100
AcDbEntity
  8
Object
100
AcDbLine
 10
10.124
 20
8.772900948305439
 30
0.0
 11
10.121
 21
8.769900948305439
 31
0.0
  0
LINE
  5
6A9
330
18
100
AcDbEntity
  8
Object
100
AcDbLine
 10
10.143
 20
8.79090094830544
 30
0.0
 11
10.233
 21
8.881900948305439
 31
0.0
  0
LINE
  5
6AA
330
18
100
AcDbEntity
  8
Object
100
AcDbLine
 10
10.127
 20
8.881900948305439
 30
0.0
 11
10.09
 21
8.843900948305439
 31
0.0
  0
LINE
  5
6AB
330
18
100
AcDbEntity
  8
Object
100
AcDbLine
 10
10.329
 20
9.083900948305439
 30
0.0
 11
10.306
 21
9.060900948305439
 31
0.0
  0
LINE
  5
6AC
330
18
100
AcDbEntity
  8
Object
100
AcDbLine
 10
10.09
 20
9.256900948305439
 30
0.0
 11
10.082
 21
9.182900948305439
 31
0.0
  0
LINE
  5
6AD
330
18
100
AcDbEntity
  8
Object
100
AcDbLine
 10
10.068
 20
8.82290094830544
 30
0.0
 11
10.121
 21
8.769900948305439
 31
0.0
  0
LINE
  5
6AE
330
18
100
AcDbEntity
  8
Object
100
AcDbLine
 10
10.132
 20
8.779900948305439
 30
0.0
 11
10.143
 21
8.79090094830544
 31
0.0
  0
LINE
  5
6AF
330
18
100
AcDbEntity
  8
Object
100
AcDbLine
 10
10.079
 20
8.832900948305439
 30
0.0
 11
10.09
 21
8.843900948305439
 31
0.0
  0
LINE
  5
6B0
330
18
100
AcDbEntity
  8
Object
100
AcDbLine
 10
10.09
 20
8.843900948305439
 30
0.0
 11
10.143
 21
8.79090094830544
 31
0.0
  0
LINE
  5
6B1
330
18
100
AcDbEntity
  8
Object
100
AcDbLine
 10
10.079
 20
8.832900948305439
 30
0.0
 11
10.071
 21
8.825900948305438
 31
0.0
  0
LINE
  5
6B2
330
18
100
AcDbEntity
  8
Object
100
AcDbLine
 10
10.132
 20
8.779900948305439
 30
0.0
 11
10.124
 21
8.772900948305439
 31
0.0
  0
LINE
  5
6B3
330
18
100
AcDbEntity
  8
Object
100
AcDbLine
 10
10.124
 20
8.772900948305439
 30
0.0
 11
10.121
 21
8.769900948305439
 31
0.0
  0
LINE
  5
6B4
330
18
100
AcDbEntity
  8
Object
100
AcDbLine
 10
10.121
 20
8.769900948305439
 30
0.0
 11
10.068
 21
8.82290094830544
 31
0.0
  0
LINE
  5
6B5
330
18
100
AcDbEntity
  8
Object
100
AcDbLine
 10
10.068
 20
8.82290094830544
 30
0.0
 11
10.071
 21
8.825900948305438
 31
0.0
  0
LINE
  5
6B6
330
18
100
AcDbEntity
  8
Object
100
AcDbLine
 10
10.715
 20
8.81990094830544
 30
0.0
 11
10.715
 21
8.881900948305439
 31
0.0
  0
LINE
  5
6B7
330
18
100
AcDbEntity
  8
Object
100
AcDbLine
 10
10.963
 20
8.81990094830544
 30
0.0
 11
10.95
 21
8.81990094830544
 31
0.0
  0
LINE
  5
6B8
330
18
100
AcDbEntity
  8
Object
100
AcDbLine
 10
10.95
 20
8.81990094830544
 30
0.0
 11
10.923
 21
8.81990094830544
 31
0.0
  0
LINE
  5
6B9
330
18
100
AcDbEntity
  8
Object
100
AcDbLine
 10
10.923
 20
8.81990094830544
 30
0.0
 11
10.885
 21
8.81990094830544
 31
0.0
  0
LINE
  5
6BA
330
18
100
AcDbEntity
  8
Object
100
AcDbLine
 10
10.885
 20
8.81990094830544
 30
0.0
 11
10.837
 21
8.81990094830544
 31
0.0
  0
LINE
  5
6BB
330
18
100
AcDbEntity
  8
Object
100
AcDbLine
 10
10.837
 20
8.81990094830544
 30
0.0
 11
10.783
 21
8.81990094830544
 31
0.0
  0
LINE
  5
6BC
330
18
100
AcDbEntity
  8
Object
100
AcDbLine
 10
10.783
 20
8.81990094830544
 30
0.0
 11
10.725
 21
8.81990094830544
 31
0.0
  0
LINE
  5
6BD
330
18
100
AcDbEntity
  8
Object
100
AcDbLine
 10
10.715
 20
8.81990094830544
 30
0.0
 11
10.657
 21
8.81990094830544
 31
0.0
  0
LINE
  5
6BE
330
18
100
AcDbEntity
  8
Object
100
AcDbLine
 10
10.657
 20
8.81990094830544
 30
0.0
 11
10.603
 21
8.81990094830544
 31
0.0
  0
LINE
  5
6BF
330
18
100
AcDbEntity
  8
Object
100
AcDbLine
 10
10.603
 20
8.81990094830544
 30
0.0
 11
10.555
 21
8.81990094830544
 31
0.0
  0
LINE
  5
6C0
330
18
100
AcDbEntity
  8
Object
100
AcDbLine
 10
10.555
 20
8.81990094830544
 30
0.0
 11
10.517
 21
8.81990094830544
 31
0.0
  0
LINE
  5
6C1
330
18
100
AcDbEntity
  8
Object
100
AcDbLine
 10
10.517
 20
8.81990094830544
 30
0.0
 11
10.49
 21
8.81990094830544
 31
0.0
  0
LINE
  5
6C2
330
18
100
AcDbEntity
  8
Object
100
AcDbLine
 10
10.49
 20
8.81990094830544
 30
0.0
 11
10.477
 21
8.81990094830544
 31
0.0
  0
LINE
  5
6C3
330
18
100
AcDbEntity
  8
Object
100
AcDbLine
 10
10.657
 20
8.81990094830544
 30
0.0
 11
10.715
 21
8.81990094830544
 31
0.0
  0
LINE
  5
6C4
330
18
100
AcDbEntity
  8
Object
100
AcDbLine
 10
10.715
 20
8.81990094830544
 30
0.0
 11
10.715
 21
8.881900948305439
 31
0.0
  0
LINE
  5
6C5
330
18
100
AcDbEntity
  8
Object
100
AcDbLine
 10
10.657
 20
8.81990094830544
 30
0.0
 11
10.603
 21
8.81990094830544
 31
0.0
  0
LINE
  5
6C6
330
18
100
AcDbEntity
  8
Object
100
AcDbLine
 10
10.603
 20
8.81990094830544
 30
0.0
 11
10.555
 21
8.81990094830544
 31
0.0
  0
LINE
  5
6C7
330
18
100
AcDbEntity
  8
Object
100
AcDbLine
 10
10.555
 20
8.81990094830544
 30
0.0
 11
10.517
 21
8.81990094830544
 31
0.0
  0
LINE
  5
6C8
330
18
100
AcDbEntity
  8
Object
100
AcDbLine
 10
10.517
 20
8.81990094830544
 30
0.0
 11
10.49
 21
8.81990094830544
 31
0.0
  0
LINE
  5
6C9
330
18
100
AcDbEntity
  8
Object
100
AcDbLine
 10
10.49
 20
8.81990094830544
 30
0.0
 11
10.477
 21
8.81990094830544
 31
0.0
  0
LINE
  5
6CA
330
18
100
AcDbEntity
  8
Object
100
AcDbLine
 10
10.477
 20
8.81990094830544
 30
0.0
 11
10.477
 21
8.881900948305439
 31
0.0
  0
LINE
  5
6CB
330
18
100
AcDbEntity
  8
Object
100
AcDbLine
 10
10.963
 20
8.881900948305439
 30
0.0
 11
10.963
 21
8.81990094830544
 31
0.0
  0
LINE
  5
6CC
330
18
100
AcDbEntity
  8
Object
100
AcDbLine
 10
10.963
 20
8.81990094830544
 30
0.0
 11
10.95
 21
8.81990094830544
 31
0.0
  0
LINE
  5
6CD
330
18
100
AcDbEntity
  8
Object
100
AcDbLine
 10
10.95
 20
8.81990094830544
 30
0.0
 11
10.923
 21
8.81990094830544
 31
0.0
  0
LINE
  5
6CE
330
18
100
AcDbEntity
  8
Object
100
AcDbLine
 10
10.923
 20
8.81990094830544
 30
0.0
 11
10.885
 21
8.81990094830544
 31
0.0
  0
LINE
  5
6CF
330
18
100
AcDbEntity
  8
Object
100
AcDbLine
 10
10.885
 20
8.81990094830544
 30
0.0
 11
10.837
 21
8.81990094830544
 31
0.0
  0
LINE
  5
6D0
330
18
100
AcDbEntity
  8
Object
100
AcDbLine
 10
10.837
 20
8.81990094830544
 30
0.0
 11
10.783
 21
8.81990094830544
 31
0.0
  0
LINE
  5
6D1
330
18
100
AcDbEntity
  8
Object
100
AcDbLine
 10
10.783
 20
8.81990094830544
 30
0.0
 11
10.725
 21
8.81990094830544
 31
0.0
  0
LINE
  5
6D2
330
18
100
AcDbEntity
  8
Object
100
AcDbLine
 10
10.725
 20
8.81990094830544
 30
0.0
 11
10.725
 21
8.881900948305439
 31
0.0
  0
LINE
  5
6D3
330
18
100
AcDbEntity
  8
Object
100
AcDbLine
 10
10.725
 20
8.881900948305439
 30
0.0
 11
10.725
 21
8.81990094830544
 31
0.0
  0
LINE
  5
6D4
330
18
100
AcDbEntity
  8
Object
100
AcDbLine
 10
10.93
 20
9.305900948305438
 30
0.0
 11
10.923
 21
9.305900948305438
 31
0.0
  0
LINE
  5
6D5
330
18
100
AcDbEntity
  8
Object
100
AcDbLine
 10
10.923
 20
9.305900948305438
 30
0.0
 11
10.902
 21
9.305900948305438
 31
0.0
  0
LINE
  5
6D6
330
18
100
AcDbEntity
  8
Object
100
AcDbLine
 10
10.902
 20
9.305900948305438
 30
0.0
 11
10.869
 21
9.305900948305438
 31
0.0
  0
LINE
  5
6D7
330
18
100
AcDbEntity
  8
Object
100
AcDbLine
 10
10.869
 20
9.305900948305438
 30
0.0
 11
10.825
 21
9.305900948305438
 31
0.0
  0
LINE
  5
6D8
330
18
100
AcDbEntity
  8
Object
100
AcDbLine
 10
10.825
 20
9.305900948305438
 30
0.0
 11
10.774
 21
9.305900948305438
 31
0.0
  0
LINE
  5
6D9
330
18
100
AcDbEntity
  8
Object
100
AcDbLine
 10
10.774
 20
9.305900948305438
 30
0.0
 11
10.72
 21
9.305900948305438
 31
0.0
  0
LINE
  5
6DA
330
18
100
AcDbEntity
  8
Object
100
AcDbLine
 10
10.72
 20
9.305900948305438
 30
0.0
 11
10.666
 21
9.305900948305438
 31
0.0
  0
LINE
  5
6DB
330
18
100
AcDbEntity
  8
Object
100
AcDbLine
 10
10.666
 20
9.305900948305438
 30
0.0
 11
10.615
 21
9.305900948305438
 31
0.0
  0
LINE
  5
6DC
330
18
100
AcDbEntity
  8
Object
100
AcDbLine
 10
10.601
 20
9.30690094830544
 30
0.0
 11
10.601
 21
9.305900948305438
 31
0.0
  0
LINE
  5
6DD
330
18
100
AcDbEntity
  8
Object
100
AcDbLine
 10
10.615
 20
9.305900948305438
 30
0.0
 11
10.572
 21
9.305900948305438
 31
0.0
  0
LINE
  5
6DE
330
18
100
AcDbEntity
  8
Object
100
AcDbLine
 10
10.572
 20
9.305900948305438
 30
0.0
 11
10.538
 21
9.305900948305438
 31
0.0
  0
LINE
  5
6DF
330
18
100
AcDbEntity
  8
Object
100
AcDbLine
 10
10.538
 20
9.305900948305438
 30
0.0
 11
10.517
 21
9.305900948305438
 31
0.0
  0
LINE
  5
6E0
330
18
100
AcDbEntity
  8
Object
100
AcDbLine
 10
10.517
 20
9.305900948305438
 30
0.0
 11
10.51
 21
9.305900948305438
 31
0.0
  0
LINE
  5
6E1
330
18
100
AcDbEntity
  8
Object
100
AcDbLine
 10
10.666
 20
9.305900948305438
 30
0.0
 11
10.72
 21
9.305900948305438
 31
0.0
  0
LINE
  5
6E2
330
18
100
AcDbEntity
  8
Object
100
AcDbLine
 10
10.72
 20
9.305900948305438
 30
0.0
 11
10.72
 21
9.295900948305439
 31
0.0
  0
LINE
  5
6E3
330
18
100
AcDbEntity
  8
Object
100
AcDbLine
 10
10.72
 20
9.295900948305439
 30
0.0
 11
10.663
 21
9.295900948305439
 31
0.0
  0
LINE
  5
6E4
330
18
100
AcDbEntity
  8
Object
100
AcDbLine
 10
10.666
 20
9.305900948305438
 30
0.0
 11
10.615
 21
9.305900948305438
 31
0.0
  0
LINE
  5
6E5
330
18
100
AcDbEntity
  8
Object
100
AcDbLine
 10
10.663
 20
9.295900948305439
 30
0.0
 11
10.61
 21
9.295900948305439
 31
0.0
  0
LINE
  5
6E6
330
18
100
AcDbEntity
  8
Object
100
AcDbLine
 10
10.61
 20
9.295900948305439
 30
0.0
 11
10.564
 21
9.295900948305439
 31
0.0
  0
LINE
  5
6E7
330
18
100
AcDbEntity
  8
Object
100
AcDbLine
 10
10.615
 20
9.305900948305438
 30
0.0
 11
10.572
 21
9.305900948305438
 31
0.0
  0
LINE
  5
6E8
330
18
100
AcDbEntity
  8
Object
100
AcDbLine
 10
10.572
 20
9.305900948305438
 30
0.0
 11
10.538
 21
9.305900948305438
 31
0.0
  0
LINE
  5
6E9
330
18
100
AcDbEntity
  8
Object
100
AcDbLine
 10
10.53
 20
9.295900948305439
 30
0.0
 11
10.564
 21
9.295900948305439
 31
0.0
  0
LINE
  5
6EA
330
18
100
AcDbEntity
  8
Object
100
AcDbLine
 10
10.538
 20
9.305900948305438
 30
0.0
 11
10.517
 21
9.305900948305438
 31
0.0
  0
LINE
  5
6EB
330
18
100
AcDbEntity
  8
Object
100
AcDbLine
 10
10.508
 20
9.295900948305439
 30
0.0
 11
10.53
 21
9.295900948305439
 31
0.0
  0
LINE
  5
6EC
330
18
100
AcDbEntity
  8
Object
100
AcDbLine
 10
10.517
 20
9.305900948305438
 30
0.0
 11
10.51
 21
9.305900948305438
 31
0.0
  0
LINE
  5
6ED
330
18
100
AcDbEntity
  8
Object
100
AcDbLine
 10
10.508
 20
9.295900948305439
 30
0.0
 11
10.5
 21
9.295900948305439
 31
0.0
  0
LINE
  5
6EE
330
18
100
AcDbEntity
  8
Object
100
AcDbLine
 10
10.5
 20
9.295900948305439
 30
0.0
 11
10.51
 21
9.305900948305438
 31
0.0
  0
LINE
  5
6EF
330
18
100
AcDbEntity
  8
Object
100
AcDbLine
 10
10.93
 20
9.305900948305438
 30
0.0
 11
10.94
 21
9.295900948305439
 31
0.0
  0
LINE
  5
6F0
330
18
100
AcDbEntity
  8
Object
100
AcDbLine
 10
10.94
 20
9.295900948305439
 30
0.0
 11
10.933
 21
9.295900948305439
 31
0.0
  0
LINE
  5
6F1
330
18
100
AcDbEntity
  8
Object
100
AcDbLine
 10
10.93
 20
9.305900948305438
 30
0.0
 11
10.923
 21
9.305900948305438
 31
0.0
  0
LINE
  5
6F2
330
18
100
AcDbEntity
  8
Object
100
AcDbLine
 10
10.911
 20
9.295900948305439
 30
0.0
 11
10.933
 21
9.295900948305439
 31
0.0
  0
LINE
  5
6F3
330
18
100
AcDbEntity
  8
Object
100
AcDbLine
 10
10.923
 20
9.305900948305438
 30
0.0
 11
10.902
 21
9.305900948305438
 31
0.0
  0
LINE
  5
6F4
330
18
100
AcDbEntity
  8
Object
100
AcDbLine
 10
10.902
 20
9.305900948305438
 30
0.0
 11
10.869
 21
9.305900948305438
 31
0.0
  0
LINE
  5
6F5
330
18
100
AcDbEntity
  8
Object
100
AcDbLine
 10
10.911
 20
9.295900948305439
 30
0.0
 11
10.876
 21
9.295900948305439
 31
0.0
  0
LINE
  5
6F6
330
18
100
AcDbEntity
  8
Object
100
AcDbLine
 10
10.876
 20
9.295900948305439
 30
0.0
 11
10.83
 21
9.295900948305439
 31
0.0
  0
LINE
  5
6F7
330
18
100
AcDbEntity
  8
Object
100
AcDbLine
 10
10.869
 20
9.305900948305438
 30
0.0
 11
10.825
 21
9.305900948305438
 31
0.0
  0
LINE
  5
6F8
330
18
100
AcDbEntity
  8
Object
100
AcDbLine
 10
10.825
 20
9.305900948305438
 30
0.0
 11
10.774
 21
9.305900948305438
 31
0.0
  0
LINE
  5
6F9
330
18
100
AcDbEntity
  8
Object
100
AcDbLine
 10
10.83
 20
9.295900948305439
 30
0.0
 11
10.777
 21
9.295900948305439
 31
0.0
  0
LINE
  5
6FA
330
18
100
AcDbEntity
  8
Object
100
AcDbLine
 10
10.777
 20
9.295900948305439
 30
0.0
 11
10.72
 21
9.295900948305439
 31
0.0
  0
LINE
  5
6FB
330
18
100
AcDbEntity
  8
Object
100
AcDbLine
 10
10.774
 20
9.305900948305438
 30
0.0
 11
10.72
 21
9.305900948305438
 31
0.0
  0
LINE
  5
6FC
330
18
100
AcDbEntity
  8
Object
100
AcDbLine
 10
10.72
 20
9.135900948305438
 30
0.0
 11
10.72
 21
9.295900948305439
 31
0.0
  0
LINE
  5
6FD
330
18
100
AcDbEntity
  8
Object
100
AcDbLine
 10
10.5
 20
9.295900948305439
 30
0.0
 11
10.5
 21
9.135900948305438
 31
0.0
  0
LINE
  5
6FE
330
18
100
AcDbEntity
  8
Object
100
AcDbLine
 10
10.94
 20
9.135900948305438
 30
0.0
 11
10.94
 21
9.295900948305439
 31
0.0
  0
LINE
  5
6FF
330
18
100
AcDbEntity
  8
Object
100
AcDbLine
 10
10.774
 20
8.662900948305439
 30
0.0
 11
10.83
 21
8.656900948305439
 31
0.0
  0
LINE
  5
700
330
18
100
AcDbEntity
  8
Object
100
AcDbLine
 10
10.83
 20
8.656900948305439
 30
0.0
 11
10.777
 21
8.656900948305439
 31
0.0
  0
LINE
  5
701
330
18
100
AcDbEntity
  8
Object
100
AcDbLine
 10
10.774
 20
8.662900948305439
 30
0.0
 11
10.72
 21
8.676900948305439
 31
0.0
  0
LINE
  5
702
330
18
100
AcDbEntity
  8
Object
100
AcDbLine
 10
10.72
 20
8.656900948305439
 30
0.0
 11
10.777
 21
8.656900948305439
 31
0.0
  0
LINE
  5
703
330
18
100
AcDbEntity
  8
Object
100
AcDbLine
 10
10.72
 20
8.676900948305439
 30
0.0
 11
10.666
 21
8.662900948305439
 31
0.0
  0
LINE
  5
704
330
18
100
AcDbEntity
  8
Object
100
AcDbLine
 10
10.72
 20
8.656900948305439
 30
0.0
 11
10.663
 21
8.656900948305439
 31
0.0
  0
LINE
  5
705
330
18
100
AcDbEntity
  8
Object
100
AcDbLine
 10
10.663
 20
8.656900948305439
 30
0.0
 11
10.611
 21
8.656900948305439
 31
0.0
  0
LINE
  5
706
330
18
100
AcDbEntity
  8
Object
100
AcDbLine
 10
10.611
 20
8.656900948305439
 30
0.0
 11
10.666
 21
8.662900948305439
 31
0.0
  0
LINE
  5
707
330
18
100
AcDbEntity
  8
Object
100
AcDbLine
 10
10.666
 20
8.814900948305439
 30
0.0
 11
10.72
 21
8.800900948305439
 31
0.0
  0
LINE
  5
708
330
18
100
AcDbEntity
  8
Object
100
AcDbLine
 10
10.72
 20
8.800900948305439
 30
0.0
 11
10.72
 21
8.676900948305439
 31
0.0
  0
LINE
  5
709
330
18
100
AcDbEntity
  8
Object
100
AcDbLine
 10
10.666
 20
8.814900948305439
 30
0.0
 11
10.611
 21
8.81990094830544
 31
0.0
  0
LINE
  5
70A
330
18
100
AcDbEntity
  8
Object
100
AcDbLine
 10
10.555
 20
8.662900948305439
 30
0.0
 11
10.611
 21
8.656900948305439
 31
0.0
  0
LINE
  5
70B
330
18
100
AcDbEntity
  8
Object
100
AcDbLine
 10
10.611
 20
8.81990094830544
 30
0.0
 11
10.555
 21
8.814900948305439
 31
0.0
  0
LINE
  5
70C
330
18
100
AcDbEntity
  8
Object
100
AcDbLine
 10
10.555
 20
8.814900948305439
 30
0.0
 11
10.501
 21
8.800900948305439
 31
0.0
  0
LINE
  5
70D
330
18
100
AcDbEntity
  8
Object
100
AcDbLine
 10
10.555
 20
8.662900948305439
 30
0.0
 11
10.501
 21
8.676900948305439
 31
0.0
  0
LINE
  5
70E
330
18
100
AcDbEntity
  8
Object
100
AcDbLine
 10
10.501
 20
8.676900948305439
 30
0.0
 11
10.501
 21
8.800900948305439
 31
0.0
  0
LINE
  5
70F
330
18
100
AcDbEntity
  8
Object
100
AcDbLine
 10
10.885
 20
8.814900948305439
 30
0.0
 11
10.939
 21
8.800900948305439
 31
0.0
  0
LINE
  5
710
330
18
100
AcDbEntity
  8
Object
100
AcDbLine
 10
10.939
 20
8.800900948305439
 30
0.0
 11
10.939
 21
8.676900948305439
 31
0.0
  0
LINE
  5
711
330
18
100
AcDbEntity
  8
Object
100
AcDbLine
 10
10.939
 20
8.676900948305439
 30
0.0
 11
10.885
 21
8.662900948305439
 31
0.0
  0
LINE
  5
712
330
18
100
AcDbEntity
  8
Object
100
AcDbLine
 10
10.885
 20
8.814900948305439
 30
0.0
 11
10.83
 21
8.81990094830544
 31
0.0
  0
LINE
  5
713
330
18
100
AcDbEntity
  8
Object
100
AcDbLine
 10
10.83
 20
8.656900948305439
 30
0.0
 11
10.885
 21
8.662900948305439
 31
0.0
  0
LINE
  5
714
330
18
100
AcDbEntity
  8
Object
100
AcDbLine
 10
10.83
 20
8.81990094830544
 30
0.0
 11
10.774
 21
8.814900948305439
 31
0.0
  0
LINE
  5
715
330
18
100
AcDbEntity
  8
Object
100
AcDbLine
 10
10.774
 20
8.814900948305439
 30
0.0
 11
10.72
 21
8.800900948305439
 31
0.0
  0
LINE
  5
716
330
18
100
AcDbEntity
  8
Object
100
AcDbLine
 10
10.939
 20
8.656900948305439
 30
0.0
 11
10.932
 21
8.656900948305439
 31
0.0
  0
LINE
  5
717
330
18
100
AcDbEntity
  8
Object
100
AcDbLine
 10
10.932
 20
8.656900948305439
 30
0.0
 11
10.91
 21
8.656900948305439
 31
0.0
  0
LINE
  5
718
330
18
100
AcDbEntity
  8
Object
100
AcDbLine
 10
10.91
 20
8.656900948305439
 30
0.0
 11
10.875
 21
8.656900948305439
 31
0.0
  0
LINE
  5
719
330
18
100
AcDbEntity
  8
Object
100
AcDbLine
 10
10.875
 20
8.656900948305439
 30
0.0
 11
10.83
 21
8.656900948305439
 31
0.0
  0
LINE
  5
71A
330
18
100
AcDbEntity
  8
Object
100
AcDbLine
 10
10.83
 20
8.656900948305439
 30
0.0
 11
10.777
 21
8.656900948305439
 31
0.0
  0
LINE
  5
71B
330
18
100
AcDbEntity
  8
Object
100
AcDbLine
 10
10.777
 20
8.656900948305439
 30
0.0
 11
10.72
 21
8.656900948305439
 31
0.0
  0
LINE
  5
71C
330
18
100
AcDbEntity
  8
Object
100
AcDbLine
 10
10.72
 20
8.656900948305439
 30
0.0
 11
10.663
 21
8.656900948305439
 31
0.0
  0
LINE
  5
71D
330
18
100
AcDbEntity
  8
Object
100
AcDbLine
 10
10.663
 20
8.656900948305439
 30
0.0
 11
10.611
 21
8.656900948305439
 31
0.0
  0
LINE
  5
71E
330
18
100
AcDbEntity
  8
Object
100
AcDbLine
 10
10.611
 20
8.656900948305439
 30
0.0
 11
10.565
 21
8.656900948305439
 31
0.0
  0
LINE
  5
71F
330
18
100
AcDbEntity
  8
Object
100
AcDbLine
 10
10.565
 20
8.656900948305439
 30
0.0
 11
10.53
 21
8.656900948305439
 31
0.0
  0
LINE
  5
720
330
18
100
AcDbEntity
  8
Object
100
AcDbLine
 10
10.53
 20
8.656900948305439
 30
0.0
 11
10.508
 21
8.656900948305439
 31
0.0
  0
LINE
  5
721
330
18
100
AcDbEntity
  8
Object
100
AcDbLine
 10
10.508
 20
8.656900948305439
 30
0.0
 11
10.501
 21
8.656900948305439
 31
0.0
  0
LINE
  5
722
330
18
100
AcDbEntity
  8
Object
100
AcDbLine
 10
10.501
 20
8.800900948305439
 30
0.0
 11
10.501
 21
8.814900948305439
 31
0.0
  0
LINE
  5
723
330
18
100
AcDbEntity
  8
Object
100
AcDbLine
 10
10.501
 20
8.814900948305439
 30
0.0
 11
10.501
 21
8.81990094830544
 31
0.0
  0
LINE
  5
724
330
18
100
AcDbEntity
  8
Object
100
AcDbLine
 10
10.501
 20
8.81990094830544
 30
0.0
 11
10.501
 21
8.814900948305439
 31
0.0
  0
LINE
  5
725
330
18
100
AcDbEntity
  8
Object
100
AcDbLine
 10
10.501
 20
8.676900948305439
 30
0.0
 11
10.501
 21
8.800900948305439
 31
0.0
  0
LINE
  5
726
330
18
100
AcDbEntity
  8
Object
100
AcDbLine
 10
10.501
 20
8.800900948305439
 30
0.0
 11
10.501
 21
8.814900948305439
 31
0.0
  0
LINE
  5
727
330
18
100
AcDbEntity
  8
Object
100
AcDbLine
 10
10.501
 20
8.676900948305439
 30
0.0
 11
10.501
 21
8.662900948305439
 31
0.0
  0
LINE
  5
728
330
18
100
AcDbEntity
  8
Object
100
AcDbLine
 10
10.501
 20
8.662900948305439
 30
0.0
 11
10.501
 21
8.656900948305439
 31
0.0
  0
LINE
  5
729
330
18
100
AcDbEntity
  8
Object
100
AcDbLine
 10
10.725
 20
8.81990094830544
 30
0.0
 11
10.72
 21
8.81990094830544
 31
0.0
  0
LINE
  5
72A
330
18
100
AcDbEntity
  8
Object
100
AcDbLine
 10
10.72
 20
8.81990094830544
 30
0.0
 11
10.715
 21
8.81990094830544
 31
0.0
  0
LINE
  5
72B
330
18
100
AcDbEntity
  8
Object
100
AcDbLine
 10
10.611
 20
8.656900948305439
 30
0.0
 11
10.565
 21
8.656900948305439
 31
0.0
  0
LINE
  5
72C
330
18
100
AcDbEntity
  8
Object
100
AcDbLine
 10
10.565
 20
8.656900948305439
 30
0.0
 11
10.53
 21
8.656900948305439
 31
0.0
  0
LINE
  5
72D
330
18
100
AcDbEntity
  8
Object
100
AcDbLine
 10
10.501
 20
8.676900948305439
 30
0.0
 11
10.501
 21
8.662900948305439
 31
0.0
  0
LINE
  5
72E
330
18
100
AcDbEntity
  8
Object
100
AcDbLine
 10
10.53
 20
8.656900948305439
 30
0.0
 11
10.508
 21
8.656900948305439
 31
0.0
  0
LINE
  5
72F
330
18
100
AcDbEntity
  8
Object
100
AcDbLine
 10
10.508
 20
8.656900948305439
 30
0.0
 11
10.501
 21
8.656900948305439
 31
0.0
  0
LINE
  5
730
330
18
100
AcDbEntity
  8
Object
100
AcDbLine
 10
10.501
 20
8.656900948305439
 30
0.0
 11
10.501
 21
8.662900948305439
 31
0.0
  0
LINE
  5
731
330
18
100
AcDbEntity
  8
Object
100
AcDbLine
 10
10.939
 20
8.656900948305439
 30
0.0
 11
10.939
 21
8.662900948305439
 31
0.0
  0
LINE
  5
732
330
18
100
AcDbEntity
  8
Object
100
AcDbLine
 10
10.939
 20
8.662900948305439
 30
0.0
 11
10.939
 21
8.676900948305439
 31
0.0
  0
LINE
  5
733
330
18
100
AcDbEntity
  8
Object
100
AcDbLine
 10
10.939
 20
8.676900948305439
 30
0.0
 11
10.939
 21
8.800900948305439
 31
0.0
  0
LINE
  5
734
330
18
100
AcDbEntity
  8
Object
100
AcDbLine
 10
10.939
 20
8.800900948305439
 30
0.0
 11
10.939
 21
8.814900948305439
 31
0.0
  0
LINE
  5
735
330
18
100
AcDbEntity
  8
Object
100
AcDbLine
 10
10.939
 20
8.814900948305439
 30
0.0
 11
10.939
 21
8.81990094830544
 31
0.0
  0
LINE
  5
736
330
18
100
AcDbEntity
  8
Object
100
AcDbLine
 10
10.939
 20
8.81990094830544
 30
0.0
 11
10.939
 21
8.814900948305439
 31
0.0
  0
LINE
  5
737
330
18
100
AcDbEntity
  8
Object
100
AcDbLine
 10
10.939
 20
8.814900948305439
 30
0.0
 11
10.939
 21
8.800900948305439
 31
0.0
  0
LINE
  5
738
330
18
100
AcDbEntity
  8
Object
100
AcDbLine
 10
10.932
 20
8.656900948305439
 30
0.0
 11
10.939
 21
8.656900948305439
 31
0.0
  0
LINE
  5
739
330
18
100
AcDbEntity
  8
Object
100
AcDbLine
 10
10.939
 20
8.656900948305439
 30
0.0
 11
10.939
 21
8.662900948305439
 31
0.0
  0
LINE
  5
73A
330
18
100
AcDbEntity
  8
Object
100
AcDbLine
 10
10.91
 20
8.656900948305439
 30
0.0
 11
10.932
 21
8.656900948305439
 31
0.0
  0
LINE
  5
73B
330
18
100
AcDbEntity
  8
Object
100
AcDbLine
 10
10.939
 20
8.662900948305439
 30
0.0
 11
10.939
 21
8.676900948305439
 31
0.0
  0
LINE
  5
73C
330
18
100
AcDbEntity
  8
Object
100
AcDbLine
 10
10.91
 20
8.656900948305439
 30
0.0
 11
10.875
 21
8.656900948305439
 31
0.0
  0
LINE
  5
73D
330
18
100
AcDbEntity
  8
Object
100
AcDbLine
 10
10.875
 20
8.656900948305439
 30
0.0
 11
10.83
 21
8.656900948305439
 31
0.0
  0
LINE
  5
73E
330
18
100
AcDbEntity
  8
Object
100
AcDbLine
 10
10.725
 20
8.81990094830544
 30
0.0
 11
10.72
 21
8.81990094830544
 31
0.0
  0
LINE
  5
73F
330
18
100
AcDbEntity
  8
Object
100
AcDbLine
 10
10.72
 20
8.81990094830544
 30
0.0
 11
10.715
 21
8.81990094830544
 31
0.0
  0
LINE
  5
740
330
18
100
AcDbEntity
  8
Object
100
AcDbLine
 10
10.715
 20
8.848900948305439
 30
0.0
 11
10.72
 21
8.848900948305439
 31
0.0
  0
LINE
  5
741
330
18
100
AcDbEntity
  8
Object
100
AcDbLine
 10
10.72
 20
8.848900948305439
 30
0.0
 11
10.72
 21
8.81990094830544
 31
0.0
  0
LINE
  5
742
330
18
100
AcDbEntity
  8
Object
100
AcDbLine
 10
10.725
 20
8.848900948305439
 30
0.0
 11
10.72
 21
8.848900948305439
 31
0.0
  0
LINE
  5
743
330
18
100
AcDbEntity
  8
Object
100
AcDbLine
 10
10.841
 20
9.30990094830544
 30
0.0
 11
10.845
 21
9.31290094830544
 31
0.0
  0
LINE
  5
744
330
18
100
AcDbEntity
  8
Object
100
AcDbLine
 10
10.83
 20
9.31990094830544
 30
0.0
 11
10.831
 21
9.31990094830544
 31
0.0
  0
LINE
  5
745
330
18
100
AcDbEntity
  8
Object
100
AcDbLine
 10
10.831
 20
9.31990094830544
 30
0.0
 11
10.845
 21
9.31290094830544
 31
0.0
  0
LINE
  5
746
330
18
100
AcDbEntity
  8
Object
100
AcDbLine
 10
10.83
 20
9.31990094830544
 30
0.0
 11
10.823
 21
9.31990094830544
 31
0.0
  0
LINE
  5
747
330
18
100
AcDbEntity
  8
Object
100
AcDbLine
 10
10.824
 20
9.30690094830544
 30
0.0
 11
10.841
 21
9.30990094830544
 31
0.0
  0
LINE
  5
748
330
18
100
AcDbEntity
  8
Object
100
AcDbLine
 10
10.823
 20
9.31990094830544
 30
0.0
 11
10.81
 21
9.31990094830544
 31
0.0
  0
LINE
  5
749
330
18
100
AcDbEntity
  8
Object
100
AcDbLine
 10
10.81
 20
9.31990094830544
 30
0.0
 11
10.792
 21
9.31990094830544
 31
0.0
  0
LINE
  5
74A
330
18
100
AcDbEntity
  8
Object
100
AcDbLine
 10
10.812
 20
9.305900948305438
 30
0.0
 11
10.824
 21
9.30690094830544
 31
0.0
  0
LINE
  5
74B
330
18
100
AcDbEntity
  8
Object
100
AcDbLine
 10
10.777
 20
9.31890094830544
 30
0.0
 11
10.759
 21
9.316900948305439
 31
0.0
  0
LINE
  5
74C
330
18
100
AcDbEntity
  8
Object
100
AcDbLine
 10
10.759
 20
9.316900948305439
 30
0.0
 11
10.74
 21
9.31590094830544
 31
0.0
  0
LINE
  5
74D
330
18
100
AcDbEntity
  8
Object
100
AcDbLine
 10
10.74
 20
9.31590094830544
 30
0.0
 11
10.72
 21
9.313900948305439
 31
0.0
  0
LINE
  5
74E
330
18
100
AcDbEntity
  8
Object
100
AcDbLine
 10
10.725
 20
8.863900948305438
 30
0.0
 11
10.72
 21
8.863900948305438
 31
0.0
  0
LINE
  5
74F
330
18
100
AcDbEntity
  8
Object
100
AcDbLine
 10
10.72
 20
9.313900948305439
 30
0.0
 11
10.682
 21
9.310900948305439
 31
0.0
  0
LINE
  5
750
330
18
100
AcDbEntity
  8
Object
100
AcDbLine
 10
10.72
 20
8.863900948305438
 30
0.0
 11
10.715
 21
8.862900948305439
 31
0.0
  0
LINE
  5
751
330
18
100
AcDbEntity
  8
Object
100
AcDbLine
 10
10.682
 20
9.310900948305439
 30
0.0
 11
10.649
 21
9.307900948305439
 31
0.0
  0
LINE
  5
752
330
18
100
AcDbEntity
  8
Object
100
AcDbLine
 10
10.649
 20
9.307900948305439
 30
0.0
 11
10.64
 21
9.305900948305438
 31
0.0
  0
LINE
  5
753
330
18
100
AcDbEntity
  8
Object
100
AcDbLine
 10
10.63
 20
9.31990094830544
 30
0.0
 11
10.648
 21
9.31990094830544
 31
0.0
  0
LINE
  5
754
330
18
100
AcDbEntity
  8
Object
100
AcDbLine
 10
10.648
 20
9.31990094830544
 30
0.0
 11
10.631
 21
9.317900948305439
 31
0.0
  0
LINE
  5
755
330
18
100
AcDbEntity
  8
Object
100
AcDbLine
 10
10.631
 20
9.317900948305439
 30
0.0
 11
10.622
 21
9.31590094830544
 31
0.0
  0
LINE
  5
756
330
18
100
AcDbEntity
  8
Object
100
AcDbLine
 10
10.63
 20
9.31990094830544
 30
0.0
 11
10.617
 21
9.31990094830544
 31
0.0
  0
LINE
  5
757
330
18
100
AcDbEntity
  8
Object
100
AcDbLine
 10
10.617
 20
9.31990094830544
 30
0.0
 11
10.61
 21
9.31990094830544
 31
0.0
  0
LINE
  5
758
330
18
100
AcDbEntity
  8
Object
100
AcDbLine
 10
10.622
 20
9.31590094830544
 30
0.0
 11
10.621
 21
9.31290094830544
 31
0.0
  0
LINE
  5
759
330
18
100
AcDbEntity
  8
Object
100
AcDbLine
 10
10.621
 20
9.31290094830544
 30
0.0
 11
10.609
 21
9.31990094830544
 31
0.0
  0
LINE
  5
75A
330
18
100
AcDbEntity
  8
Object
100
AcDbLine
 10
10.609
 20
9.31990094830544
 30
0.0
 11
10.61
 21
9.31990094830544
 31
0.0
  0
LINE
  5
75B
330
18
100
AcDbEntity
  8
Object
100
AcDbLine
 10
10.693
 20
9.31990094830544
 30
0.0
 11
10.72
 21
9.31990094830544
 31
0.0
  0
LINE
  5
75C
330
18
100
AcDbEntity
  8
Object
100
AcDbLine
 10
10.72
 20
9.31990094830544
 30
0.0
 11
10.72
 21
9.313900948305439
 31
0.0
  0
LINE
  5
75D
330
18
100
AcDbEntity
  8
Object
100
AcDbLine
 10
10.693
 20
9.31990094830544
 30
0.0
 11
10.669
 21
9.31990094830544
 31
0.0
  0
LINE
  5
75E
330
18
100
AcDbEntity
  8
Object
100
AcDbLine
 10
10.669
 20
9.31990094830544
 30
0.0
 11
10.648
 21
9.31990094830544
 31
0.0
  0
LINE
  5
75F
330
18
100
AcDbEntity
  8
Object
100
AcDbLine
 10
10.621
 20
9.31290094830544
 30
0.0
 11
10.62
 21
9.305900948305438
 31
0.0
  0
LINE
  5
760
330
18
100
AcDbEntity
  8
Object
100
AcDbLine
 10
10.845
 20
9.305900948305438
 30
0.0
 11
10.845
 21
9.31290094830544
 31
0.0
  0
LINE
  5
761
330
18
100
AcDbEntity
  8
Object
100
AcDbLine
 10
10.771
 20
9.31990094830544
 30
0.0
 11
10.792
 21
9.31990094830544
 31
0.0
  0
LINE
  5
762
330
18
100
AcDbEntity
  8
Object
100
AcDbLine
 10
10.792
 20
9.31990094830544
 30
0.0
 11
10.777
 21
9.31890094830544
 31
0.0
  0
LINE
  5
763
330
18
100
AcDbEntity
  8
Object
100
AcDbLine
 10
10.771
 20
9.31990094830544
 30
0.0
 11
10.747
 21
9.31990094830544
 31
0.0
  0
LINE
  5
764
330
18
100
AcDbEntity
  8
Object
100
AcDbLine
 10
10.747
 20
9.31990094830544
 30
0.0
 11
10.72
 21
9.31990094830544
 31
0.0
  0
LINE
  5
765
330
18
100
AcDbEntity
  8
Object
100
AcDbLine
 10
10.715
 20
8.875900948305439
 30
0.0
 11
10.72
 21
8.87690094830544
 31
0.0
  0
LINE
  5
766
330
18
100
AcDbEntity
  8
Object
100
AcDbLine
 10
10.72
 20
8.87690094830544
 30
0.0
 11
10.72
 21
8.863900948305438
 31
0.0
  0
LINE
  5
767
330
18
100
AcDbEntity
  8
Object
100
AcDbLine
 10
10.725
 20
8.87690094830544
 30
0.0
 11
10.72
 21
8.87690094830544
 31
0.0
  0
LINE
  5
768
330
18
100
AcDbEntity
  8
Object
100
AcDbLine
 10
10.831
 20
9.31990094830544
 30
0.0
 11
10.83
 21
9.31990094830544
 31
0.0
  0
LINE
  5
769
330
18
100
AcDbEntity
  8
Object
100
AcDbLine
 10
10.83
 20
9.31990094830544
 30
0.0
 11
10.823
 21
9.31990094830544
 31
0.0
  0
LINE
  5
76A
330
18
100
AcDbEntity
  8
Object
100
AcDbLine
 10
10.823
 20
9.31990094830544
 30
0.0
 11
10.81
 21
9.31990094830544
 31
0.0
  0
LINE
  5
76B
330
18
100
AcDbEntity
  8
Object
100
AcDbLine
 10
10.81
 20
9.31990094830544
 30
0.0
 11
10.792
 21
9.31990094830544
 31
0.0
  0
LINE
  5
76C
330
18
100
AcDbEntity
  8
Object
100
AcDbLine
 10
10.792
 20
9.31990094830544
 30
0.0
 11
10.771
 21
9.31990094830544
 31
0.0
  0
LINE
  5
76D
330
18
100
AcDbEntity
  8
Object
100
AcDbLine
 10
10.771
 20
9.31990094830544
 30
0.0
 11
10.747
 21
9.31990094830544
 31
0.0
  0
LINE
  5
76E
330
18
100
AcDbEntity
  8
Object
100
AcDbLine
 10
10.747
 20
9.31990094830544
 30
0.0
 11
10.72
 21
9.31990094830544
 31
0.0
  0
LINE
  5
76F
330
18
100
AcDbEntity
  8
Object
100
AcDbLine
 10
10.72
 20
9.31990094830544
 30
0.0
 11
10.693
 21
9.31990094830544
 31
0.0
  0
LINE
  5
770
330
18
100
AcDbEntity
  8
Object
100
AcDbLine
 10
10.693
 20
9.31990094830544
 30
0.0
 11
10.669
 21
9.31990094830544
 31
0.0
  0
LINE
  5
771
330
18
100
AcDbEntity
  8
Object
100
AcDbLine
 10
10.669
 20
9.31990094830544
 30
0.0
 11
10.648
 21
9.31990094830544
 31
0.0
  0
LINE
  5
772
330
18
100
AcDbEntity
  8
Object
100
AcDbLine
 10
10.648
 20
9.31990094830544
 30
0.0
 11
10.63
 21
9.31990094830544
 31
0.0
  0
LINE
  5
773
330
18
100
AcDbEntity
  8
Object
100
AcDbLine
 10
10.63
 20
9.31990094830544
 30
0.0
 11
10.617
 21
9.31990094830544
 31
0.0
  0
LINE
  5
774
330
18
100
AcDbEntity
  8
Object
100
AcDbLine
 10
10.617
 20
9.31990094830544
 30
0.0
 11
10.61
 21
9.31990094830544
 31
0.0
  0
LINE
  5
775
330
18
100
AcDbEntity
  8
Object
100
AcDbLine
 10
10.61
 20
9.31990094830544
 30
0.0
 11
10.609
 21
9.31990094830544
 31
0.0
  0
LINE
  5
776
330
18
100
AcDbEntity
  8
Object
100
AcDbLine
 10
8.0
 20
14.08490094830544
 30
0.0
 11
7.956999999999999
 21
14.07790094830544
 31
0.0
  0
LINE
  5
777
330
18
100
AcDbEntity
  8
Object
100
AcDbLine
 10
7.956999999999999
 20
14.07790094830544
 30
0.0
 11
7.918
 21
14.05790094830544
 31
0.0
  0
LINE
  5
778
330
18
100
AcDbEntity
  8
Object
100
AcDbLine
 10
7.918
 20
14.05790094830544
 30
0.0
 11
7.887
 21
14.02690094830544
 31
0.0
  0
LINE
  5
779
330
18
100
AcDbEntity
  8
Object
100
AcDbLine
 10
7.887
 20
14.02690094830544
 30
0.0
 11
7.866999999999999
 21
13.98790094830544
 31
0.0
  0
LINE
  5
77A
330
18
100
AcDbEntity
  8
Object
100
AcDbLine
 10
7.866999999999999
 20
13.98790094830544
 30
0.0
 11
7.86
 21
13.94490094830544
 31
0.0
  0
LINE
  5
77B
330
18
100
AcDbEntity
  8
Object
100
AcDbLine
 10
8.0
 20
14.08490094830544
 30
0.0
 11
10.463
 21
14.08490094830544
 31
0.0
  0
LINE
  5
77C
330
18
100
AcDbEntity
  8
Object
100
AcDbLine
 10
7.344999999999999
 20
13.80490094830544
 30
0.0
 11
3.881
 21
13.80490094830544
 31
0.0
  0
LINE
  5
77D
330
18
100
AcDbEntity
  8
Object
100
AcDbLine
 10
8.0
 20
13.80490094830544
 30
0.0
 11
7.956999999999999
 21
13.81090094830544
 31
0.0
  0
LINE
  5
77E
330
18
100
AcDbEntity
  8
Object
100
AcDbLine
 10
7.956999999999999
 20
13.81090094830544
 30
0.0
 11
7.918
 21
13.83090094830544
 31
0.0
  0
LINE
  5
77F
330
18
100
AcDbEntity
  8
Object
100
AcDbLine
 10
7.918
 20
13.83090094830544
 30
0.0
 11
7.887
 21
13.86190094830544
 31
0.0
  0
LINE
  5
780
330
18
100
AcDbEntity
  8
Object
100
AcDbLine
 10
7.887
 20
13.86190094830544
 30
0.0
 11
7.866999999999999
 21
13.90090094830544
 31
0.0
  0
LINE
  5
781
330
18
100
AcDbEntity
  8
Object
100
AcDbLine
 10
7.866999999999999
 20
13.90090094830544
 30
0.0
 11
7.86
 21
13.94490094830544
 31
0.0
  0
LINE
  5
782
330
18
100
AcDbEntity
  8
Object
100
AcDbLine
 10
3.881
 20
14.08490094830544
 30
0.0
 11
7.344999999999999
 21
14.08490094830544
 31
0.0
  0
LINE
  5
783
330
18
100
AcDbEntity
  8
Object
100
AcDbLine
 10
10.985
 20
12.94490094830544
 30
0.0
 11
11.36
 21
13.31990094830544
 31
0.0
  0
LINE
  5
784
330
18
100
AcDbEntity
  8
Object
100
AcDbLine
 10
10.463
 20
13.80490094830544
 30
0.0
 11
8.0
 21
13.80490094830544
 31
0.0
  0
LINE
  5
785
330
18
100
AcDbEntity
  8
Object
100
AcDbLine
 10
10.985
 20
14.94490094830544
 30
0.0
 11
2.813
 21
14.94490094830544
 31
0.0
  0
LINE
  5
786
330
18
100
AcDbEntity
  8
Object
100
AcDbLine
 10
2.813
 20
14.94490094830544
 30
0.0
 11
2.748000000000001
 21
14.94490094830544
 31
0.0
  0
LINE
  5
787
330
18
100
AcDbEntity
  8
Object
100
AcDbLine
 10
2.748000000000001
 20
14.94490094830544
 30
0.0
 11
2.685
 21
14.94490094830544
 31
0.0
  0
LINE
  5
788
330
18
100
AcDbEntity
  8
Object
100
AcDbLine
 10
2.685
 20
14.94490094830544
 30
0.0
 11
2.628
 21
14.94490094830544
 31
0.0
  0
LINE
  5
789
330
18
100
AcDbEntity
  8
Object
100
AcDbLine
 10
2.628
 20
14.94490094830544
 30
0.0
 11
2.576999999999999
 21
14.94490094830544
 31
0.0
  0
LINE
  5
78A
330
18
100
AcDbEntity
  8
Object
100
AcDbLine
 10
2.576999999999999
 20
14.94490094830544
 30
0.0
 11
2.535
 21
14.94490094830544
 31
0.0
  0
LINE
  5
78B
330
18
100
AcDbEntity
  8
Object
100
AcDbLine
 10
2.535
 20
14.94490094830544
 30
0.0
 11
2.504999999999999
 21
14.94490094830544
 31
0.0
  0
LINE
  5
78C
330
18
100
AcDbEntity
  8
Object
100
AcDbLine
 10
2.504999999999999
 20
14.94490094830544
 30
0.0
 11
2.486
 21
14.94490094830544
 31
0.0
  0
LINE
  5
78D
330
18
100
AcDbEntity
  8
Object
100
AcDbLine
 10
2.486
 20
14.94490094830544
 30
0.0
 11
2.478999999999999
 21
14.94490094830544
 31
0.0
  0
LINE
  5
78E
330
18
100
AcDbEntity
  8
Object
100
AcDbLine
 10
11.36
 20
13.31990094830544
 30
0.0
 11
11.36
 21
14.56990094830544
 31
0.0
  0
LINE
  5
78F
330
18
100
AcDbEntity
  8
Object
100
AcDbLine
 10
11.36
 20
14.56990094830544
 30
0.0
 11
10.985
 21
14.94490094830544
 31
0.0
  0
LINE
  5
790
330
18
100
AcDbEntity
  8
Object
100
AcDbLine
 10
7.477999999999999
 20
13.90090094830544
 30
0.0
 11
7.485
 21
13.94490094830544
 31
0.0
  0
LINE
  5
791
330
18
100
AcDbEntity
  8
Object
100
AcDbLine
 10
7.485
 20
13.94490094830544
 30
0.0
 11
7.477999999999999
 21
13.98790094830544
 31
0.0
  0
LINE
  5
792
330
18
100
AcDbEntity
  8
Object
100
AcDbLine
 10
7.477999999999999
 20
13.98790094830544
 30
0.0
 11
7.458
 21
14.02690094830544
 31
0.0
  0
LINE
  5
793
330
18
100
AcDbEntity
  8
Object
100
AcDbLine
 10
7.477999999999999
 20
13.90090094830544
 30
0.0
 11
7.458
 21
13.86190094830544
 31
0.0
  0
LINE
  5
794
330
18
100
AcDbEntity
  8
Object
100
AcDbLine
 10
7.458
 20
13.86190094830544
 30
0.0
 11
7.427
 21
13.83090094830544
 31
0.0
  0
LINE
  5
795
330
18
100
AcDbEntity
  8
Object
100
AcDbLine
 10
7.458
 20
14.02690094830544
 30
0.0
 11
7.427
 21
14.05790094830544
 31
0.0
  0
LINE
  5
796
330
18
100
AcDbEntity
  8
Object
100
AcDbLine
 10
7.427
 20
14.05790094830544
 30
0.0
 11
7.387999999999999
 21
14.07790094830544
 31
0.0
  0
LINE
  5
797
330
18
100
AcDbEntity
  8
Object
100
AcDbLine
 10
7.427
 20
13.83090094830544
 30
0.0
 11
7.387999999999999
 21
13.81090094830544
 31
0.0
  0
LINE
  5
798
330
18
100
AcDbEntity
  8
Object
100
AcDbLine
 10
7.387999999999999
 20
13.81090094830544
 30
0.0
 11
7.344999999999999
 21
13.80490094830544
 31
0.0
  0
LINE
  5
799
330
18
100
AcDbEntity
  8
Object
100
AcDbLine
 10
7.344999999999999
 20
14.08490094830544
 30
0.0
 11
7.387999999999999
 21
14.07790094830544
 31
0.0
  0
LINE
  5
79A
330
18
100
AcDbEntity
  8
Object
100
AcDbLine
 10
10.985
 20
12.94490094830544
 30
0.0
 11
2.813
 21
12.94490094830544
 31
0.0
  0
LINE
  5
79B
330
18
100
AcDbEntity
  8
Object
100
AcDbLine
 10
2.813
 20
12.94490094830544
 30
0.0
 11
2.748000000000001
 21
12.94490094830544
 31
0.0
  0
LINE
  5
79C
330
18
100
AcDbEntity
  8
Object
100
AcDbLine
 10
2.748000000000001
 20
12.94490094830544
 30
0.0
 11
2.685
 21
12.94490094830544
 31
0.0
  0
LINE
  5
79D
330
18
100
AcDbEntity
  8
Object
100
AcDbLine
 10
2.685
 20
12.94490094830544
 30
0.0
 11
2.628
 21
12.94490094830544
 31
0.0
  0
LINE
  5
79E
330
18
100
AcDbEntity
  8
Object
100
AcDbLine
 10
2.628
 20
12.94490094830544
 30
0.0
 11
2.576999999999999
 21
12.94490094830544
 31
0.0
  0
LINE
  5
79F
330
18
100
AcDbEntity
  8
Object
100
AcDbLine
 10
2.576999999999999
 20
12.94490094830544
 30
0.0
 11
2.535
 21
12.94490094830544
 31
0.0
  0
LINE
  5
7A0
330
18
100
AcDbEntity
  8
Object
100
AcDbLine
 10
2.535
 20
12.94490094830544
 30
0.0
 11
2.504999999999999
 21
12.94490094830544
 31
0.0
  0
LINE
  5
7A1
330
18
100
AcDbEntity
  8
Object
100
AcDbLine
 10
2.504999999999999
 20
12.94490094830544
 30
0.0
 11
2.486
 21
12.94490094830544
 31
0.0
  0
LINE
  5
7A2
330
18
100
AcDbEntity
  8
Object
100
AcDbLine
 10
2.486
 20
12.94490094830544
 30
0.0
 11
2.478999999999999
 21
12.94490094830544
 31
0.0
  0
LINE
  5
7A3
330
18
100
AcDbEntity
  8
Object
100
AcDbLine
 10
11.36
 20
13.31990094830544
 30
0.0
 11
11.36
 21
14.56990094830544
 31
0.0
  0
LINE
  5
7A4
330
18
100
AcDbEntity
  8
Object
100
AcDbLine
 10
11.36
 20
14.56990094830544
 30
0.0
 11
10.985
 21
14.94490094830544
 31
0.0
  0
LINE
  5
7A5
330
18
100
AcDbEntity
  8
Object
100
AcDbLine
 10
10.985
 20
12.94490094830544
 30
0.0
 11
11.36
 21
13.31990094830544
 31
0.0
  0
LINE
  5
7A6
330
18
100
AcDbEntity
  8
Object
100
AcDbLine
 10
8.0
 20
14.08490094830544
 30
0.0
 11
10.463
 21
14.08490094830544
 31
0.0
  0
LINE
  5
7A7
330
18
100
AcDbEntity
  8
Object
100
AcDbLine
 10
10.463
 20
13.80490094830544
 30
0.0
 11
8.0
 21
13.80490094830544
 31
0.0
  0
LINE
  5
7A8
330
18
100
AcDbEntity
  8
Object
100
AcDbLine
 10
7.887
 20
14.02690094830544
 30
0.0
 11
7.866999999999999
 21
13.98790094830544
 31
0.0
  0
LINE
  5
7A9
330
18
100
AcDbEntity
  8
Object
100
AcDbLine
 10
7.866999999999999
 20
13.98790094830544
 30
0.0
 11
7.86
 21
13.94490094830544
 31
0.0
  0
LINE
  5
7AA
330
18
100
AcDbEntity
  8
Object
100
AcDbLine
 10
7.86
 20
13.94490094830544
 30
0.0
 11
7.866999999999999
 21
13.90090094830544
 31
0.0
  0
LINE
  5
7AB
330
18
100
AcDbEntity
  8
Object
100
AcDbLine
 10
7.866999999999999
 20
13.90090094830544
 30
0.0
 11
7.887
 21
13.86190094830544
 31
0.0
  0
LINE
  5
7AC
330
18
100
AcDbEntity
  8
Object
100
AcDbLine
 10
7.477999999999999
 20
13.90090094830544
 30
0.0
 11
7.485
 21
13.94490094830544
 31
0.0
  0
LINE
  5
7AD
330
18
100
AcDbEntity
  8
Object
100
AcDbLine
 10
7.485
 20
13.94490094830544
 30
0.0
 11
7.477999999999999
 21
13.98790094830544
 31
0.0
  0
LINE
  5
7AE
330
18
100
AcDbEntity
  8
Object
100
AcDbLine
 10
7.887
 20
14.02690094830544
 30
0.0
 11
7.918
 21
14.05790094830544
 31
0.0
  0
LINE
  5
7AF
330
18
100
AcDbEntity
  8
Object
100
AcDbLine
 10
7.477999999999999
 20
13.90090094830544
 30
0.0
 11
7.458
 21
13.86190094830544
 31
0.0
  0
LINE
  5
7B0
330
18
100
AcDbEntity
  8
Object
100
AcDbLine
 10
7.458
 20
14.02690094830544
 30
0.0
 11
7.477999999999999
 21
13.98790094830544
 31
0.0
  0
LINE
  5
7B1
330
18
100
AcDbEntity
  8
Object
100
AcDbLine
 10
7.918
 20
13.83090094830544
 30
0.0
 11
7.887
 21
13.86190094830544
 31
0.0
  0
LINE
  5
7B2
330
18
100
AcDbEntity
  8
Object
100
AcDbLine
 10
7.427
 20
14.05790094830544
 30
0.0
 11
7.458
 21
14.02690094830544
 31
0.0
  0
LINE
  5
7B3
330
18
100
AcDbEntity
  8
Object
100
AcDbLine
 10
7.458
 20
13.86190094830544
 30
0.0
 11
7.427
 21
13.83090094830544
 31
0.0
  0
LINE
  5
7B4
330
18
100
AcDbEntity
  8
Object
100
AcDbLine
 10
7.956999999999999
 20
13.81090094830544
 30
0.0
 11
7.918
 21
13.83090094830544
 31
0.0
  0
LINE
  5
7B5
330
18
100
AcDbEntity
  8
Object
100
AcDbLine
 10
7.387999999999999
 20
14.07790094830544
 30
0.0
 11
7.427
 21
14.05790094830544
 31
0.0
  0
LINE
  5
7B6
330
18
100
AcDbEntity
  8
Object
100
AcDbLine
 10
7.918
 20
14.05790094830544
 30
0.0
 11
7.956999999999999
 21
14.07790094830544
 31
0.0
  0
LINE
  5
7B7
330
18
100
AcDbEntity
  8
Object
100
AcDbLine
 10
7.427
 20
13.83090094830544
 30
0.0
 11
7.387999999999999
 21
13.81090094830544
 31
0.0
  0
LINE
  5
7B8
330
18
100
AcDbEntity
  8
Object
100
AcDbLine
 10
7.956999999999999
 20
14.07790094830544
 30
0.0
 11
8.0
 21
14.08490094830544
 31
0.0
  0
LINE
  5
7B9
330
18
100
AcDbEntity
  8
Object
100
AcDbLine
 10
7.344999999999999
 20
14.08490094830544
 30
0.0
 11
7.387999999999999
 21
14.07790094830544
 31
0.0
  0
LINE
  5
7BA
330
18
100
AcDbEntity
  8
Object
100
AcDbLine
 10
8.0
 20
13.80490094830544
 30
0.0
 11
7.956999999999999
 21
13.81090094830544
 31
0.0
  0
LINE
  5
7BB
330
18
100
AcDbEntity
  8
Object
100
AcDbLine
 10
7.387999999999999
 20
13.81090094830544
 30
0.0
 11
7.344999999999999
 21
13.80490094830544
 31
0.0
  0
LINE
  5
7BC
330
18
100
AcDbEntity
  8
Object
100
AcDbLine
 10
3.881
 20
14.08490094830544
 30
0.0
 11
7.344999999999999
 21
14.08490094830544
 31
0.0
  0
LINE
  5
7BD
330
18
100
AcDbEntity
  8
Object
100
AcDbLine
 10
10.985
 20
14.94490094830544
 30
0.0
 11
2.813
 21
14.94490094830544
 31
0.0
  0
LINE
  5
7BE
330
18
100
AcDbEntity
  8
Object
100
AcDbLine
 10
2.813
 20
12.94490094830544
 30
0.0
 11
10.985
 21
12.94490094830544
 31
0.0
  0
LINE
  5
7BF
330
18
100
AcDbEntity
  8
Object
100
AcDbLine
 10
7.344999999999999
 20
13.80490094830544
 30
0.0
 11
3.881
 21
13.80490094830544
 31
0.0
  0
LINE
  5
7C0
330
18
100
AcDbEntity
  8
Object
100
AcDbLine
 10
2.748000000000001
 20
12.94490094830544
 30
0.0
 11
2.813
 21
12.94490094830544
 31
0.0
  0
LINE
  5
7C1
330
18
100
AcDbEntity
  8
Object
100
AcDbLine
 10
2.748000000000001
 20
14.94490094830544
 30
0.0
 11
2.813
 21
14.94490094830544
 31
0.0
  0
LINE
  5
7C2
330
18
100
AcDbEntity
  8
Object
100
AcDbLine
 10
2.813
 20
14.94490094830544
 30
0.0
 11
2.813
 21
12.94490094830544
 31
0.0
  0
LINE
  5
7C3
330
18
100
AcDbEntity
  8
Object
100
AcDbLine
 10
2.748000000000001
 20
14.94490094830544
 30
0.0
 11
2.685
 21
14.94490094830544
 31
0.0
  0
LINE
  5
7C4
330
18
100
AcDbEntity
  8
Object
100
AcDbLine
 10
2.748000000000001
 20
12.94490094830544
 30
0.0
 11
2.685
 21
12.94490094830544
 31
0.0
  0
LINE
  5
7C5
330
18
100
AcDbEntity
  8
Object
100
AcDbLine
 10
2.685
 20
12.94490094830544
 30
0.0
 11
2.628
 21
12.94490094830544
 31
0.0
  0
LINE
  5
7C6
330
18
100
AcDbEntity
  8
Object
100
AcDbLine
 10
2.685
 20
14.94490094830544
 30
0.0
 11
2.628
 21
14.94490094830544
 31
0.0
  0
LINE
  5
7C7
330
18
100
AcDbEntity
  8
Object
100
AcDbLine
 10
2.628
 20
14.94490094830544
 30
0.0
 11
2.576999999999999
 21
14.94490094830544
 31
0.0
  0
LINE
  5
7C8
330
18
100
AcDbEntity
  8
Object
100
AcDbLine
 10
2.628
 20
12.94490094830544
 30
0.0
 11
2.576999999999999
 21
12.94490094830544
 31
0.0
  0
LINE
  5
7C9
330
18
100
AcDbEntity
  8
Object
100
AcDbLine
 10
2.576999999999999
 20
12.94490094830544
 30
0.0
 11
2.535
 21
12.94490094830544
 31
0.0
  0
LINE
  5
7CA
330
18
100
AcDbEntity
  8
Object
100
AcDbLine
 10
2.576999999999999
 20
14.94490094830544
 30
0.0
 11
2.535
 21
14.94490094830544
 31
0.0
  0
LINE
  5
7CB
330
18
100
AcDbEntity
  8
Object
100
AcDbLine
 10
2.535
 20
14.94490094830544
 30
0.0
 11
2.504999999999999
 21
14.94490094830544
 31
0.0
  0
LINE
  5
7CC
330
18
100
AcDbEntity
  8
Object
100
AcDbLine
 10
2.535
 20
12.94490094830544
 30
0.0
 11
2.504999999999999
 21
12.94490094830544
 31
0.0
  0
LINE
  5
7CD
330
18
100
AcDbEntity
  8
Object
100
AcDbLine
 10
2.504999999999999
 20
12.94490094830544
 30
0.0
 11
2.486
 21
12.94490094830544
 31
0.0
  0
LINE
  5
7CE
330
18
100
AcDbEntity
  8
Object
100
AcDbLine
 10
2.504999999999999
 20
14.94490094830544
 30
0.0
 11
2.486
 21
14.94490094830544
 31
0.0
  0
LINE
  5
7CF
330
18
100
AcDbEntity
  8
Object
100
AcDbLine
 10
2.486
 20
14.94490094830544
 30
0.0
 11
2.478999999999999
 21
14.94490094830544
 31
0.0
  0
LINE
  5
7D0
330
18
100
AcDbEntity
  8
Object
100
AcDbLine
 10
2.486
 20
12.94490094830544
 30
0.0
 11
2.478999999999999
 21
12.94490094830544
 31
0.0
  0
LINE
  5
7D1
330
18
100
AcDbEntity
  8
Object
100
AcDbLine
 10
2.478999999999999
 20
12.94490094830544
 30
0.0
 11
2.478999999999999
 21
14.94490094830544
 31
0.0
  0
LINE
  5
7D2
330
18
100
AcDbEntity
  8
Object
100
AcDbLine
 10
2.478999999999999
 20
14.94490094830544
 30
0.0
 11
2.478999999999999
 21
12.94490094830544
 31
0.0
  0
LINE
  5
7D3
330
18
100
AcDbEntity
  8
Object
100
AcDbLine
 10
4.224
 20
13.72290094830544
 30
0.0
 11
4.216000000000001
 21
13.72290094830544
 31
0.0
  0
LINE
  5
7D4
330
18
100
AcDbEntity
  8
Object
100
AcDbLine
 10
4.216000000000001
 20
13.72290094830544
 30
0.0
 11
4.051999999999999
 21
13.72290094830544
 31
0.0
  0
LINE
  5
7D5
330
18
100
AcDbEntity
  8
Object
100
AcDbLine
 10
4.051999999999999
 20
13.72290094830544
 30
0.0
 11
4.021
 21
13.72290094830544
 31
0.0
  0
LINE
  5
7D6
330
18
100
AcDbEntity
  8
Object
100
AcDbLine
 10
4.021
 20
13.72290094830544
 30
0.0
 11
3.996
 21
13.72290094830544
 31
0.0
  0
LINE
  5
7D7
330
18
100
AcDbEntity
  8
Object
100
AcDbLine
 10
3.996
 20
13.72290094830544
 30
0.0
 11
3.977999999999999
 21
13.72290094830544
 31
0.0
  0
LINE
  5
7D8
330
18
100
AcDbEntity
  8
Object
100
AcDbLine
 10
3.977999999999999
 20
13.72290094830544
 30
0.0
 11
3.971
 21
13.72290094830544
 31
0.0
  0
LINE
  5
7D9
330
18
100
AcDbEntity
  8
Object
100
AcDbLine
 10
3.971
 20
13.72290094830544
 30
0.0
 11
3.968999999999999
 21
13.72290094830544
 31
0.0
  0
LINE
  5
7DA
330
18
100
AcDbEntity
  8
Object
100
AcDbLine
 10
3.968999999999999
 20
13.72290094830544
 30
0.0
 11
3.963
 21
13.72290094830544
 31
0.0
  0
LINE
  5
7DB
330
18
100
AcDbEntity
  8
Object
100
AcDbLine
 10
3.963
 20
13.72290094830544
 30
0.0
 11
3.955999999999999
 21
13.72290094830544
 31
0.0
  0
LINE
  5
7DC
330
18
100
AcDbEntity
  8
Object
100
AcDbLine
 10
3.955999999999999
 20
13.72290094830544
 30
0.0
 11
3.906
 21
13.72290094830544
 31
0.0
  0
LINE
  5
7DD
330
18
100
AcDbEntity
  8
Object
100
AcDbLine
 10
4.224
 20
13.31990094830544
 30
0.0
 11
4.216000000000001
 21
13.31990094830544
 31
0.0
  0
LINE
  5
7DE
330
18
100
AcDbEntity
  8
Object
100
AcDbLine
 10
4.216000000000001
 20
13.31990094830544
 30
0.0
 11
4.051999999999999
 21
13.31990094830544
 31
0.0
  0
LINE
  5
7DF
330
18
100
AcDbEntity
  8
Object
100
AcDbLine
 10
4.051999999999999
 20
13.31990094830544
 30
0.0
 11
4.021
 21
13.31990094830544
 31
0.0
  0
LINE
  5
7E0
330
18
100
AcDbEntity
  8
Object
100
AcDbLine
 10
4.021
 20
13.31990094830544
 30
0.0
 11
3.996
 21
13.31990094830544
 31
0.0
  0
LINE
  5
7E1
330
18
100
AcDbEntity
  8
Object
100
AcDbLine
 10
3.996
 20
13.31990094830544
 30
0.0
 11
3.977999999999999
 21
13.31990094830544
 31
0.0
  0
LINE
  5
7E2
330
18
100
AcDbEntity
  8
Object
100
AcDbLine
 10
3.977999999999999
 20
13.31990094830544
 30
0.0
 11
3.971
 21
13.31990094830544
 31
0.0
  0
LINE
  5
7E3
330
18
100
AcDbEntity
  8
Object
100
AcDbLine
 10
3.971
 20
13.31990094830544
 30
0.0
 11
3.968999999999999
 21
13.31990094830544
 31
0.0
  0
LINE
  5
7E4
330
18
100
AcDbEntity
  8
Object
100
AcDbLine
 10
3.968999999999999
 20
13.31990094830544
 30
0.0
 11
3.963
 21
13.31990094830544
 31
0.0
  0
LINE
  5
7E5
330
18
100
AcDbEntity
  8
Object
100
AcDbLine
 10
3.963
 20
13.31990094830544
 30
0.0
 11
3.955999999999999
 21
13.31990094830544
 31
0.0
  0
LINE
  5
7E6
330
18
100
AcDbEntity
  8
Object
100
AcDbLine
 10
3.955999999999999
 20
13.31990094830544
 30
0.0
 11
3.448999999999999
 21
13.31990094830544
 31
0.0
  0
LINE
  5
7E7
330
18
100
AcDbEntity
  8
Object
100
AcDbLine
 10
4.262999999999999
 20
13.68290094830544
 30
0.0
 11
4.257999999999999
 21
13.70290094830544
 31
0.0
  0
LINE
  5
7E8
330
18
100
AcDbEntity
  8
Object
100
AcDbLine
 10
4.257999999999999
 20
13.70290094830544
 30
0.0
 11
4.243999999999999
 21
13.71690094830544
 31
0.0
  0
LINE
  5
7E9
330
18
100
AcDbEntity
  8
Object
100
AcDbLine
 10
4.243999999999999
 20
13.71690094830544
 30
0.0
 11
4.224
 21
13.72290094830544
 31
0.0
  0
LINE
  5
7EA
330
18
100
AcDbEntity
  8
Object
100
AcDbLine
 10
4.257999999999999
 20
13.33990094830544
 30
0.0
 11
4.243999999999999
 21
13.32490094830544
 31
0.0
  0
LINE
  5
7EB
330
18
100
AcDbEntity
  8
Object
100
AcDbLine
 10
4.243999999999999
 20
13.32490094830544
 30
0.0
 11
4.224
 21
13.31990094830544
 31
0.0
  0
LINE
  5
7EC
330
18
100
AcDbEntity
  8
Object
100
AcDbLine
 10
4.257999999999999
 20
13.33990094830544
 30
0.0
 11
4.262999999999999
 21
13.35990094830544
 31
0.0
  0
LINE
  5
7ED
330
18
100
AcDbEntity
  8
Object
100
AcDbLine
 10
4.262999999999999
 20
13.35990094830544
 30
0.0
 11
4.262999999999999
 21
13.68290094830544
 31
0.0
  0
LINE
  5
7EE
330
18
100
AcDbEntity
  8
Object
100
AcDbLine
 10
3.955999999999999
 20
14.56990094830544
 30
0.0
 11
3.955999999999999
 21
14.16690094830544
 31
0.0
  0
LINE
  5
7EF
330
18
100
AcDbEntity
  8
Object
100
AcDbLine
 10
3.955999999999999
 20
14.16690094830544
 30
0.0
 11
3.906
 21
14.16690094830544
 31
0.0
  0
LINE
  5
7F0
330
18
100
AcDbEntity
  8
Object
100
AcDbLine
 10
3.906
 20
13.72290094830544
 30
0.0
 11
3.955999999999999
 21
13.72290094830544
 31
0.0
  0
LINE
  5
7F1
330
18
100
AcDbEntity
  8
Object
100
AcDbLine
 10
3.955999999999999
 20
13.72290094830544
 30
0.0
 11
3.955999999999999
 21
13.31990094830544
 31
0.0
  0
LINE
  5
7F2
330
18
100
AcDbEntity
  8
Object
100
AcDbLine
 10
3.884
 20
14.16090094830544
 30
0.0
 11
3.906
 21
14.16690094830544
 31
0.0
  0
LINE
  5
7F3
330
18
100
AcDbEntity
  8
Object
100
AcDbLine
 10
3.906
 20
13.72290094830544
 30
0.0
 11
3.884
 21
13.72890094830544
 31
0.0
  0
LINE
  5
7F4
330
18
100
AcDbEntity
  8
Object
100
AcDbLine
 10
3.884
 20
14.08290094830544
 30
0.0
 11
3.906
 21
14.07690094830544
 31
0.0
  0
LINE
  5
7F5
330
18
100
AcDbEntity
  8
Object
100
AcDbLine
 10
3.906
 20
14.07690094830544
 30
0.0
 11
3.926
 21
14.07690094830544
 31
0.0
  0
LINE
  5
7F6
330
18
100
AcDbEntity
  8
Object
100
AcDbLine
 10
3.926
 20
14.07690094830544
 30
0.0
 11
3.926
 21
13.81290094830544
 31
0.0
  0
LINE
  5
7F7
330
18
100
AcDbEntity
  8
Object
100
AcDbLine
 10
3.926
 20
13.81290094830544
 30
0.0
 11
3.906
 21
13.81290094830544
 31
0.0
  0
LINE
  5
7F8
330
18
100
AcDbEntity
  8
Object
100
AcDbLine
 10
3.906
 20
13.81290094830544
 30
0.0
 11
3.884
 21
13.80690094830544
 31
0.0
  0
LINE
  5
7F9
330
18
100
AcDbEntity
  8
Object
100
AcDbLine
 10
3.884
 20
14.08290094830544
 30
0.0
 11
3.867
 21
14.09890094830544
 31
0.0
  0
LINE
  5
7FA
330
18
100
AcDbEntity
  8
Object
100
AcDbLine
 10
3.867
 20
13.78990094830544
 30
0.0
 11
3.884
 21
13.80690094830544
 31
0.0
  0
LINE
  5
7FB
330
18
100
AcDbEntity
  8
Object
100
AcDbLine
 10
3.867
 20
14.09890094830544
 30
0.0
 11
3.861
 21
14.12190094830544
 31
0.0
  0
LINE
  5
7FC
330
18
100
AcDbEntity
  8
Object
100
AcDbLine
 10
3.861
 20
13.76790094830544
 30
0.0
 11
3.867
 21
13.78990094830544
 31
0.0
  0
LINE
  5
7FD
330
18
100
AcDbEntity
  8
Object
100
AcDbLine
 10
3.861
 20
14.12190094830544
 30
0.0
 11
3.867
 21
14.14390094830544
 31
0.0
  0
LINE
  5
7FE
330
18
100
AcDbEntity
  8
Object
100
AcDbLine
 10
3.867
 20
13.74490094830544
 30
0.0
 11
3.861
 21
13.76790094830544
 31
0.0
  0
LINE
  5
7FF
330
18
100
AcDbEntity
  8
Object
100
AcDbLine
 10
3.867
 20
14.14390094830544
 30
0.0
 11
3.884
 21
14.16090094830544
 31
0.0
  0
LINE
  5
800
330
18
100
AcDbEntity
  8
Object
100
AcDbLine
 10
3.884
 20
13.72890094830544
 30
0.0
 11
3.867
 21
13.74490094830544
 31
0.0
  0
LINE
  5
801
330
18
100
AcDbEntity
  8
Object
100
AcDbLine
 10
3.955999999999999
 20
14.56990094830544
 30
0.0
 11
3.448999999999999
 21
14.56990094830544
 31
0.0
  0
LINE
  5
802
330
18
100
AcDbEntity
  8
Object
100
AcDbLine
 10
3.448999999999999
 20
13.31990094830544
 30
0.0
 11
3.955999999999999
 21
13.31990094830544
 31
0.0
  0
LINE
  5
803
330
18
100
AcDbEntity
  8
Object
100
AcDbLine
 10
3.375999999999999
 20
14.54590094830544
 30
0.0
 11
3.347999999999998
 21
14.51790094830544
 31
0.0
  0
LINE
  5
804
330
18
100
AcDbEntity
  8
Object
100
AcDbLine
 10
3.323999999999999
 20
14.44490094830544
 30
0.0
 11
3.33
 21
14.48290094830544
 31
0.0
  0
LINE
  5
805
330
18
100
AcDbEntity
  8
Object
100
AcDbLine
 10
3.33
 20
14.48290094830544
 30
0.0
 11
3.347999999999998
 21
14.51790094830544
 31
0.0
  0
LINE
  5
806
330
18
100
AcDbEntity
  8
Object
100
AcDbLine
 10
3.375999999999999
 20
14.54590094830544
 30
0.0
 11
3.410999999999999
 21
14.56390094830544
 31
0.0
  0
LINE
  5
807
330
18
100
AcDbEntity
  8
Object
100
AcDbLine
 10
3.410999999999999
 20
14.56390094830544
 30
0.0
 11
3.448999999999999
 21
14.56990094830544
 31
0.0
  0
LINE
  5
808
330
18
100
AcDbEntity
  8
Object
100
AcDbLine
 10
3.448999999999999
 20
13.31990094830544
 30
0.0
 11
3.410999999999999
 21
13.32590094830544
 31
0.0
  0
LINE
  5
809
330
18
100
AcDbEntity
  8
Object
100
AcDbLine
 10
3.410999999999999
 20
13.32590094830544
 30
0.0
 11
3.375999999999999
 21
13.34290094830544
 31
0.0
  0
LINE
  5
80A
330
18
100
AcDbEntity
  8
Object
100
AcDbLine
 10
3.375999999999999
 20
13.34290094830544
 30
0.0
 11
3.347999999999998
 21
13.37090094830544
 31
0.0
  0
LINE
  5
80B
330
18
100
AcDbEntity
  8
Object
100
AcDbLine
 10
3.347999999999998
 20
13.37090094830544
 30
0.0
 11
3.33
 21
13.40590094830544
 31
0.0
  0
LINE
  5
80C
330
18
100
AcDbEntity
  8
Object
100
AcDbLine
 10
3.33
 20
13.40590094830544
 30
0.0
 11
3.323999999999999
 21
13.44490094830544
 31
0.0
  0
LINE
  5
80D
330
18
100
AcDbEntity
  8
Object
100
AcDbLine
 10
3.323999999999999
 20
13.44490094830544
 30
0.0
 11
3.323999999999999
 21
14.44490094830544
 31
0.0
  0
LINE
  5
80E
330
18
100
AcDbEntity
  8
Object
100
AcDbLine
 10
4.021
 20
13.72290094830544
 30
0.0
 11
4.051999999999999
 21
13.72290094830544
 31
0.0
  0
LINE
  5
80F
330
18
100
AcDbEntity
  8
Object
100
AcDbLine
 10
4.051999999999999
 20
13.72290094830544
 30
0.0
 11
4.051999999999999
 21
13.31990094830544
 31
0.0
  0
LINE
  5
810
330
18
100
AcDbEntity
  8
Object
100
AcDbLine
 10
4.051999999999999
 20
13.31990094830544
 30
0.0
 11
4.021
 21
13.31990094830544
 31
0.0
  0
LINE
  5
811
330
18
100
AcDbEntity
  8
Object
100
AcDbLine
 10
4.021
 20
13.72290094830544
 30
0.0
 11
3.996
 21
13.72290094830544
 31
0.0
  0
LINE
  5
812
330
18
100
AcDbEntity
  8
Object
100
AcDbLine
 10
4.021
 20
13.31990094830544
 30
0.0
 11
3.996
 21
13.31990094830544
 31
0.0
  0
LINE
  5
813
330
18
100
AcDbEntity
  8
Object
100
AcDbLine
 10
3.996
 20
13.31990094830544
 30
0.0
 11
3.977999999999999
 21
13.31990094830544
 31
0.0
  0
LINE
  5
814
330
18
100
AcDbEntity
  8
Object
100
AcDbLine
 10
3.996
 20
13.72290094830544
 30
0.0
 11
3.977999999999999
 21
13.72290094830544
 31
0.0
  0
LINE
  5
815
330
18
100
AcDbEntity
  8
Object
100
AcDbLine
 10
3.977999999999999
 20
13.72290094830544
 30
0.0
 11
3.971
 21
13.72290094830544
 31
0.0
  0
LINE
  5
816
330
18
100
AcDbEntity
  8
Object
100
AcDbLine
 10
3.971
 20
13.31990094830544
 30
0.0
 11
3.977999999999999
 21
13.31990094830544
 31
0.0
  0
LINE
  5
817
330
18
100
AcDbEntity
  8
Object
100
AcDbLine
 10
4.236
 20
13.71690094830544
 30
0.0
 11
4.216000000000001
 21
13.72290094830544
 31
0.0
  0
LINE
  5
818
330
18
100
AcDbEntity
  8
Object
100
AcDbLine
 10
4.216000000000001
 20
13.72290094830544
 30
0.0
 11
4.224
 21
13.72290094830544
 31
0.0
  0
LINE
  5
819
330
18
100
AcDbEntity
  8
Object
100
AcDbLine
 10
3.884
 20
13.80690094830544
 30
0.0
 11
3.906
 21
13.81290094830544
 31
0.0
  0
LINE
  5
81A
330
18
100
AcDbEntity
  8
Object
100
AcDbLine
 10
3.906
 20
13.72290094830544
 30
0.0
 11
3.884
 21
13.72890094830544
 31
0.0
  0
LINE
  5
81B
330
18
100
AcDbEntity
  8
Object
100
AcDbLine
 10
3.884
 20
13.72890094830544
 30
0.0
 11
3.867
 21
13.74490094830544
 31
0.0
  0
LINE
  5
81C
330
18
100
AcDbEntity
  8
Object
100
AcDbLine
 10
3.884
 20
13.80690094830544
 30
0.0
 11
3.867
 21
13.78990094830544
 31
0.0
  0
LINE
  5
81D
330
18
100
AcDbEntity
  8
Object
100
AcDbLine
 10
3.867
 20
13.78990094830544
 30
0.0
 11
3.861
 21
13.76790094830544
 31
0.0
  0
LINE
  5
81E
330
18
100
AcDbEntity
  8
Object
100
AcDbLine
 10
3.861
 20
13.76790094830544
 30
0.0
 11
3.867
 21
13.74490094830544
 31
0.0
  0
LINE
  5
81F
330
18
100
AcDbEntity
  8
Object
100
AcDbLine
 10
3.968999999999999
 20
13.72290094830544
 30
0.0
 11
3.971
 21
13.72290094830544
 31
0.0
  0
LINE
  5
820
330
18
100
AcDbEntity
  8
Object
100
AcDbLine
 10
3.971
 20
13.72290094830544
 30
0.0
 11
3.971
 21
13.31990094830544
 31
0.0
  0
LINE
  5
821
330
18
100
AcDbEntity
  8
Object
100
AcDbLine
 10
3.971
 20
13.31990094830544
 30
0.0
 11
3.968999999999999
 21
13.31990094830544
 31
0.0
  0
LINE
  5
822
330
18
100
AcDbEntity
  8
Object
100
AcDbLine
 10
3.968999999999999
 20
13.72290094830544
 30
0.0
 11
3.963
 21
13.72290094830544
 31
0.0
  0
LINE
  5
823
330
18
100
AcDbEntity
  8
Object
100
AcDbLine
 10
3.968999999999999
 20
13.31990094830544
 30
0.0
 11
3.963
 21
13.31990094830544
 31
0.0
  0
LINE
  5
824
330
18
100
AcDbEntity
  8
Object
100
AcDbLine
 10
3.963
 20
13.31990094830544
 30
0.0
 11
3.955999999999999
 21
13.31990094830544
 31
0.0
  0
LINE
  5
825
330
18
100
AcDbEntity
  8
Object
100
AcDbLine
 10
3.963
 20
13.72290094830544
 30
0.0
 11
3.955999999999999
 21
13.72290094830544
 31
0.0
  0
LINE
  5
826
330
18
100
AcDbEntity
  8
Object
100
AcDbLine
 10
4.256
 20
13.68290094830544
 30
0.0
 11
4.25
 21
13.70290094830544
 31
0.0
  0
LINE
  5
827
330
18
100
AcDbEntity
  8
Object
100
AcDbLine
 10
4.25
 20
13.70290094830544
 30
0.0
 11
4.236
 21
13.71690094830544
 31
0.0
  0
LINE
  5
828
330
18
100
AcDbEntity
  8
Object
100
AcDbLine
 10
4.256
 20
13.35990094830544
 30
0.0
 11
4.25
 21
13.33990094830544
 31
0.0
  0
LINE
  5
829
330
18
100
AcDbEntity
  8
Object
100
AcDbLine
 10
4.25
 20
13.33990094830544
 30
0.0
 11
4.236
 21
13.32490094830544
 31
0.0
  0
LINE
  5
82A
330
18
100
AcDbEntity
  8
Object
100
AcDbLine
 10
4.236
 20
13.32490094830544
 30
0.0
 11
4.216000000000001
 21
13.31990094830544
 31
0.0
  0
LINE
  5
82B
330
18
100
AcDbEntity
  8
Object
100
AcDbLine
 10
4.216000000000001
 20
13.72290094830544
 30
0.0
 11
4.051999999999999
 21
13.72290094830544
 31
0.0
  0
LINE
  5
82C
330
18
100
AcDbEntity
  8
Object
100
AcDbLine
 10
4.051999999999999
 20
13.31990094830544
 30
0.0
 11
4.216000000000001
 21
13.31990094830544
 31
0.0
  0
LINE
  5
82D
330
18
100
AcDbEntity
  8
Object
100
AcDbLine
 10
4.256
 20
13.35990094830544
 30
0.0
 11
4.256
 21
13.68290094830544
 31
0.0
  0
LINE
  5
82E
330
18
100
AcDbEntity
  8
Object
100
AcDbLine
 10
3.448999999999999
 20
13.31990094830544
 30
0.0
 11
3.410999999999999
 21
13.32590094830544
 31
0.0
  0
LINE
  5
82F
330
18
100
AcDbEntity
  8
Object
100
AcDbLine
 10
3.410999999999999
 20
13.32590094830544
 30
0.0
 11
3.375999999999999
 21
13.34290094830544
 31
0.0
  0
LINE
  5
830
330
18
100
AcDbEntity
  8
Object
100
AcDbLine
 10
3.375999999999999
 20
13.34290094830544
 30
0.0
 11
3.347999999999998
 21
13.37090094830544
 31
0.0
  0
LINE
  5
831
330
18
100
AcDbEntity
  8
Object
100
AcDbLine
 10
3.347999999999998
 20
13.37090094830544
 30
0.0
 11
3.33
 21
13.40590094830544
 31
0.0
  0
LINE
  5
832
330
18
100
AcDbEntity
  8
Object
100
AcDbLine
 10
3.33
 20
13.40590094830544
 30
0.0
 11
3.323999999999999
 21
13.44490094830544
 31
0.0
  0
LINE
  5
833
330
18
100
AcDbEntity
  8
Object
100
AcDbLine
 10
4.262999999999999
 20
13.35990094830544
 30
0.0
 11
4.256
 21
13.35990094830544
 31
0.0
  0
LINE
  5
834
330
18
100
AcDbEntity
  8
Object
100
AcDbLine
 10
4.216000000000001
 20
13.31990094830544
 30
0.0
 11
4.224
 21
13.31990094830544
 31
0.0
  0
LINE
  5
835
330
18
100
AcDbEntity
  8
Object
100
AcDbLine
 10
4.262999999999999
 20
13.68290094830544
 30
0.0
 11
4.256
 21
13.68290094830544
 31
0.0
  0
LINE
  5
836
330
18
100
AcDbEntity
  8
Object
100
AcDbLine
 10
3.323999999999999
 20
14.44490094830544
 30
0.0
 11
3.323999999999999
 21
13.44490094830544
 31
0.0
  0
LINE
  5
837
330
18
100
AcDbEntity
  8
Object
100
AcDbLine
 10
3.926
 20
14.07690094830544
 30
0.0
 11
3.906
 21
14.07690094830544
 31
0.0
  0
LINE
  5
838
330
18
100
AcDbEntity
  8
Object
100
AcDbLine
 10
3.448999999999999
 20
14.56990094830544
 30
0.0
 11
3.410999999999999
 21
14.56390094830544
 31
0.0
  0
LINE
  5
839
330
18
100
AcDbEntity
  8
Object
100
AcDbLine
 10
3.410999999999999
 20
14.56390094830544
 30
0.0
 11
3.375999999999999
 21
14.54590094830544
 31
0.0
  0
LINE
  5
83A
330
18
100
AcDbEntity
  8
Object
100
AcDbLine
 10
3.375999999999999
 20
14.54590094830544
 30
0.0
 11
3.347999999999998
 21
14.51790094830544
 31
0.0
  0
LINE
  5
83B
330
18
100
AcDbEntity
  8
Object
100
AcDbLine
 10
3.347999999999998
 20
14.51790094830544
 30
0.0
 11
3.33
 21
14.48290094830544
 31
0.0
  0
LINE
  5
83C
330
18
100
AcDbEntity
  8
Object
100
AcDbLine
 10
3.33
 20
14.48290094830544
 30
0.0
 11
3.323999999999999
 21
14.44490094830544
 31
0.0
  0
LINE
  5
83D
330
18
100
AcDbEntity
  8
Object
100
AcDbLine
 10
3.968999999999999
 20
14.56990094830544
 30
0.0
 11
3.971
 21
14.56990094830544
 31
0.0
  0
LINE
  5
83E
330
18
100
AcDbEntity
  8
Object
100
AcDbLine
 10
3.971
 20
14.56990094830544
 30
0.0
 11
3.971
 21
14.16690094830544
 31
0.0
  0
LINE
  5
83F
330
18
100
AcDbEntity
  8
Object
100
AcDbLine
 10
3.971
 20
14.16690094830544
 30
0.0
 11
3.968999999999999
 21
14.16690094830544
 31
0.0
  0
LINE
  5
840
330
18
100
AcDbEntity
  8
Object
100
AcDbLine
 10
3.968999999999999
 20
14.16690094830544
 30
0.0
 11
3.963
 21
14.16690094830544
 31
0.0
  0
LINE
  5
841
330
18
100
AcDbEntity
  8
Object
100
AcDbLine
 10
3.968999999999999
 20
14.56990094830544
 30
0.0
 11
3.963
 21
14.56990094830544
 31
0.0
  0
LINE
  5
842
330
18
100
AcDbEntity
  8
Object
100
AcDbLine
 10
3.955999999999999
 20
14.16690094830544
 30
0.0
 11
3.963
 21
14.16690094830544
 31
0.0
  0
LINE
  5
843
330
18
100
AcDbEntity
  8
Object
100
AcDbLine
 10
3.963
 20
14.56990094830544
 30
0.0
 11
3.955999999999999
 21
14.56990094830544
 31
0.0
  0
LINE
  5
844
330
18
100
AcDbEntity
  8
Object
100
AcDbLine
 10
4.224
 20
14.56990094830544
 30
0.0
 11
4.216000000000001
 21
14.56990094830544
 31
0.0
  0
LINE
  5
845
330
18
100
AcDbEntity
  8
Object
100
AcDbLine
 10
4.216000000000001
 20
14.56990094830544
 30
0.0
 11
4.051999999999999
 21
14.56990094830544
 31
0.0
  0
LINE
  5
846
330
18
100
AcDbEntity
  8
Object
100
AcDbLine
 10
4.051999999999999
 20
14.56990094830544
 30
0.0
 11
4.021
 21
14.56990094830544
 31
0.0
  0
LINE
  5
847
330
18
100
AcDbEntity
  8
Object
100
AcDbLine
 10
4.021
 20
14.56990094830544
 30
0.0
 11
3.996
 21
14.56990094830544
 31
0.0
  0
LINE
  5
848
330
18
100
AcDbEntity
  8
Object
100
AcDbLine
 10
3.996
 20
14.56990094830544
 30
0.0
 11
3.977999999999999
 21
14.56990094830544
 31
0.0
  0
LINE
  5
849
330
18
100
AcDbEntity
  8
Object
100
AcDbLine
 10
3.977999999999999
 20
14.56990094830544
 30
0.0
 11
3.971
 21
14.56990094830544
 31
0.0
  0
LINE
  5
84A
330
18
100
AcDbEntity
  8
Object
100
AcDbLine
 10
3.971
 20
14.56990094830544
 30
0.0
 11
3.968999999999999
 21
14.56990094830544
 31
0.0
  0
LINE
  5
84B
330
18
100
AcDbEntity
  8
Object
100
AcDbLine
 10
3.968999999999999
 20
14.56990094830544
 30
0.0
 11
3.963
 21
14.56990094830544
 31
0.0
  0
LINE
  5
84C
330
18
100
AcDbEntity
  8
Object
100
AcDbLine
 10
3.963
 20
14.56990094830544
 30
0.0
 11
3.955999999999999
 21
14.56990094830544
 31
0.0
  0
LINE
  5
84D
330
18
100
AcDbEntity
  8
Object
100
AcDbLine
 10
3.955999999999999
 20
14.56990094830544
 30
0.0
 11
3.448999999999999
 21
14.56990094830544
 31
0.0
  0
LINE
  5
84E
330
18
100
AcDbEntity
  8
Object
100
AcDbLine
 10
4.224
 20
14.16690094830544
 30
0.0
 11
4.216000000000001
 21
14.16690094830544
 31
0.0
  0
LINE
  5
84F
330
18
100
AcDbEntity
  8
Object
100
AcDbLine
 10
4.216000000000001
 20
14.16690094830544
 30
0.0
 11
4.051999999999999
 21
14.16690094830544
 31
0.0
  0
LINE
  5
850
330
18
100
AcDbEntity
  8
Object
100
AcDbLine
 10
4.051999999999999
 20
14.16690094830544
 30
0.0
 11
4.021
 21
14.16690094830544
 31
0.0
  0
LINE
  5
851
330
18
100
AcDbEntity
  8
Object
100
AcDbLine
 10
4.021
 20
14.16690094830544
 30
0.0
 11
3.996
 21
14.16690094830544
 31
0.0
  0
LINE
  5
852
330
18
100
AcDbEntity
  8
Object
100
AcDbLine
 10
3.996
 20
14.16690094830544
 30
0.0
 11
3.977999999999999
 21
14.16690094830544
 31
0.0
  0
LINE
  5
853
330
18
100
AcDbEntity
  8
Object
100
AcDbLine
 10
3.977999999999999
 20
14.16690094830544
 30
0.0
 11
3.971
 21
14.16690094830544
 31
0.0
  0
LINE
  5
854
330
18
100
AcDbEntity
  8
Object
100
AcDbLine
 10
3.971
 20
14.16690094830544
 30
0.0
 11
3.968999999999999
 21
14.16690094830544
 31
0.0
  0
LINE
  5
855
330
18
100
AcDbEntity
  8
Object
100
AcDbLine
 10
3.968999999999999
 20
14.16690094830544
 30
0.0
 11
3.963
 21
14.16690094830544
 31
0.0
  0
LINE
  5
856
330
18
100
AcDbEntity
  8
Object
100
AcDbLine
 10
3.963
 20
14.16690094830544
 30
0.0
 11
3.955999999999999
 21
14.16690094830544
 31
0.0
  0
LINE
  5
857
330
18
100
AcDbEntity
  8
Object
100
AcDbLine
 10
3.955999999999999
 20
14.16690094830544
 30
0.0
 11
3.906
 21
14.16690094830544
 31
0.0
  0
LINE
  5
858
330
18
100
AcDbEntity
  8
Object
100
AcDbLine
 10
3.906
 20
14.16690094830544
 30
0.0
 11
3.884
 21
14.16090094830544
 31
0.0
  0
LINE
  5
859
330
18
100
AcDbEntity
  8
Object
100
AcDbLine
 10
3.906
 20
14.07690094830544
 30
0.0
 11
3.884
 21
14.08290094830544
 31
0.0
  0
LINE
  5
85A
330
18
100
AcDbEntity
  8
Object
100
AcDbLine
 10
3.884
 20
14.08290094830544
 30
0.0
 11
3.867
 21
14.09890094830544
 31
0.0
  0
LINE
  5
85B
330
18
100
AcDbEntity
  8
Object
100
AcDbLine
 10
3.884
 20
14.16090094830544
 30
0.0
 11
3.867
 21
14.14390094830544
 31
0.0
  0
LINE
  5
85C
330
18
100
AcDbEntity
  8
Object
100
AcDbLine
 10
3.867
 20
14.14390094830544
 30
0.0
 11
3.861
 21
14.12190094830544
 31
0.0
  0
LINE
  5
85D
330
18
100
AcDbEntity
  8
Object
100
AcDbLine
 10
3.861
 20
14.12190094830544
 30
0.0
 11
3.867
 21
14.09890094830544
 31
0.0
  0
LINE
  5
85E
330
18
100
AcDbEntity
  8
Object
100
AcDbLine
 10
3.906
 20
13.81290094830544
 30
0.0
 11
3.926
 21
13.81290094830544
 31
0.0
  0
LINE
  5
85F
330
18
100
AcDbEntity
  8
Object
100
AcDbLine
 10
3.971
 20
14.07690094830544
 30
0.0
 11
3.99
 21
14.07690094830544
 31
0.0
  0
LINE
  5
860
330
18
100
AcDbEntity
  8
Object
100
AcDbLine
 10
3.99
 20
14.07690094830544
 30
0.0
 11
3.99
 21
13.81290094830544
 31
0.0
  0
LINE
  5
861
330
18
100
AcDbEntity
  8
Object
100
AcDbLine
 10
3.99
 20
13.81290094830544
 30
0.0
 11
3.971
 21
13.81290094830544
 31
0.0
  0
LINE
  5
862
330
18
100
AcDbEntity
  8
Object
100
AcDbLine
 10
3.971
 20
13.81290094830544
 30
0.0
 11
3.948999999999999
 21
13.81290094830544
 31
0.0
  0
LINE
  5
863
330
18
100
AcDbEntity
  8
Object
100
AcDbLine
 10
3.971
 20
14.07690094830544
 30
0.0
 11
3.948999999999999
 21
14.07690094830544
 31
0.0
  0
LINE
  5
864
330
18
100
AcDbEntity
  8
Object
100
AcDbLine
 10
3.926
 20
13.81290094830544
 30
0.0
 11
3.948999999999999
 21
13.81290094830544
 31
0.0
  0
LINE
  5
865
330
18
100
AcDbEntity
  8
Object
100
AcDbLine
 10
3.948999999999999
 20
14.07690094830544
 30
0.0
 11
3.926
 21
14.07690094830544
 31
0.0
  0
LINE
  5
866
330
18
100
AcDbEntity
  8
Object
100
AcDbLine
 10
3.99
 20
14.07690094830544
 30
0.0
 11
3.971
 21
14.07690094830544
 31
0.0
  0
LINE
  5
867
330
18
100
AcDbEntity
  8
Object
100
AcDbLine
 10
3.971
 20
14.07690094830544
 30
0.0
 11
3.948999999999999
 21
14.07690094830544
 31
0.0
  0
LINE
  5
868
330
18
100
AcDbEntity
  8
Object
100
AcDbLine
 10
3.948999999999999
 20
14.07690094830544
 30
0.0
 11
3.926
 21
14.07690094830544
 31
0.0
  0
LINE
  5
869
330
18
100
AcDbEntity
  8
Object
100
AcDbLine
 10
4.021
 20
14.56990094830544
 30
0.0
 11
4.051999999999999
 21
14.56990094830544
 31
0.0
  0
LINE
  5
86A
330
18
100
AcDbEntity
  8
Object
100
AcDbLine
 10
4.051999999999999
 20
14.56990094830544
 30
0.0
 11
4.051999999999999
 21
14.16690094830544
 31
0.0
  0
LINE
  5
86B
330
18
100
AcDbEntity
  8
Object
100
AcDbLine
 10
4.051999999999999
 20
14.16690094830544
 30
0.0
 11
4.021
 21
14.16690094830544
 31
0.0
  0
LINE
  5
86C
330
18
100
AcDbEntity
  8
Object
100
AcDbLine
 10
4.021
 20
14.56990094830544
 30
0.0
 11
3.996
 21
14.56990094830544
 31
0.0
  0
LINE
  5
86D
330
18
100
AcDbEntity
  8
Object
100
AcDbLine
 10
4.021
 20
14.16690094830544
 30
0.0
 11
3.996
 21
14.16690094830544
 31
0.0
  0
LINE
  5
86E
330
18
100
AcDbEntity
  8
Object
100
AcDbLine
 10
3.996
 20
14.16690094830544
 30
0.0
 11
3.977999999999999
 21
14.16690094830544
 31
0.0
  0
LINE
  5
86F
330
18
100
AcDbEntity
  8
Object
100
AcDbLine
 10
3.996
 20
14.56990094830544
 30
0.0
 11
3.977999999999999
 21
14.56990094830544
 31
0.0
  0
LINE
  5
870
330
18
100
AcDbEntity
  8
Object
100
AcDbLine
 10
3.977999999999999
 20
14.56990094830544
 30
0.0
 11
3.971
 21
14.56990094830544
 31
0.0
  0
LINE
  5
871
330
18
100
AcDbEntity
  8
Object
100
AcDbLine
 10
3.971
 20
14.16690094830544
 30
0.0
 11
3.977999999999999
 21
14.16690094830544
 31
0.0
  0
LINE
  5
872
330
18
100
AcDbEntity
  8
Object
100
AcDbLine
 10
4.256
 20
14.52990094830544
 30
0.0
 11
4.25
 21
14.54990094830544
 31
0.0
  0
LINE
  5
873
330
18
100
AcDbEntity
  8
Object
100
AcDbLine
 10
4.216000000000001
 20
14.56990094830544
 30
0.0
 11
4.236
 21
14.56390094830544
 31
0.0
  0
LINE
  5
874
330
18
100
AcDbEntity
  8
Object
100
AcDbLine
 10
4.236
 20
14.56390094830544
 30
0.0
 11
4.25
 21
14.54990094830544
 31
0.0
  0
LINE
  5
875
330
18
100
AcDbEntity
  8
Object
100
AcDbLine
 10
4.256
 20
14.20690094830544
 30
0.0
 11
4.25
 21
14.18690094830544
 31
0.0
  0
LINE
  5
876
330
18
100
AcDbEntity
  8
Object
100
AcDbLine
 10
4.25
 20
14.18690094830544
 30
0.0
 11
4.236
 21
14.17190094830544
 31
0.0
  0
LINE
  5
877
330
18
100
AcDbEntity
  8
Object
100
AcDbLine
 10
4.236
 20
14.17190094830544
 30
0.0
 11
4.216000000000001
 21
14.16690094830544
 31
0.0
  0
LINE
  5
878
330
18
100
AcDbEntity
  8
Object
100
AcDbLine
 10
4.216000000000001
 20
14.56990094830544
 30
0.0
 11
4.051999999999999
 21
14.56990094830544
 31
0.0
  0
LINE
  5
879
330
18
100
AcDbEntity
  8
Object
100
AcDbLine
 10
4.051999999999999
 20
14.16690094830544
 30
0.0
 11
4.216000000000001
 21
14.16690094830544
 31
0.0
  0
LINE
  5
87A
330
18
100
AcDbEntity
  8
Object
100
AcDbLine
 10
4.256
 20
14.20690094830544
 30
0.0
 11
4.256
 21
14.52990094830544
 31
0.0
  0
LINE
  5
87B
330
18
100
AcDbEntity
  8
Object
100
AcDbLine
 10
4.243999999999999
 20
14.56390094830544
 30
0.0
 11
4.224
 21
14.56990094830544
 31
0.0
  0
LINE
  5
87C
330
18
100
AcDbEntity
  8
Object
100
AcDbLine
 10
4.224
 20
14.56990094830544
 30
0.0
 11
4.216000000000001
 21
14.56990094830544
 31
0.0
  0
LINE
  5
87D
330
18
100
AcDbEntity
  8
Object
100
AcDbLine
 10
4.262999999999999
 20
14.52990094830544
 30
0.0
 11
4.257999999999999
 21
14.54990094830544
 31
0.0
  0
LINE
  5
87E
330
18
100
AcDbEntity
  8
Object
100
AcDbLine
 10
4.257999999999999
 20
14.54990094830544
 30
0.0
 11
4.243999999999999
 21
14.56390094830544
 31
0.0
  0
LINE
  5
87F
330
18
100
AcDbEntity
  8
Object
100
AcDbLine
 10
4.257999999999999
 20
14.18690094830544
 30
0.0
 11
4.243999999999999
 21
14.17190094830544
 31
0.0
  0
LINE
  5
880
330
18
100
AcDbEntity
  8
Object
100
AcDbLine
 10
4.243999999999999
 20
14.17190094830544
 30
0.0
 11
4.224
 21
14.16690094830544
 31
0.0
  0
LINE
  5
881
330
18
100
AcDbEntity
  8
Object
100
AcDbLine
 10
4.257999999999999
 20
14.18690094830544
 30
0.0
 11
4.262999999999999
 21
14.20690094830544
 31
0.0
  0
LINE
  5
882
330
18
100
AcDbEntity
  8
Object
100
AcDbLine
 10
4.262999999999999
 20
14.20690094830544
 30
0.0
 11
4.262999999999999
 21
14.52990094830544
 31
0.0
  0
LINE
  5
883
330
18
100
AcDbEntity
  8
Object
100
AcDbLine
 10
4.262999999999999
 20
14.20690094830544
 30
0.0
 11
4.256
 21
14.20690094830544
 31
0.0
  0
LINE
  5
884
330
18
100
AcDbEntity
  8
Object
100
AcDbLine
 10
4.216000000000001
 20
14.16690094830544
 30
0.0
 11
4.224
 21
14.16690094830544
 31
0.0
  0
LINE
  5
885
330
18
100
AcDbEntity
  8
Object
100
AcDbLine
 10
3.99
 20
13.81290094830544
 30
0.0
 11
3.971
 21
13.81290094830544
 31
0.0
  0
LINE
  5
886
330
18
100
AcDbEntity
  8
Object
100
AcDbLine
 10
3.971
 20
13.81290094830544
 30
0.0
 11
3.948999999999999
 21
13.81290094830544
 31
0.0
  0
LINE
  5
887
330
18
100
AcDbEntity
  8
Object
100
AcDbLine
 10
3.948999999999999
 20
13.81290094830544
 30
0.0
 11
3.926
 21
13.81290094830544
 31
0.0
  0
LINE
  5
888
330
18
100
AcDbEntity
  8
Object
100
AcDbLine
 10
3.99
 20
13.81290094830544
 30
0.0
 11
4.256
 21
13.81290094830544
 31
0.0
  0
LINE
  5
889
330
18
100
AcDbEntity
  8
Object
100
AcDbLine
 10
4.256
 20
14.07690094830544
 30
0.0
 11
3.99
 21
14.07690094830544
 31
0.0
  0
LINE
  5
88A
330
18
100
AcDbEntity
  8
Object
100
AcDbLine
 10
3.99
 20
14.07690094830544
 30
0.0
 11
4.256
 21
14.07690094830544
 31
0.0
  0
LINE
  5
88B
330
18
100
AcDbEntity
  8
Object
100
AcDbLine
 10
4.262999999999999
 20
14.52990094830544
 30
0.0
 11
4.256
 21
14.52990094830544
 31
0.0
  0
LINE
  5
88C
330
18
100
AcDbEntity
  8
Object
100
AcDbLine
 10
3.99
 20
13.81290094830544
 30
0.0
 11
4.256
 21
13.81290094830544
 31
0.0
  0
LINE
  5
88D
330
18
100
AcDbEntity
  8
Object
100
AcDbLine
 10
4.277000000000001
 20
13.84290094830544
 30
0.0
 11
4.274
 21
13.82790094830544
 31
0.0
  0
LINE
  5
88E
330
18
100
AcDbEntity
  8
Object
100
AcDbLine
 10
4.274
 20
13.82790094830544
 30
0.0
 11
4.266
 21
13.81690094830544
 31
0.0
  0
LINE
  5
88F
330
18
100
AcDbEntity
  8
Object
100
AcDbLine
 10
4.266
 20
13.81690094830544
 30
0.0
 11
4.256
 21
13.81290094830544
 31
0.0
  0
LINE
  5
890
330
18
100
AcDbEntity
  8
Object
100
AcDbLine
 10
4.277000000000001
 20
13.84290094830544
 30
0.0
 11
4.277000000000001
 21
14.04690094830544
 31
0.0
  0
LINE
  5
891
330
18
100
AcDbEntity
  8
Object
100
AcDbLine
 10
4.277000000000001
 20
14.04690094830544
 30
0.0
 11
4.274
 21
14.06190094830544
 31
0.0
  0
LINE
  5
892
330
18
100
AcDbEntity
  8
Object
100
AcDbLine
 10
4.274
 20
14.06190094830544
 30
0.0
 11
4.266
 21
14.07290094830544
 31
0.0
  0
LINE
  5
893
330
18
100
AcDbEntity
  8
Object
100
AcDbLine
 10
4.266
 20
14.07290094830544
 30
0.0
 11
4.256
 21
14.07690094830544
 31
0.0
  0
LINE
  5
894
330
18
100
AcDbEntity
  8
Object
100
AcDbLine
 10
3.746
 20
13.97290094830544
 30
0.0
 11
3.739
 21
13.99690094830544
 31
0.0
  0
LINE
  5
895
330
18
100
AcDbEntity
  8
Object
100
AcDbLine
 10
3.739
 20
13.99690094830544
 30
0.0
 11
3.714
 21
14.03190094830544
 31
0.0
  0
LINE
  5
896
330
18
100
AcDbEntity
  8
Object
100
AcDbLine
 10
3.714
 20
14.03190094830544
 30
0.0
 11
3.679999999999999
 21
14.05690094830544
 31
0.0
  0
LINE
  5
897
330
18
100
AcDbEntity
  8
Object
100
AcDbLine
 10
3.679999999999999
 20
14.05690094830544
 30
0.0
 11
3.684000000000001
 21
14.05490094830544
 31
0.0
  0
LINE
  5
898
330
18
100
AcDbEntity
  8
Object
100
AcDbLine
 10
3.676
 20
14.05790094830544
 30
0.0
 11
3.681
 21
14.05590094830544
 31
0.0
  0
LINE
  5
899
330
18
100
AcDbEntity
  8
Object
100
AcDbLine
 10
3.638999999999999
 20
14.06890094830544
 30
0.0
 11
3.661999999999999
 21
14.06390094830544
 31
0.0
  0
LINE
  5
89A
330
18
100
AcDbEntity
  8
Object
100
AcDbLine
 10
3.661999999999999
 20
14.06390094830544
 30
0.0
 11
3.679999999999999
 21
14.05690094830544
 31
0.0
  0
LINE
  5
89B
330
18
100
AcDbEntity
  8
Object
100
AcDbLine
 10
3.679999999999999
 20
14.05690094830544
 30
0.0
 11
3.638999999999999
 21
14.06890094830544
 31
0.0
  0
LINE
  5
89C
330
18
100
AcDbEntity
  8
Object
100
AcDbLine
 10
3.743999999999999
 20
13.97190094830544
 30
0.0
 11
3.745
 21
13.94590094830544
 31
0.0
  0
LINE
  5
89D
330
18
100
AcDbEntity
  8
Object
100
AcDbLine
 10
3.835
 20
13.94490094830544
 30
0.0
 11
3.827999999999999
 21
13.99890094830544
 31
0.0
  0
LINE
  5
89E
330
18
100
AcDbEntity
  8
Object
100
AcDbLine
 10
3.745
 20
13.94590094830544
 30
0.0
 11
3.739
 21
13.92090094830544
 31
0.0
  0
LINE
  5
89F
330
18
100
AcDbEntity
  8
Object
100
AcDbLine
 10
3.827999999999999
 20
13.99890094830544
 30
0.0
 11
3.807
 21
14.04990094830544
 31
0.0
  0
LINE
  5
8A0
330
18
100
AcDbEntity
  8
Object
100
AcDbLine
 10
3.739
 20
13.99690094830544
 30
0.0
 11
3.743999999999999
 21
13.97190094830544
 31
0.0
  0
LINE
  5
8A1
330
18
100
AcDbEntity
  8
Object
100
AcDbLine
 10
3.835
 20
13.94490094830544
 30
0.0
 11
3.827999999999999
 21
13.88990094830544
 31
0.0
  0
LINE
  5
8A2
330
18
100
AcDbEntity
  8
Object
100
AcDbLine
 10
3.827999999999999
 20
13.88990094830544
 30
0.0
 11
3.807
 21
13.83990094830544
 31
0.0
  0
LINE
  5
8A3
330
18
100
AcDbEntity
  8
Object
100
AcDbLine
 10
3.739
 20
13.92090094830544
 30
0.0
 11
3.733
 21
13.90990094830544
 31
0.0
  0
LINE
  5
8A4
330
18
100
AcDbEntity
  8
Object
100
AcDbLine
 10
3.73
 20
14.12590094830544
 30
0.0
 11
3.774
 21
14.09290094830544
 31
0.0
  0
LINE
  5
8A5
330
18
100
AcDbEntity
  8
Object
100
AcDbLine
 10
3.774
 20
14.09290094830544
 30
0.0
 11
3.807
 21
14.04990094830544
 31
0.0
  0
LINE
  5
8A6
330
18
100
AcDbEntity
  8
Object
100
AcDbLine
 10
3.807
 20
13.83990094830544
 30
0.0
 11
3.774
 21
13.79590094830544
 31
0.0
  0
LINE
  5
8A7
330
18
100
AcDbEntity
  8
Object
100
AcDbLine
 10
3.774
 20
13.79590094830544
 30
0.0
 11
3.73
 21
13.76290094830544
 31
0.0
  0
LINE
  5
8A8
330
18
100
AcDbEntity
  8
Object
100
AcDbLine
 10
3.73
 20
14.12590094830544
 30
0.0
 11
3.679999999999999
 21
14.14690094830544
 31
0.0
  0
LINE
  5
8A9
330
18
100
AcDbEntity
  8
Object
100
AcDbLine
 10
3.679999999999999
 20
13.74190094830544
 30
0.0
 11
3.73
 21
13.76290094830544
 31
0.0
  0
LINE
  5
8AA
330
18
100
AcDbEntity
  8
Object
100
AcDbLine
 10
3.679999999999999
 20
14.14690094830544
 30
0.0
 11
3.625
 21
14.15490094830544
 31
0.0
  0
LINE
  5
8AB
330
18
100
AcDbEntity
  8
Object
100
AcDbLine
 10
3.625
 20
13.73490094830544
 30
0.0
 11
3.679999999999999
 21
13.74190094830544
 31
0.0
  0
LINE
  5
8AC
330
18
100
AcDbEntity
  8
Object
100
AcDbLine
 10
3.638999999999999
 20
14.06890094830544
 30
0.0
 11
3.614
 21
14.06590094830544
 31
0.0
  0
LINE
  5
8AD
330
18
100
AcDbEntity
  8
Object
100
AcDbLine
 10
3.614
 20
14.06590094830544
 30
0.0
 11
3.589
 21
14.05790094830544
 31
0.0
  0
LINE
  5
8AE
330
18
100
AcDbEntity
  8
Object
100
AcDbLine
 10
3.589
 20
14.05790094830544
 30
0.0
 11
3.567
 21
14.04490094830544
 31
0.0
  0
LINE
  5
8AF
330
18
100
AcDbEntity
  8
Object
100
AcDbLine
 10
3.442999999999999
 20
13.83990094830544
 30
0.0
 11
3.477
 21
13.79590094830544
 31
0.0
  0
LINE
  5
8B0
330
18
100
AcDbEntity
  8
Object
100
AcDbLine
 10
3.442999999999999
 20
14.04990094830544
 30
0.0
 11
3.422
 21
13.99890094830544
 31
0.0
  0
LINE
  5
8B1
330
18
100
AcDbEntity
  8
Object
100
AcDbLine
 10
3.422
 20
13.88990094830544
 30
0.0
 11
3.442999999999999
 21
13.83990094830544
 31
0.0
  0
LINE
  5
8B2
330
18
100
AcDbEntity
  8
Object
100
AcDbLine
 10
3.739
 20
13.99290094830544
 30
0.0
 11
3.736
 21
14.00090094830544
 31
0.0
  0
LINE
  5
8B3
330
18
100
AcDbEntity
  8
Object
100
AcDbLine
 10
3.714
 20
14.03090094830544
 30
0.0
 11
3.711999999999999
 21
14.03290094830544
 31
0.0
  0
LINE
  5
8B4
330
18
100
AcDbEntity
  8
Object
100
AcDbLine
 10
3.838
 20
14.00190094830544
 30
0.0
 11
3.845
 21
13.94490094830544
 31
0.0
  0
LINE
  5
8B5
330
18
100
AcDbEntity
  8
Object
100
AcDbLine
 10
3.845
 20
13.94490094830544
 30
0.0
 11
3.838
 21
13.88790094830544
 31
0.0
  0
LINE
  5
8B6
330
18
100
AcDbEntity
  8
Object
100
AcDbLine
 10
3.838
 20
14.00190094830544
 30
0.0
 11
3.816
 21
14.05490094830544
 31
0.0
  0
LINE
  5
8B7
330
18
100
AcDbEntity
  8
Object
100
AcDbLine
 10
3.838
 20
13.88790094830544
 30
0.0
 11
3.816
 21
13.83490094830544
 31
0.0
  0
LINE
  5
8B8
330
18
100
AcDbEntity
  8
Object
100
AcDbLine
 10
3.816
 20
13.83490094830544
 30
0.0
 11
3.781
 21
13.78890094830544
 31
0.0
  0
LINE
  5
8B9
330
18
100
AcDbEntity
  8
Object
100
AcDbLine
 10
3.816
 20
14.05490094830544
 30
0.0
 11
3.781
 21
14.09990094830544
 31
0.0
  0
LINE
  5
8BA
330
18
100
AcDbEntity
  8
Object
100
AcDbLine
 10
3.781
 20
14.09990094830544
 30
0.0
 11
3.734999999999999
 21
14.13490094830544
 31
0.0
  0
LINE
  5
8BB
330
18
100
AcDbEntity
  8
Object
100
AcDbLine
 10
3.734999999999999
 20
13.75390094830544
 30
0.0
 11
3.781
 21
13.78890094830544
 31
0.0
  0
LINE
  5
8BC
330
18
100
AcDbEntity
  8
Object
100
AcDbLine
 10
3.734999999999999
 20
14.13490094830544
 30
0.0
 11
3.682
 21
14.15690094830544
 31
0.0
  0
LINE
  5
8BD
330
18
100
AcDbEntity
  8
Object
100
AcDbLine
 10
3.682
 20
13.73190094830544
 30
0.0
 11
3.734999999999999
 21
13.75390094830544
 31
0.0
  0
LINE
  5
8BE
330
18
100
AcDbEntity
  8
Object
100
AcDbLine
 10
3.682
 20
14.15690094830544
 30
0.0
 11
3.625
 21
14.16490094830544
 31
0.0
  0
LINE
  5
8BF
330
18
100
AcDbEntity
  8
Object
100
AcDbLine
 10
3.625
 20
13.72490094830544
 30
0.0
 11
3.682
 21
13.73190094830544
 31
0.0
  0
LINE
  5
8C0
330
18
100
AcDbEntity
  8
Object
100
AcDbLine
 10
3.567999999999999
 20
14.15690094830544
 30
0.0
 11
3.625
 21
14.16490094830544
 31
0.0
  0
LINE
  5
8C1
330
18
100
AcDbEntity
  8
Object
100
AcDbLine
 10
3.625
 20
14.16490094830544
 30
0.0
 11
3.625
 21
14.15490094830544
 31
0.0
  0
LINE
  5
8C2
330
18
100
AcDbEntity
  8
Object
100
AcDbLine
 10
3.625
 20
14.15490094830544
 30
0.0
 11
3.570999999999999
 21
14.14690094830544
 31
0.0
  0
LINE
  5
8C3
330
18
100
AcDbEntity
  8
Object
100
AcDbLine
 10
3.570999999999999
 20
13.74190094830544
 30
0.0
 11
3.625
 21
13.73490094830544
 31
0.0
  0
LINE
  5
8C4
330
18
100
AcDbEntity
  8
Object
100
AcDbLine
 10
3.625
 20
13.73490094830544
 30
0.0
 11
3.625
 21
13.72490094830544
 31
0.0
  0
LINE
  5
8C5
330
18
100
AcDbEntity
  8
Object
100
AcDbLine
 10
3.625
 20
13.72490094830544
 30
0.0
 11
3.567999999999999
 21
13.73190094830544
 31
0.0
  0
LINE
  5
8C6
330
18
100
AcDbEntity
  8
Object
100
AcDbLine
 10
3.519999999999999
 20
14.12590094830544
 30
0.0
 11
3.570999999999999
 21
14.14690094830544
 31
0.0
  0
LINE
  5
8C7
330
18
100
AcDbEntity
  8
Object
100
AcDbLine
 10
3.567999999999999
 20
14.15690094830544
 30
0.0
 11
3.515
 21
14.13490094830544
 31
0.0
  0
LINE
  5
8C8
330
18
100
AcDbEntity
  8
Object
100
AcDbLine
 10
3.515
 20
13.75390094830544
 30
0.0
 11
3.567999999999999
 21
13.73190094830544
 31
0.0
  0
LINE
  5
8C9
330
18
100
AcDbEntity
  8
Object
100
AcDbLine
 10
3.570999999999999
 20
13.74190094830544
 30
0.0
 11
3.519999999999999
 21
13.76290094830544
 31
0.0
  0
LINE
  5
8CA
330
18
100
AcDbEntity
  8
Object
100
AcDbLine
 10
3.515
 20
14.13490094830544
 30
0.0
 11
3.47
 21
14.09990094830544
 31
0.0
  0
LINE
  5
8CB
330
18
100
AcDbEntity
  8
Object
100
AcDbLine
 10
3.477
 20
14.09290094830544
 30
0.0
 11
3.519999999999999
 21
14.12590094830544
 31
0.0
  0
LINE
  5
8CC
330
18
100
AcDbEntity
  8
Object
100
AcDbLine
 10
3.519999999999999
 20
13.76290094830544
 30
0.0
 11
3.477
 21
13.79590094830544
 31
0.0
  0
LINE
  5
8CD
330
18
100
AcDbEntity
  8
Object
100
AcDbLine
 10
3.47
 20
13.78890094830544
 30
0.0
 11
3.515
 21
13.75390094830544
 31
0.0
  0
LINE
  5
8CE
330
18
100
AcDbEntity
  8
Object
100
AcDbLine
 10
3.442999999999999
 20
14.04990094830544
 30
0.0
 11
3.477
 21
14.09290094830544
 31
0.0
  0
LINE
  5
8CF
330
18
100
AcDbEntity
  8
Object
100
AcDbLine
 10
3.47
 20
14.09990094830544
 30
0.0
 11
3.435
 21
14.05490094830544
 31
0.0
  0
LINE
  5
8D0
330
18
100
AcDbEntity
  8
Object
100
AcDbLine
 10
3.435
 20
13.83490094830544
 30
0.0
 11
3.47
 21
13.78890094830544
 31
0.0
  0
LINE
  5
8D1
330
18
100
AcDbEntity
  8
Object
100
AcDbLine
 10
3.422
 20
13.88990094830544
 30
0.0
 11
3.414999999999999
 21
13.94490094830544
 31
0.0
  0
LINE
  5
8D2
330
18
100
AcDbEntity
  8
Object
100
AcDbLine
 10
3.435
 20
14.05490094830544
 30
0.0
 11
3.413
 21
14.00190094830544
 31
0.0
  0
LINE
  5
8D3
330
18
100
AcDbEntity
  8
Object
100
AcDbLine
 10
3.414999999999999
 20
13.94490094830544
 30
0.0
 11
3.422
 21
13.99890094830544
 31
0.0
  0
LINE
  5
8D4
330
18
100
AcDbEntity
  8
Object
100
AcDbLine
 10
3.435
 20
13.83490094830544
 30
0.0
 11
3.413
 21
13.88790094830544
 31
0.0
  0
LINE
  5
8D5
330
18
100
AcDbEntity
  8
Object
100
AcDbLine
 10
3.413
 20
13.88790094830544
 30
0.0
 11
3.405000000000001
 21
13.94490094830544
 31
0.0
  0
LINE
  5
8D6
330
18
100
AcDbEntity
  8
Object
100
AcDbLine
 10
3.405000000000001
 20
13.94490094830544
 30
0.0
 11
3.413
 21
14.00190094830544
 31
0.0
  0
LINE
  5
8D7
330
18
100
AcDbEntity
  8
Object
100
AcDbLine
 10
3.838
 20
14.00190094830544
 30
0.0
 11
3.845
 21
13.94490094830544
 31
0.0
  0
LINE
  5
8D8
330
18
100
AcDbEntity
  8
Object
100
AcDbLine
 10
3.845
 20
13.94490094830544
 30
0.0
 11
3.838
 21
13.88790094830544
 31
0.0
  0
LINE
  5
8D9
330
18
100
AcDbEntity
  8
Object
100
AcDbLine
 10
3.838
 20
13.88790094830544
 30
0.0
 11
3.816
 21
13.83490094830544
 31
0.0
  0
LINE
  5
8DA
330
18
100
AcDbEntity
  8
Object
100
AcDbLine
 10
3.838
 20
14.00190094830544
 30
0.0
 11
3.816
 21
14.05490094830544
 31
0.0
  0
LINE
  5
8DB
330
18
100
AcDbEntity
  8
Object
100
AcDbLine
 10
3.816
 20
14.05490094830544
 30
0.0
 11
3.781
 21
14.09990094830544
 31
0.0
  0
LINE
  5
8DC
330
18
100
AcDbEntity
  8
Object
100
AcDbLine
 10
3.816
 20
13.83490094830544
 30
0.0
 11
3.781
 21
13.78890094830544
 31
0.0
  0
LINE
  5
8DD
330
18
100
AcDbEntity
  8
Object
100
AcDbLine
 10
3.781
 20
13.78890094830544
 30
0.0
 11
3.734999999999999
 21
13.75390094830544
 31
0.0
  0
LINE
  5
8DE
330
18
100
AcDbEntity
  8
Object
100
AcDbLine
 10
3.781
 20
14.09990094830544
 30
0.0
 11
3.734999999999999
 21
14.13490094830544
 31
0.0
  0
LINE
  5
8DF
330
18
100
AcDbEntity
  8
Object
100
AcDbLine
 10
3.734999999999999
 20
14.13490094830544
 30
0.0
 11
3.682
 21
14.15690094830544
 31
0.0
  0
LINE
  5
8E0
330
18
100
AcDbEntity
  8
Object
100
AcDbLine
 10
3.682
 20
13.73190094830544
 30
0.0
 11
3.734999999999999
 21
13.75390094830544
 31
0.0
  0
LINE
  5
8E1
330
18
100
AcDbEntity
  8
Object
100
AcDbLine
 10
3.682
 20
14.15690094830544
 30
0.0
 11
3.625
 21
14.16490094830544
 31
0.0
  0
LINE
  5
8E2
330
18
100
AcDbEntity
  8
Object
100
AcDbLine
 10
3.682
 20
13.73190094830544
 30
0.0
 11
3.625
 21
13.72490094830544
 31
0.0
  0
LINE
  5
8E3
330
18
100
AcDbEntity
  8
Object
100
AcDbLine
 10
3.625
 20
13.72490094830544
 30
0.0
 11
3.567999999999999
 21
13.73190094830544
 31
0.0
  0
LINE
  5
8E4
330
18
100
AcDbEntity
  8
Object
100
AcDbLine
 10
3.625
 20
14.16490094830544
 30
0.0
 11
3.567999999999999
 21
14.15690094830544
 31
0.0
  0
LINE
  5
8E5
330
18
100
AcDbEntity
  8
Object
100
AcDbLine
 10
3.567999999999999
 20
14.15690094830544
 30
0.0
 11
3.515
 21
14.13490094830544
 31
0.0
  0
LINE
  5
8E6
330
18
100
AcDbEntity
  8
Object
100
AcDbLine
 10
3.567999999999999
 20
13.73190094830544
 30
0.0
 11
3.515
 21
13.75390094830544
 31
0.0
  0
LINE
  5
8E7
330
18
100
AcDbEntity
  8
Object
100
AcDbLine
 10
3.515
 20
13.75390094830544
 30
0.0
 11
3.47
 21
13.78890094830544
 31
0.0
  0
LINE
  5
8E8
330
18
100
AcDbEntity
  8
Object
100
AcDbLine
 10
3.515
 20
14.13490094830544
 30
0.0
 11
3.47
 21
14.09990094830544
 31
0.0
  0
LINE
  5
8E9
330
18
100
AcDbEntity
  8
Object
100
AcDbLine
 10
3.47
 20
14.09990094830544
 30
0.0
 11
3.435
 21
14.05490094830544
 31
0.0
  0
LINE
  5
8EA
330
18
100
AcDbEntity
  8
Object
100
AcDbLine
 10
3.47
 20
13.78890094830544
 30
0.0
 11
3.435
 21
13.83490094830544
 31
0.0
  0
LINE
  5
8EB
330
18
100
AcDbEntity
  8
Object
100
AcDbLine
 10
3.435
 20
13.83490094830544
 30
0.0
 11
3.413
 21
13.88790094830544
 31
0.0
  0
LINE
  5
8EC
330
18
100
AcDbEntity
  8
Object
100
AcDbLine
 10
3.435
 20
14.05490094830544
 30
0.0
 11
3.413
 21
14.00190094830544
 31
0.0
  0
LINE
  5
8ED
330
18
100
AcDbEntity
  8
Object
100
AcDbLine
 10
3.413
 20
14.00190094830544
 30
0.0
 11
3.405000000000001
 21
13.94490094830544
 31
0.0
  0
LINE
  5
8EE
330
18
100
AcDbEntity
  8
Object
100
AcDbLine
 10
3.405000000000001
 20
13.94490094830544
 30
0.0
 11
3.413
 21
13.88790094830544
 31
0.0
  0
LINE
  5
8EF
330
18
100
AcDbEntity
  8
Object
100
AcDbLine
 10
3.576999999999999
 20
14.03190094830544
 30
0.0
 11
3.586
 21
14.03690094830544
 31
0.0
  0
LINE
  5
8F0
330
18
100
AcDbEntity
  8
Object
100
AcDbLine
 10
3.571999999999999
 20
14.02890094830544
 30
0.0
 11
3.567999999999999
 21
14.02690094830544
 31
0.0
  0
LINE
  5
8F1
330
18
100
AcDbEntity
  8
Object
100
AcDbLine
 10
3.567999999999999
 20
14.02690094830544
 30
0.0
 11
3.553
 21
14.01390094830544
 31
0.0
  0
LINE
  5
8F2
330
18
100
AcDbEntity
  8
Object
100
AcDbLine
 10
3.544999999999999
 20
13.85190094830544
 30
0.0
 11
3.564
 21
13.83490094830544
 31
0.0
  0
LINE
  5
8F3
330
18
100
AcDbEntity
  8
Object
100
AcDbLine
 10
3.564
 20
13.83490094830544
 30
0.0
 11
3.532
 21
13.86090094830544
 31
0.0
  0
LINE
  5
8F4
330
18
100
AcDbEntity
  8
Object
100
AcDbLine
 10
3.544999999999999
 20
13.85190094830544
 30
0.0
 11
3.530000000000001
 21
13.87290094830544
 31
0.0
  0
LINE
  5
8F5
330
18
100
AcDbEntity
  8
Object
100
AcDbLine
 10
3.548999999999999
 20
14.04390094830544
 30
0.0
 11
3.521
 21
14.01290094830544
 31
0.0
  0
LINE
  5
8F6
330
18
100
AcDbEntity
  8
Object
100
AcDbLine
 10
3.513999999999999
 20
13.92190094830544
 30
0.0
 11
3.519
 21
13.89690094830544
 31
0.0
  0
LINE
  5
8F7
330
18
100
AcDbEntity
  8
Object
100
AcDbLine
 10
3.519
 20
13.89690094830544
 30
0.0
 11
3.530000000000001
 21
13.87290094830544
 31
0.0
  0
LINE
  5
8F8
330
18
100
AcDbEntity
  8
Object
100
AcDbLine
 10
3.509999999999999
 20
13.89590094830544
 30
0.0
 11
3.532
 21
13.86090094830544
 31
0.0
  0
LINE
  5
8F9
330
18
100
AcDbEntity
  8
Object
100
AcDbLine
 10
3.515
 20
13.94790094830544
 30
0.0
 11
3.522
 21
13.97190094830544
 31
0.0
  0
LINE
  5
8FA
330
18
100
AcDbEntity
  8
Object
100
AcDbLine
 10
3.521
 20
14.01290094830544
 30
0.0
 11
3.503999999999999
 21
13.97590094830544
 31
0.0
  0
LINE
  5
8FB
330
18
100
AcDbEntity
  8
Object
100
AcDbLine
 10
3.503999999999999
 20
13.97590094830544
 30
0.0
 11
3.5
 21
13.93490094830544
 31
0.0
  0
LINE
  5
8FC
330
18
100
AcDbEntity
  8
Object
100
AcDbLine
 10
3.513999999999999
 20
13.92190094830544
 30
0.0
 11
3.515
 21
13.94790094830544
 31
0.0
  0
LINE
  5
8FD
330
18
100
AcDbEntity
  8
Object
100
AcDbLine
 10
3.5
 20
13.93490094830544
 30
0.0
 11
3.509999999999999
 21
13.89590094830544
 31
0.0
  0
LINE
  5
8FE
330
18
100
AcDbEntity
  8
Object
100
AcDbLine
 10
3.736
 20
13.92190094830544
 30
0.0
 11
3.734999999999999
 21
13.94790094830544
 31
0.0
  0
LINE
  5
8FF
330
18
100
AcDbEntity
  8
Object
100
AcDbLine
 10
3.734999999999999
 20
13.94790094830544
 30
0.0
 11
3.727999999999999
 21
13.97290094830544
 31
0.0
  0
LINE
  5
900
330
18
100
AcDbEntity
  8
Object
100
AcDbLine
 10
3.727999999999999
 20
13.97290094830544
 30
0.0
 11
3.714999999999999
 21
13.99490094830544
 31
0.0
  0
LINE
  5
901
330
18
100
AcDbEntity
  8
Object
100
AcDbLine
 10
3.714999999999999
 20
13.99490094830544
 30
0.0
 11
3.698
 21
14.01390094830544
 31
0.0
  0
LINE
  5
902
330
18
100
AcDbEntity
  8
Object
100
AcDbLine
 10
3.705
 20
13.85190094830544
 30
0.0
 11
3.685999999999999
 21
13.83490094830544
 31
0.0
  0
LINE
  5
903
330
18
100
AcDbEntity
  8
Object
100
AcDbLine
 10
3.685999999999999
 20
13.83490094830544
 30
0.0
 11
3.666999999999999
 21
13.82790094830544
 31
0.0
  0
LINE
  5
904
330
18
100
AcDbEntity
  8
Object
100
AcDbLine
 10
3.66
 20
13.82490094830544
 30
0.0
 11
3.657
 21
13.82390094830544
 31
0.0
  0
LINE
  5
905
330
18
100
AcDbEntity
  8
Object
100
AcDbLine
 10
3.657
 20
13.82390094830544
 30
0.0
 11
3.653
 21
13.82290094830544
 31
0.0
  0
LINE
  5
906
330
18
100
AcDbEntity
  8
Object
100
AcDbLine
 10
3.714
 20
13.98990094830544
 30
0.0
 11
3.698
 21
14.01390094830544
 31
0.0
  0
LINE
  5
907
330
18
100
AcDbEntity
  8
Object
100
AcDbLine
 10
3.698
 20
14.01390094830544
 30
0.0
 11
3.695999999999999
 21
14.01490094830544
 31
0.0
  0
LINE
  5
908
330
18
100
AcDbEntity
  8
Object
100
AcDbLine
 10
3.695999999999999
 20
14.01490094830544
 30
0.0
 11
3.676999999999999
 21
14.02990094830544
 31
0.0
  0
LINE
  5
909
330
18
100
AcDbEntity
  8
Object
100
AcDbLine
 10
3.676999999999999
 20
14.02990094830544
 30
0.0
 11
3.663
 21
14.03690094830544
 31
0.0
  0
LINE
  5
90A
330
18
100
AcDbEntity
  8
Object
100
AcDbLine
 10
3.663
 20
14.03690094830544
 30
0.0
 11
3.652000000000001
 21
14.04090094830544
 31
0.0
  0
LINE
  5
90B
330
18
100
AcDbEntity
  8
Object
100
AcDbLine
 10
3.652000000000001
 20
14.04090094830544
 30
0.0
 11
3.625
 21
14.04490094830544
 31
0.0
  0
LINE
  5
90C
330
18
100
AcDbEntity
  8
Object
100
AcDbLine
 10
3.625
 20
13.81990094830544
 30
0.0
 11
3.603999999999999
 21
13.82090094830544
 31
0.0
  0
LINE
  5
90D
330
18
100
AcDbEntity
  8
Object
100
AcDbLine
 10
3.603999999999999
 20
13.82090094830544
 30
0.0
 11
3.600999999999999
 21
13.82190094830544
 31
0.0
  0
LINE
  5
90E
330
18
100
AcDbEntity
  8
Object
100
AcDbLine
 10
3.600999999999999
 20
13.82190094830544
 30
0.0
 11
3.583999999999999
 21
13.82690094830544
 31
0.0
  0
LINE
  5
90F
330
18
100
AcDbEntity
  8
Object
100
AcDbLine
 10
3.583999999999999
 20
13.82690094830544
 30
0.0
 11
3.576999999999999
 21
13.82890094830544
 31
0.0
  0
LINE
  5
910
330
18
100
AcDbEntity
  8
Object
100
AcDbLine
 10
3.576999999999999
 20
13.82890094830544
 30
0.0
 11
3.564
 21
13.83490094830544
 31
0.0
  0
LINE
  5
911
330
18
100
AcDbEntity
  8
Object
100
AcDbLine
 10
3.536999999999999
 20
13.85590094830544
 30
0.0
 11
3.556
 21
13.84090094830544
 31
0.0
  0
LINE
  5
912
330
18
100
AcDbEntity
  8
Object
100
AcDbLine
 10
3.556
 20
13.84090094830544
 30
0.0
 11
3.564
 21
13.83490094830544
 31
0.0
  0
LINE
  5
913
330
18
100
AcDbEntity
  8
Object
100
AcDbLine
 10
3.536999999999999
 20
13.85590094830544
 30
0.0
 11
3.532
 21
13.86090094830544
 31
0.0
  0
LINE
  5
914
330
18
100
AcDbEntity
  8
Object
100
AcDbLine
 10
3.532
 20
13.86090094830544
 30
0.0
 11
3.521
 21
13.87490094830544
 31
0.0
  0
LINE
  5
915
330
18
100
AcDbEntity
  8
Object
100
AcDbLine
 10
3.521
 20
13.87490094830544
 30
0.0
 11
3.509999999999999
 21
13.89590094830544
 31
0.0
  0
LINE
  5
916
330
18
100
AcDbEntity
  8
Object
100
AcDbLine
 10
3.506999999999999
 20
13.98490094830544
 30
0.0
 11
3.503999999999999
 21
13.97590094830544
 31
0.0
  0
LINE
  5
917
330
18
100
AcDbEntity
  8
Object
100
AcDbLine
 10
3.5
 20
13.93490094830544
 30
0.0
 11
3.503
 21
13.91990094830544
 31
0.0
  0
LINE
  5
918
330
18
100
AcDbEntity
  8
Object
100
AcDbLine
 10
3.503
 20
13.91990094830544
 30
0.0
 11
3.509999999999999
 21
13.89590094830544
 31
0.0
  0
LINE
  5
919
330
18
100
AcDbEntity
  8
Object
100
AcDbLine
 10
3.5
 20
13.94490094830544
 30
0.0
 11
3.5
 21
13.93490094830544
 31
0.0
  0
LINE
  5
91A
330
18
100
AcDbEntity
  8
Object
100
AcDbLine
 10
3.503999999999999
 20
13.97590094830544
 30
0.0
 11
3.503
 21
13.97290094830544
 31
0.0
  0
LINE
  5
91B
330
18
100
AcDbEntity
  8
Object
100
AcDbLine
 10
3.625
 20
14.04490094830544
 30
0.0
 11
3.605
 21
14.04290094830544
 31
0.0
  0
LINE
  5
91C
330
18
100
AcDbEntity
  8
Object
100
AcDbLine
 10
3.605
 20
14.04290094830544
 30
0.0
 11
3.625
 21
14.04490094830544
 31
0.0
  0
LINE
  5
91D
330
18
100
AcDbEntity
  8
Object
100
AcDbLine
 10
3.605
 20
14.04290094830544
 30
0.0
 11
3.597999999999998
 21
14.04090094830544
 31
0.0
  0
LINE
  5
91E
330
18
100
AcDbEntity
  8
Object
100
AcDbLine
 10
3.597999999999998
 20
14.04090094830544
 30
0.0
 11
3.586
 21
14.03690094830544
 31
0.0
  0
LINE
  5
91F
330
18
100
AcDbEntity
  8
Object
100
AcDbLine
 10
3.586
 20
14.03690094830544
 30
0.0
 11
3.573999999999999
 21
14.02990094830544
 31
0.0
  0
LINE
  5
920
330
18
100
AcDbEntity
  8
Object
100
AcDbLine
 10
3.573999999999999
 20
14.02990094830544
 30
0.0
 11
3.567999999999999
 21
14.02690094830544
 31
0.0
  0
LINE
  5
921
330
18
100
AcDbEntity
  8
Object
100
AcDbLine
 10
3.736
 20
13.92190094830544
 30
0.0
 11
3.730999999999999
 21
13.89690094830544
 31
0.0
  0
LINE
  5
922
330
18
100
AcDbEntity
  8
Object
100
AcDbLine
 10
3.730999999999999
 20
13.89690094830544
 30
0.0
 11
3.721
 21
13.87290094830544
 31
0.0
  0
LINE
  5
923
330
18
100
AcDbEntity
  8
Object
100
AcDbLine
 10
3.721
 20
13.87290094830544
 30
0.0
 11
3.705
 21
13.85190094830544
 31
0.0
  0
LINE
  5
924
330
18
100
AcDbEntity
  8
Object
100
AcDbLine
 10
3.666999999999999
 20
13.82690094830544
 30
0.0
 11
3.646
 21
13.82090094830544
 31
0.0
  0
LINE
  5
925
330
18
100
AcDbEntity
  8
Object
100
AcDbLine
 10
3.646
 20
13.82090094830544
 30
0.0
 11
3.625
 21
13.81990094830544
 31
0.0
  0
LINE
  5
926
330
18
100
AcDbEntity
  8
Object
100
AcDbLine
 10
3.625
 20
13.81990094830544
 30
0.0
 11
3.603999999999999
 21
13.82090094830544
 31
0.0
  0
LINE
  5
927
330
18
100
AcDbEntity
  8
Object
100
AcDbLine
 10
3.625
 20
14.04490094830544
 30
0.0
 11
3.652000000000001
 21
14.04090094830544
 31
0.0
  0
LINE
  5
928
330
18
100
AcDbEntity
  8
Object
100
AcDbLine
 10
3.652000000000001
 20
14.04090094830544
 30
0.0
 11
3.676999999999999
 21
14.02990094830544
 31
0.0
  0
LINE
  5
929
330
18
100
AcDbEntity
  8
Object
100
AcDbLine
 10
3.676999999999999
 20
14.02990094830544
 30
0.0
 11
3.698
 21
14.01390094830544
 31
0.0
  0
LINE
  5
92A
330
18
100
AcDbEntity
  8
Object
100
AcDbLine
 10
3.625
 20
14.04490094830544
 30
0.0
 11
3.597999999999998
 21
14.04090094830544
 31
0.0
  0
LINE
  5
92B
330
18
100
AcDbEntity
  8
Object
100
AcDbLine
 10
3.597999999999998
 20
14.04090094830544
 30
0.0
 11
3.573999999999999
 21
14.02990094830544
 31
0.0
  0
LINE
  5
92C
330
18
100
AcDbEntity
  8
Object
100
AcDbLine
 10
3.603999999999999
 20
13.82090094830544
 30
0.0
 11
3.583999999999999
 21
13.82690094830544
 31
0.0
  0
LINE
  5
92D
330
18
100
AcDbEntity
  8
Object
100
AcDbLine
 10
3.583999999999999
 20
13.82690094830544
 30
0.0
 11
3.564
 21
13.83490094830544
 31
0.0
  0
LINE
  5
92E
330
18
100
AcDbEntity
  8
Object
100
AcDbLine
 10
3.573999999999999
 20
14.02990094830544
 30
0.0
 11
3.553
 21
14.01390094830544
 31
0.0
  0
LINE
  5
92F
330
18
100
AcDbEntity
  8
Object
100
AcDbLine
 10
3.522
 20
13.97190094830544
 30
0.0
 11
3.535
 21
13.99490094830544
 31
0.0
  0
LINE
  5
930
330
18
100
AcDbEntity
  8
Object
100
AcDbLine
 10
3.535
 20
13.99490094830544
 30
0.0
 11
3.553
 21
14.01390094830544
 31
0.0
  0
LINE
  5
931
330
18
100
AcDbEntity
  8
Object
100
AcDbLine
 10
3.685999999999999
 20
13.83490094830544
 30
0.0
 11
3.666999999999999
 21
13.82690094830544
 31
0.0
  0
LINE
  5
932
330
18
100
AcDbEntity
  8
Object
100
AcDbLine
 10
3.666999999999999
 20
13.82690094830544
 30
0.0
 11
3.657
 21
13.82390094830544
 31
0.0
  0
LINE
  5
933
330
18
100
AcDbEntity
  8
Object
100
AcDbLine
 10
3.657
 20
13.82390094830544
 30
0.0
 11
3.646
 21
13.82090094830544
 31
0.0
  0
LINE
  5
934
330
18
100
AcDbEntity
  8
Object
100
AcDbLine
 10
3.646
 20
13.82090094830544
 30
0.0
 11
3.625
 21
13.81990094830544
 31
0.0
  0
LINE
  5
935
330
18
100
AcDbEntity
  8
Object
100
AcDbLine
 10
10.439
 20
14.16690094830544
 30
0.0
 11
10.389
 21
14.16690094830544
 31
0.0
  0
LINE
  5
936
330
18
100
AcDbEntity
  8
Object
100
AcDbLine
 10
10.389
 20
14.16690094830544
 30
0.0
 11
10.382
 21
14.16690094830544
 31
0.0
  0
LINE
  5
937
330
18
100
AcDbEntity
  8
Object
100
AcDbLine
 10
10.382
 20
14.16690094830544
 30
0.0
 11
10.376
 21
14.16690094830544
 31
0.0
  0
LINE
  5
938
330
18
100
AcDbEntity
  8
Object
100
AcDbLine
 10
10.376
 20
14.16690094830544
 30
0.0
 11
10.374
 21
14.16690094830544
 31
0.0
  0
LINE
  5
939
330
18
100
AcDbEntity
  8
Object
100
AcDbLine
 10
10.374
 20
14.16690094830544
 30
0.0
 11
10.367
 21
14.16690094830544
 31
0.0
  0
LINE
  5
93A
330
18
100
AcDbEntity
  8
Object
100
AcDbLine
 10
10.367
 20
14.16690094830544
 30
0.0
 11
10.35
 21
14.16690094830544
 31
0.0
  0
LINE
  5
93B
330
18
100
AcDbEntity
  8
Object
100
AcDbLine
 10
10.35
 20
14.16690094830544
 30
0.0
 11
10.324
 21
14.16690094830544
 31
0.0
  0
LINE
  5
93C
330
18
100
AcDbEntity
  8
Object
100
AcDbLine
 10
10.324
 20
14.16690094830544
 30
0.0
 11
10.294
 21
14.16690094830544
 31
0.0
  0
LINE
  5
93D
330
18
100
AcDbEntity
  8
Object
100
AcDbLine
 10
10.294
 20
14.16690094830544
 30
0.0
 11
10.129
 21
14.16690094830544
 31
0.0
  0
LINE
  5
93E
330
18
100
AcDbEntity
  8
Object
100
AcDbLine
 10
10.129
 20
14.16690094830544
 30
0.0
 11
10.122
 21
14.16690094830544
 31
0.0
  0
LINE
  5
93F
330
18
100
AcDbEntity
  8
Object
100
AcDbLine
 10
10.896
 20
14.56990094830544
 30
0.0
 11
10.389
 21
14.56990094830544
 31
0.0
  0
LINE
  5
940
330
18
100
AcDbEntity
  8
Object
100
AcDbLine
 10
10.389
 20
14.56990094830544
 30
0.0
 11
10.382
 21
14.56990094830544
 31
0.0
  0
LINE
  5
941
330
18
100
AcDbEntity
  8
Object
100
AcDbLine
 10
10.382
 20
14.56990094830544
 30
0.0
 11
10.376
 21
14.56990094830544
 31
0.0
  0
LINE
  5
942
330
18
100
AcDbEntity
  8
Object
100
AcDbLine
 10
10.376
 20
14.56990094830544
 30
0.0
 11
10.374
 21
14.56990094830544
 31
0.0
  0
LINE
  5
943
330
18
100
AcDbEntity
  8
Object
100
AcDbLine
 10
10.374
 20
14.56990094830544
 30
0.0
 11
10.367
 21
14.56990094830544
 31
0.0
  0
LINE
  5
944
330
18
100
AcDbEntity
  8
Object
100
AcDbLine
 10
10.367
 20
14.56990094830544
 30
0.0
 11
10.35
 21
14.56990094830544
 31
0.0
  0
LINE
  5
945
330
18
100
AcDbEntity
  8
Object
100
AcDbLine
 10
10.35
 20
14.56990094830544
 30
0.0
 11
10.324
 21
14.56990094830544
 31
0.0
  0
LINE
  5
946
330
18
100
AcDbEntity
  8
Object
100
AcDbLine
 10
10.324
 20
14.56990094830544
 30
0.0
 11
10.294
 21
14.56990094830544
 31
0.0
  0
LINE
  5
947
330
18
100
AcDbEntity
  8
Object
100
AcDbLine
 10
10.294
 20
14.56990094830544
 30
0.0
 11
10.129
 21
14.56990094830544
 31
0.0
  0
LINE
  5
948
330
18
100
AcDbEntity
  8
Object
100
AcDbLine
 10
10.129
 20
14.56990094830544
 30
0.0
 11
10.122
 21
14.56990094830544
 31
0.0
  0
LINE
  5
949
330
18
100
AcDbEntity
  8
Object
100
AcDbLine
 10
10.087
 20
14.18690094830544
 30
0.0
 11
10.102
 21
14.17190094830544
 31
0.0
  0
LINE
  5
94A
330
18
100
AcDbEntity
  8
Object
100
AcDbLine
 10
10.102
 20
14.17190094830544
 30
0.0
 11
10.122
 21
14.16690094830544
 31
0.0
  0
LINE
  5
94B
330
18
100
AcDbEntity
  8
Object
100
AcDbLine
 10
10.122
 20
14.56990094830544
 30
0.0
 11
10.102
 21
14.56390094830544
 31
0.0
  0
LINE
  5
94C
330
18
100
AcDbEntity
  8
Object
100
AcDbLine
 10
10.102
 20
14.56390094830544
 30
0.0
 11
10.087
 21
14.54990094830544
 31
0.0
  0
LINE
  5
94D
330
18
100
AcDbEntity
  8
Object
100
AcDbLine
 10
10.087
 20
14.54990094830544
 30
0.0
 11
10.082
 21
14.52990094830544
 31
0.0
  0
LINE
  5
94E
330
18
100
AcDbEntity
  8
Object
100
AcDbLine
 10
10.082
 20
14.52990094830544
 30
0.0
 11
10.082
 21
14.20690094830544
 31
0.0
  0
LINE
  5
94F
330
18
100
AcDbEntity
  8
Object
100
AcDbLine
 10
10.082
 20
14.20690094830544
 30
0.0
 11
10.087
 21
14.18690094830544
 31
0.0
  0
LINE
  5
950
330
18
100
AcDbEntity
  8
Object
100
AcDbLine
 10
10.997
 20
14.51790094830544
 30
0.0
 11
11.015
 21
14.48290094830544
 31
0.0
  0
LINE
  5
951
330
18
100
AcDbEntity
  8
Object
100
AcDbLine
 10
11.015
 20
14.48290094830544
 30
0.0
 11
11.021
 21
14.44490094830544
 31
0.0
  0
LINE
  5
952
330
18
100
AcDbEntity
  8
Object
100
AcDbLine
 10
11.021
 20
13.44490094830544
 30
0.0
 11
11.015
 21
13.40590094830544
 31
0.0
  0
LINE
  5
953
330
18
100
AcDbEntity
  8
Object
100
AcDbLine
 10
11.015
 20
13.40590094830544
 30
0.0
 11
10.997
 21
13.37090094830544
 31
0.0
  0
LINE
  5
954
330
18
100
AcDbEntity
  8
Object
100
AcDbLine
 10
10.997
 20
14.51790094830544
 30
0.0
 11
10.969
 21
14.54590094830544
 31
0.0
  0
LINE
  5
955
330
18
100
AcDbEntity
  8
Object
100
AcDbLine
 10
10.969
 20
13.34290094830544
 30
0.0
 11
10.997
 21
13.37090094830544
 31
0.0
  0
LINE
  5
956
330
18
100
AcDbEntity
  8
Object
100
AcDbLine
 10
10.969
 20
14.54590094830544
 30
0.0
 11
10.935
 21
14.56390094830544
 31
0.0
  0
LINE
  5
957
330
18
100
AcDbEntity
  8
Object
100
AcDbLine
 10
10.935
 20
13.32590094830544
 30
0.0
 11
10.969
 21
13.34290094830544
 31
0.0
  0
LINE
  5
958
330
18
100
AcDbEntity
  8
Object
100
AcDbLine
 10
10.935
 20
14.56390094830544
 30
0.0
 11
10.896
 21
14.56990094830544
 31
0.0
  0
LINE
  5
959
330
18
100
AcDbEntity
  8
Object
100
AcDbLine
 10
10.896
 20
13.31990094830544
 30
0.0
 11
10.935
 21
13.32590094830544
 31
0.0
  0
LINE
  5
95A
330
18
100
AcDbEntity
  8
Object
100
AcDbLine
 10
11.021
 20
13.44490094830544
 30
0.0
 11
11.021
 21
14.44490094830544
 31
0.0
  0
LINE
  5
95B
330
18
100
AcDbEntity
  8
Object
100
AcDbLine
 10
10.478
 20
14.09890094830544
 30
0.0
 11
10.484
 21
14.12190094830544
 31
0.0
  0
LINE
  5
95C
330
18
100
AcDbEntity
  8
Object
100
AcDbLine
 10
10.484
 20
14.12190094830544
 30
0.0
 11
10.478
 21
14.14390094830544
 31
0.0
  0
LINE
  5
95D
330
18
100
AcDbEntity
  8
Object
100
AcDbLine
 10
10.478
 20
13.78990094830544
 30
0.0
 11
10.484
 21
13.76790094830544
 31
0.0
  0
LINE
  5
95E
330
18
100
AcDbEntity
  8
Object
100
AcDbLine
 10
10.484
 20
13.76790094830544
 30
0.0
 11
10.478
 21
13.74490094830544
 31
0.0
  0
LINE
  5
95F
330
18
100
AcDbEntity
  8
Object
100
AcDbLine
 10
10.462
 20
14.16090094830544
 30
0.0
 11
10.478
 21
14.14390094830544
 31
0.0
  0
LINE
  5
960
330
18
100
AcDbEntity
  8
Object
100
AcDbLine
 10
10.478
 20
14.09890094830544
 30
0.0
 11
10.462
 21
14.08290094830544
 31
0.0
  0
LINE
  5
961
330
18
100
AcDbEntity
  8
Object
100
AcDbLine
 10
10.478
 20
13.74490094830544
 30
0.0
 11
10.462
 21
13.72890094830544
 31
0.0
  0
LINE
  5
962
330
18
100
AcDbEntity
  8
Object
100
AcDbLine
 10
10.462
 20
13.80690094830544
 30
0.0
 11
10.478
 21
13.78990094830544
 31
0.0
  0
LINE
  5
963
330
18
100
AcDbEntity
  8
Object
100
AcDbLine
 10
10.462
 20
14.08290094830544
 30
0.0
 11
10.439
 21
14.07690094830544
 31
0.0
  0
LINE
  5
964
330
18
100
AcDbEntity
  8
Object
100
AcDbLine
 10
10.439
 20
13.81290094830544
 30
0.0
 11
10.462
 21
13.80690094830544
 31
0.0
  0
LINE
  5
965
330
18
100
AcDbEntity
  8
Object
100
AcDbLine
 10
10.439
 20
14.07690094830544
 30
0.0
 11
10.419
 21
14.07690094830544
 31
0.0
  0
LINE
  5
966
330
18
100
AcDbEntity
  8
Object
100
AcDbLine
 10
10.419
 20
13.81290094830544
 30
0.0
 11
10.439
 21
13.81290094830544
 31
0.0
  0
LINE
  5
967
330
18
100
AcDbEntity
  8
Object
100
AcDbLine
 10
10.462
 20
14.16090094830544
 30
0.0
 11
10.439
 21
14.16690094830544
 31
0.0
  0
LINE
  5
968
330
18
100
AcDbEntity
  8
Object
100
AcDbLine
 10
10.439
 20
14.16690094830544
 30
0.0
 11
10.389
 21
14.16690094830544
 31
0.0
  0
LINE
  5
969
330
18
100
AcDbEntity
  8
Object
100
AcDbLine
 10
10.896
 20
14.56990094830544
 30
0.0
 11
10.389
 21
14.56990094830544
 31
0.0
  0
LINE
  5
96A
330
18
100
AcDbEntity
  8
Object
100
AcDbLine
 10
10.389
 20
13.72290094830544
 30
0.0
 11
10.439
 21
13.72290094830544
 31
0.0
  0
LINE
  5
96B
330
18
100
AcDbEntity
  8
Object
100
AcDbLine
 10
10.439
 20
13.72290094830544
 30
0.0
 11
10.462
 21
13.72890094830544
 31
0.0
  0
LINE
  5
96C
330
18
100
AcDbEntity
  8
Object
100
AcDbLine
 10
10.389
 20
13.31990094830544
 30
0.0
 11
10.896
 21
13.31990094830544
 31
0.0
  0
LINE
  5
96D
330
18
100
AcDbEntity
  8
Object
100
AcDbLine
 10
10.367
 20
14.16690094830544
 30
0.0
 11
10.374
 21
14.16690094830544
 31
0.0
  0
LINE
  5
96E
330
18
100
AcDbEntity
  8
Object
100
AcDbLine
 10
10.367
 20
14.56990094830544
 30
0.0
 11
10.374
 21
14.56990094830544
 31
0.0
  0
LINE
  5
96F
330
18
100
AcDbEntity
  8
Object
100
AcDbLine
 10
10.374
 20
14.56990094830544
 30
0.0
 11
10.374
 21
14.16690094830544
 31
0.0
  0
LINE
  5
970
330
18
100
AcDbEntity
  8
Object
100
AcDbLine
 10
10.35
 20
14.16690094830544
 30
0.0
 11
10.367
 21
14.16690094830544
 31
0.0
  0
LINE
  5
971
330
18
100
AcDbEntity
  8
Object
100
AcDbLine
 10
10.367
 20
14.56990094830544
 30
0.0
 11
10.35
 21
14.56990094830544
 31
0.0
  0
LINE
  5
972
330
18
100
AcDbEntity
  8
Object
100
AcDbLine
 10
10.35
 20
14.56990094830544
 30
0.0
 11
10.324
 21
14.56990094830544
 31
0.0
  0
LINE
  5
973
330
18
100
AcDbEntity
  8
Object
100
AcDbLine
 10
10.35
 20
14.16690094830544
 30
0.0
 11
10.324
 21
14.16690094830544
 31
0.0
  0
LINE
  5
974
330
18
100
AcDbEntity
  8
Object
100
AcDbLine
 10
10.324
 20
14.16690094830544
 30
0.0
 11
10.294
 21
14.16690094830544
 31
0.0
  0
LINE
  5
975
330
18
100
AcDbEntity
  8
Object
100
AcDbLine
 10
10.324
 20
14.56990094830544
 30
0.0
 11
10.294
 21
14.56990094830544
 31
0.0
  0
LINE
  5
976
330
18
100
AcDbEntity
  8
Object
100
AcDbLine
 10
10.122
 20
14.16690094830544
 30
0.0
 11
10.129
 21
14.16690094830544
 31
0.0
  0
LINE
  5
977
330
18
100
AcDbEntity
  8
Object
100
AcDbLine
 10
10.109
 20
14.17190094830544
 30
0.0
 11
10.095
 21
14.18690094830544
 31
0.0
  0
LINE
  5
978
330
18
100
AcDbEntity
  8
Object
100
AcDbLine
 10
10.095
 20
14.18690094830544
 30
0.0
 11
10.09
 21
14.20690094830544
 31
0.0
  0
LINE
  5
979
330
18
100
AcDbEntity
  8
Object
100
AcDbLine
 10
10.09
 20
14.20690094830544
 30
0.0
 11
10.082
 21
14.20690094830544
 31
0.0
  0
LINE
  5
97A
330
18
100
AcDbEntity
  8
Object
100
AcDbLine
 10
10.478
 20
14.09890094830544
 30
0.0
 11
10.484
 21
14.12190094830544
 31
0.0
  0
LINE
  5
97B
330
18
100
AcDbEntity
  8
Object
100
AcDbLine
 10
10.484
 20
14.12190094830544
 30
0.0
 11
10.478
 21
14.14390094830544
 31
0.0
  0
LINE
  5
97C
330
18
100
AcDbEntity
  8
Object
100
AcDbLine
 10
10.478
 20
14.14390094830544
 30
0.0
 11
10.462
 21
14.16090094830544
 31
0.0
  0
LINE
  5
97D
330
18
100
AcDbEntity
  8
Object
100
AcDbLine
 10
10.478
 20
14.09890094830544
 30
0.0
 11
10.462
 21
14.08290094830544
 31
0.0
  0
LINE
  5
97E
330
18
100
AcDbEntity
  8
Object
100
AcDbLine
 10
10.462
 20
14.08290094830544
 30
0.0
 11
10.439
 21
14.07690094830544
 31
0.0
  0
LINE
  5
97F
330
18
100
AcDbEntity
  8
Object
100
AcDbLine
 10
10.439
 20
14.16690094830544
 30
0.0
 11
10.462
 21
14.16090094830544
 31
0.0
  0
LINE
  5
980
330
18
100
AcDbEntity
  8
Object
100
AcDbLine
 10
10.382
 20
14.56990094830544
 30
0.0
 11
10.389
 21
14.56990094830544
 31
0.0
  0
LINE
  5
981
330
18
100
AcDbEntity
  8
Object
100
AcDbLine
 10
10.389
 20
14.56990094830544
 30
0.0
 11
10.389
 21
14.16690094830544
 31
0.0
  0
LINE
  5
982
330
18
100
AcDbEntity
  8
Object
100
AcDbLine
 10
10.389
 20
14.16690094830544
 30
0.0
 11
10.382
 21
14.16690094830544
 31
0.0
  0
LINE
  5
983
330
18
100
AcDbEntity
  8
Object
100
AcDbLine
 10
10.382
 20
14.16690094830544
 30
0.0
 11
10.376
 21
14.16690094830544
 31
0.0
  0
LINE
  5
984
330
18
100
AcDbEntity
  8
Object
100
AcDbLine
 10
10.382
 20
14.56990094830544
 30
0.0
 11
10.376
 21
14.56990094830544
 31
0.0
  0
LINE
  5
985
330
18
100
AcDbEntity
  8
Object
100
AcDbLine
 10
10.374
 20
14.16690094830544
 30
0.0
 11
10.376
 21
14.16690094830544
 31
0.0
  0
LINE
  5
986
330
18
100
AcDbEntity
  8
Object
100
AcDbLine
 10
10.376
 20
14.56990094830544
 30
0.0
 11
10.374
 21
14.56990094830544
 31
0.0
  0
LINE
  5
987
330
18
100
AcDbEntity
  8
Object
100
AcDbLine
 10
10.109
 20
14.17190094830544
 30
0.0
 11
10.129
 21
14.16690094830544
 31
0.0
  0
LINE
  5
988
330
18
100
AcDbEntity
  8
Object
100
AcDbLine
 10
10.095
 20
14.54990094830544
 30
0.0
 11
10.109
 21
14.56390094830544
 31
0.0
  0
LINE
  5
989
330
18
100
AcDbEntity
  8
Object
100
AcDbLine
 10
10.109
 20
14.56390094830544
 30
0.0
 11
10.129
 21
14.56990094830544
 31
0.0
  0
LINE
  5
98A
330
18
100
AcDbEntity
  8
Object
100
AcDbLine
 10
10.129
 20
14.56990094830544
 30
0.0
 11
10.294
 21
14.56990094830544
 31
0.0
  0
LINE
  5
98B
330
18
100
AcDbEntity
  8
Object
100
AcDbLine
 10
10.294
 20
14.56990094830544
 30
0.0
 11
10.294
 21
14.16690094830544
 31
0.0
  0
LINE
  5
98C
330
18
100
AcDbEntity
  8
Object
100
AcDbLine
 10
10.294
 20
14.16690094830544
 30
0.0
 11
10.129
 21
14.16690094830544
 31
0.0
  0
LINE
  5
98D
330
18
100
AcDbEntity
  8
Object
100
AcDbLine
 10
11.021
 20
14.44490094830544
 30
0.0
 11
11.015
 21
14.48290094830544
 31
0.0
  0
LINE
  5
98E
330
18
100
AcDbEntity
  8
Object
100
AcDbLine
 10
11.015
 20
14.48290094830544
 30
0.0
 11
10.997
 21
14.51790094830544
 31
0.0
  0
LINE
  5
98F
330
18
100
AcDbEntity
  8
Object
100
AcDbLine
 10
10.997
 20
14.51790094830544
 30
0.0
 11
10.969
 21
14.54590094830544
 31
0.0
  0
LINE
  5
990
330
18
100
AcDbEntity
  8
Object
100
AcDbLine
 10
10.969
 20
14.54590094830544
 30
0.0
 11
10.935
 21
14.56390094830544
 31
0.0
  0
LINE
  5
991
330
18
100
AcDbEntity
  8
Object
100
AcDbLine
 10
10.935
 20
14.56390094830544
 30
0.0
 11
10.896
 21
14.56990094830544
 31
0.0
  0
LINE
  5
992
330
18
100
AcDbEntity
  8
Object
100
AcDbLine
 10
10.129
 20
14.56990094830544
 30
0.0
 11
10.122
 21
14.56990094830544
 31
0.0
  0
LINE
  5
993
330
18
100
AcDbEntity
  8
Object
100
AcDbLine
 10
10.095
 20
14.54990094830544
 30
0.0
 11
10.09
 21
14.52990094830544
 31
0.0
  0
LINE
  5
994
330
18
100
AcDbEntity
  8
Object
100
AcDbLine
 10
10.09
 20
14.52990094830544
 30
0.0
 11
10.082
 21
14.52990094830544
 31
0.0
  0
LINE
  5
995
330
18
100
AcDbEntity
  8
Object
100
AcDbLine
 10
10.09
 20
14.20690094830544
 30
0.0
 11
10.09
 21
14.52990094830544
 31
0.0
  0
LINE
  5
996
330
18
100
AcDbEntity
  8
Object
100
AcDbLine
 10
11.021
 20
13.44490094830544
 30
0.0
 11
11.021
 21
14.44490094830544
 31
0.0
  0
LINE
  5
997
330
18
100
AcDbEntity
  8
Object
100
AcDbLine
 10
10.419
 20
13.81290094830544
 30
0.0
 11
10.439
 21
13.81290094830544
 31
0.0
  0
LINE
  5
998
330
18
100
AcDbEntity
  8
Object
100
AcDbLine
 10
11.021
 20
13.44490094830544
 30
0.0
 11
11.015
 21
13.40590094830544
 31
0.0
  0
LINE
  5
999
330
18
100
AcDbEntity
  8
Object
100
AcDbLine
 10
11.015
 20
13.40590094830544
 30
0.0
 11
10.997
 21
13.37090094830544
 31
0.0
  0
LINE
  5
99A
330
18
100
AcDbEntity
  8
Object
100
AcDbLine
 10
10.997
 20
13.37090094830544
 30
0.0
 11
10.969
 21
13.34290094830544
 31
0.0
  0
LINE
  5
99B
330
18
100
AcDbEntity
  8
Object
100
AcDbLine
 10
10.969
 20
13.34290094830544
 30
0.0
 11
10.935
 21
13.32590094830544
 31
0.0
  0
LINE
  5
99C
330
18
100
AcDbEntity
  8
Object
100
AcDbLine
 10
10.935
 20
13.32590094830544
 30
0.0
 11
10.896
 21
13.31990094830544
 31
0.0
  0
LINE
  5
99D
330
18
100
AcDbEntity
  8
Object
100
AcDbLine
 10
10.382
 20
13.72290094830544
 30
0.0
 11
10.389
 21
13.72290094830544
 31
0.0
  0
LINE
  5
99E
330
18
100
AcDbEntity
  8
Object
100
AcDbLine
 10
10.389
 20
13.72290094830544
 30
0.0
 11
10.389
 21
13.31990094830544
 31
0.0
  0
LINE
  5
99F
330
18
100
AcDbEntity
  8
Object
100
AcDbLine
 10
10.389
 20
13.31990094830544
 30
0.0
 11
10.382
 21
13.31990094830544
 31
0.0
  0
LINE
  5
9A0
330
18
100
AcDbEntity
  8
Object
100
AcDbLine
 10
10.382
 20
13.72290094830544
 30
0.0
 11
10.376
 21
13.72290094830544
 31
0.0
  0
LINE
  5
9A1
330
18
100
AcDbEntity
  8
Object
100
AcDbLine
 10
10.382
 20
13.31990094830544
 30
0.0
 11
10.376
 21
13.31990094830544
 31
0.0
  0
LINE
  5
9A2
330
18
100
AcDbEntity
  8
Object
100
AcDbLine
 10
10.376
 20
13.31990094830544
 30
0.0
 11
10.374
 21
13.31990094830544
 31
0.0
  0
LINE
  5
9A3
330
18
100
AcDbEntity
  8
Object
100
AcDbLine
 10
10.376
 20
13.72290094830544
 30
0.0
 11
10.374
 21
13.72290094830544
 31
0.0
  0
LINE
  5
9A4
330
18
100
AcDbEntity
  8
Object
100
AcDbLine
 10
10.896
 20
13.31990094830544
 30
0.0
 11
10.389
 21
13.31990094830544
 31
0.0
  0
LINE
  5
9A5
330
18
100
AcDbEntity
  8
Object
100
AcDbLine
 10
10.389
 20
13.31990094830544
 30
0.0
 11
10.382
 21
13.31990094830544
 31
0.0
  0
LINE
  5
9A6
330
18
100
AcDbEntity
  8
Object
100
AcDbLine
 10
10.382
 20
13.31990094830544
 30
0.0
 11
10.376
 21
13.31990094830544
 31
0.0
  0
LINE
  5
9A7
330
18
100
AcDbEntity
  8
Object
100
AcDbLine
 10
10.376
 20
13.31990094830544
 30
0.0
 11
10.374
 21
13.31990094830544
 31
0.0
  0
LINE
  5
9A8
330
18
100
AcDbEntity
  8
Object
100
AcDbLine
 10
10.374
 20
13.31990094830544
 30
0.0
 11
10.367
 21
13.31990094830544
 31
0.0
  0
LINE
  5
9A9
330
18
100
AcDbEntity
  8
Object
100
AcDbLine
 10
10.367
 20
13.31990094830544
 30
0.0
 11
10.35
 21
13.31990094830544
 31
0.0
  0
LINE
  5
9AA
330
18
100
AcDbEntity
  8
Object
100
AcDbLine
 10
10.35
 20
13.31990094830544
 30
0.0
 11
10.324
 21
13.31990094830544
 31
0.0
  0
LINE
  5
9AB
330
18
100
AcDbEntity
  8
Object
100
AcDbLine
 10
10.324
 20
13.31990094830544
 30
0.0
 11
10.294
 21
13.31990094830544
 31
0.0
  0
LINE
  5
9AC
330
18
100
AcDbEntity
  8
Object
100
AcDbLine
 10
10.294
 20
13.31990094830544
 30
0.0
 11
10.129
 21
13.31990094830544
 31
0.0
  0
LINE
  5
9AD
330
18
100
AcDbEntity
  8
Object
100
AcDbLine
 10
10.129
 20
13.31990094830544
 30
0.0
 11
10.122
 21
13.31990094830544
 31
0.0
  0
LINE
  5
9AE
330
18
100
AcDbEntity
  8
Object
100
AcDbLine
 10
10.439
 20
13.72290094830544
 30
0.0
 11
10.389
 21
13.72290094830544
 31
0.0
  0
LINE
  5
9AF
330
18
100
AcDbEntity
  8
Object
100
AcDbLine
 10
10.389
 20
13.72290094830544
 30
0.0
 11
10.382
 21
13.72290094830544
 31
0.0
  0
LINE
  5
9B0
330
18
100
AcDbEntity
  8
Object
100
AcDbLine
 10
10.382
 20
13.72290094830544
 30
0.0
 11
10.376
 21
13.72290094830544
 31
0.0
  0
LINE
  5
9B1
330
18
100
AcDbEntity
  8
Object
100
AcDbLine
 10
10.376
 20
13.72290094830544
 30
0.0
 11
10.374
 21
13.72290094830544
 31
0.0
  0
LINE
  5
9B2
330
18
100
AcDbEntity
  8
Object
100
AcDbLine
 10
10.374
 20
13.72290094830544
 30
0.0
 11
10.367
 21
13.72290094830544
 31
0.0
  0
LINE
  5
9B3
330
18
100
AcDbEntity
  8
Object
100
AcDbLine
 10
10.367
 20
13.72290094830544
 30
0.0
 11
10.35
 21
13.72290094830544
 31
0.0
  0
LINE
  5
9B4
330
18
100
AcDbEntity
  8
Object
100
AcDbLine
 10
10.35
 20
13.72290094830544
 30
0.0
 11
10.324
 21
13.72290094830544
 31
0.0
  0
LINE
  5
9B5
330
18
100
AcDbEntity
  8
Object
100
AcDbLine
 10
10.324
 20
13.72290094830544
 30
0.0
 11
10.294
 21
13.72290094830544
 31
0.0
  0
LINE
  5
9B6
330
18
100
AcDbEntity
  8
Object
100
AcDbLine
 10
10.294
 20
13.72290094830544
 30
0.0
 11
10.129
 21
13.72290094830544
 31
0.0
  0
LINE
  5
9B7
330
18
100
AcDbEntity
  8
Object
100
AcDbLine
 10
10.129
 20
13.72290094830544
 30
0.0
 11
10.122
 21
13.72290094830544
 31
0.0
  0
LINE
  5
9B8
330
18
100
AcDbEntity
  8
Object
100
AcDbLine
 10
10.478
 20
13.78990094830544
 30
0.0
 11
10.484
 21
13.76790094830544
 31
0.0
  0
LINE
  5
9B9
330
18
100
AcDbEntity
  8
Object
100
AcDbLine
 10
10.484
 20
13.76790094830544
 30
0.0
 11
10.478
 21
13.74490094830544
 31
0.0
  0
LINE
  5
9BA
330
18
100
AcDbEntity
  8
Object
100
AcDbLine
 10
10.462
 20
13.80690094830544
 30
0.0
 11
10.478
 21
13.78990094830544
 31
0.0
  0
LINE
  5
9BB
330
18
100
AcDbEntity
  8
Object
100
AcDbLine
 10
10.478
 20
13.74490094830544
 30
0.0
 11
10.462
 21
13.72890094830544
 31
0.0
  0
LINE
  5
9BC
330
18
100
AcDbEntity
  8
Object
100
AcDbLine
 10
10.462
 20
13.72890094830544
 30
0.0
 11
10.439
 21
13.72290094830544
 31
0.0
  0
LINE
  5
9BD
330
18
100
AcDbEntity
  8
Object
100
AcDbLine
 10
10.439
 20
13.81290094830544
 30
0.0
 11
10.462
 21
13.80690094830544
 31
0.0
  0
LINE
  5
9BE
330
18
100
AcDbEntity
  8
Object
100
AcDbLine
 10
10.439
 20
14.07690094830544
 30
0.0
 11
10.419
 21
14.07690094830544
 31
0.0
  0
LINE
  5
9BF
330
18
100
AcDbEntity
  8
Object
100
AcDbLine
 10
10.419
 20
14.07690094830544
 30
0.0
 11
10.396
 21
14.07690094830544
 31
0.0
  0
LINE
  5
9C0
330
18
100
AcDbEntity
  8
Object
100
AcDbLine
 10
10.419
 20
14.07690094830544
 30
0.0
 11
10.419
 21
13.81290094830544
 31
0.0
  0
LINE
  5
9C1
330
18
100
AcDbEntity
  8
Object
100
AcDbLine
 10
10.419
 20
13.81290094830544
 30
0.0
 11
10.396
 21
13.81290094830544
 31
0.0
  0
LINE
  5
9C2
330
18
100
AcDbEntity
  8
Object
100
AcDbLine
 10
10.396
 20
14.07690094830544
 30
0.0
 11
10.374
 21
14.07690094830544
 31
0.0
  0
LINE
  5
9C3
330
18
100
AcDbEntity
  8
Object
100
AcDbLine
 10
10.396
 20
13.81290094830544
 30
0.0
 11
10.374
 21
13.81290094830544
 31
0.0
  0
LINE
  5
9C4
330
18
100
AcDbEntity
  8
Object
100
AcDbLine
 10
10.374
 20
13.81290094830544
 30
0.0
 11
10.355
 21
13.81290094830544
 31
0.0
  0
LINE
  5
9C5
330
18
100
AcDbEntity
  8
Object
100
AcDbLine
 10
10.374
 20
14.07690094830544
 30
0.0
 11
10.355
 21
14.07690094830544
 31
0.0
  0
LINE
  5
9C6
330
18
100
AcDbEntity
  8
Object
100
AcDbLine
 10
10.419
 20
13.81290094830544
 30
0.0
 11
10.396
 21
13.81290094830544
 31
0.0
  0
LINE
  5
9C7
330
18
100
AcDbEntity
  8
Object
100
AcDbLine
 10
10.396
 20
13.81290094830544
 30
0.0
 11
10.374
 21
13.81290094830544
 31
0.0
  0
LINE
  5
9C8
330
18
100
AcDbEntity
  8
Object
100
AcDbLine
 10
10.374
 20
13.81290094830544
 30
0.0
 11
10.355
 21
13.81290094830544
 31
0.0
  0
LINE
  5
9C9
330
18
100
AcDbEntity
  8
Object
100
AcDbLine
 10
10.367
 20
13.72290094830544
 30
0.0
 11
10.374
 21
13.72290094830544
 31
0.0
  0
LINE
  5
9CA
330
18
100
AcDbEntity
  8
Object
100
AcDbLine
 10
10.374
 20
13.72290094830544
 30
0.0
 11
10.374
 21
13.31990094830544
 31
0.0
  0
LINE
  5
9CB
330
18
100
AcDbEntity
  8
Object
100
AcDbLine
 10
10.374
 20
13.31990094830544
 30
0.0
 11
10.367
 21
13.31990094830544
 31
0.0
  0
LINE
  5
9CC
330
18
100
AcDbEntity
  8
Object
100
AcDbLine
 10
10.367
 20
13.72290094830544
 30
0.0
 11
10.35
 21
13.72290094830544
 31
0.0
  0
LINE
  5
9CD
330
18
100
AcDbEntity
  8
Object
100
AcDbLine
 10
10.367
 20
13.31990094830544
 30
0.0
 11
10.35
 21
13.31990094830544
 31
0.0
  0
LINE
  5
9CE
330
18
100
AcDbEntity
  8
Object
100
AcDbLine
 10
10.35
 20
13.31990094830544
 30
0.0
 11
10.324
 21
13.31990094830544
 31
0.0
  0
LINE
  5
9CF
330
18
100
AcDbEntity
  8
Object
100
AcDbLine
 10
10.35
 20
13.72290094830544
 30
0.0
 11
10.324
 21
13.72290094830544
 31
0.0
  0
LINE
  5
9D0
330
18
100
AcDbEntity
  8
Object
100
AcDbLine
 10
10.294
 20
13.31990094830544
 30
0.0
 11
10.324
 21
13.31990094830544
 31
0.0
  0
LINE
  5
9D1
330
18
100
AcDbEntity
  8
Object
100
AcDbLine
 10
10.324
 20
13.72290094830544
 30
0.0
 11
10.294
 21
13.72290094830544
 31
0.0
  0
LINE
  5
9D2
330
18
100
AcDbEntity
  8
Object
100
AcDbLine
 10
10.129
 20
13.31990094830544
 30
0.0
 11
10.109
 21
13.32490094830544
 31
0.0
  0
LINE
  5
9D3
330
18
100
AcDbEntity
  8
Object
100
AcDbLine
 10
10.109
 20
13.32490094830544
 30
0.0
 11
10.095
 21
13.33990094830544
 31
0.0
  0
LINE
  5
9D4
330
18
100
AcDbEntity
  8
Object
100
AcDbLine
 10
10.095
 20
13.70290094830544
 30
0.0
 11
10.109
 21
13.71690094830544
 31
0.0
  0
LINE
  5
9D5
330
18
100
AcDbEntity
  8
Object
100
AcDbLine
 10
10.109
 20
13.71690094830544
 30
0.0
 11
10.129
 21
13.72290094830544
 31
0.0
  0
LINE
  5
9D6
330
18
100
AcDbEntity
  8
Object
100
AcDbLine
 10
10.129
 20
13.72290094830544
 30
0.0
 11
10.294
 21
13.72290094830544
 31
0.0
  0
LINE
  5
9D7
330
18
100
AcDbEntity
  8
Object
100
AcDbLine
 10
10.294
 20
13.72290094830544
 30
0.0
 11
10.294
 21
13.31990094830544
 31
0.0
  0
LINE
  5
9D8
330
18
100
AcDbEntity
  8
Object
100
AcDbLine
 10
10.294
 20
13.31990094830544
 30
0.0
 11
10.129
 21
13.31990094830544
 31
0.0
  0
LINE
  5
9D9
330
18
100
AcDbEntity
  8
Object
100
AcDbLine
 10
10.129
 20
13.31990094830544
 30
0.0
 11
10.122
 21
13.31990094830544
 31
0.0
  0
LINE
  5
9DA
330
18
100
AcDbEntity
  8
Object
100
AcDbLine
 10
10.087
 20
13.33990094830544
 30
0.0
 11
10.102
 21
13.32490094830544
 31
0.0
  0
LINE
  5
9DB
330
18
100
AcDbEntity
  8
Object
100
AcDbLine
 10
10.095
 20
13.33990094830544
 30
0.0
 11
10.09
 21
13.35990094830544
 31
0.0
  0
LINE
  5
9DC
330
18
100
AcDbEntity
  8
Object
100
AcDbLine
 10
10.087
 20
13.33990094830544
 30
0.0
 11
10.082
 21
13.35990094830544
 31
0.0
  0
LINE
  5
9DD
330
18
100
AcDbEntity
  8
Object
100
AcDbLine
 10
10.082
 20
13.35990094830544
 30
0.0
 11
10.09
 21
13.35990094830544
 31
0.0
  0
LINE
  5
9DE
330
18
100
AcDbEntity
  8
Object
100
AcDbLine
 10
10.102
 20
13.32490094830544
 30
0.0
 11
10.122
 21
13.31990094830544
 31
0.0
  0
LINE
  5
9DF
330
18
100
AcDbEntity
  8
Object
100
AcDbLine
 10
10.122
 20
13.72290094830544
 30
0.0
 11
10.102
 21
13.71690094830544
 31
0.0
  0
LINE
  5
9E0
330
18
100
AcDbEntity
  8
Object
100
AcDbLine
 10
10.102
 20
13.71690094830544
 30
0.0
 11
10.087
 21
13.70290094830544
 31
0.0
  0
LINE
  5
9E1
330
18
100
AcDbEntity
  8
Object
100
AcDbLine
 10
10.087
 20
13.70290094830544
 30
0.0
 11
10.082
 21
13.68290094830544
 31
0.0
  0
LINE
  5
9E2
330
18
100
AcDbEntity
  8
Object
100
AcDbLine
 10
10.082
 20
13.68290094830544
 30
0.0
 11
10.082
 21
13.35990094830544
 31
0.0
  0
LINE
  5
9E3
330
18
100
AcDbEntity
  8
Object
100
AcDbLine
 10
10.129
 20
13.72290094830544
 30
0.0
 11
10.122
 21
13.72290094830544
 31
0.0
  0
LINE
  5
9E4
330
18
100
AcDbEntity
  8
Object
100
AcDbLine
 10
10.09
 20
13.68290094830544
 30
0.0
 11
10.095
 21
13.70290094830544
 31
0.0
  0
LINE
  5
9E5
330
18
100
AcDbEntity
  8
Object
100
AcDbLine
 10
10.419
 20
14.07690094830544
 30
0.0
 11
10.396
 21
14.07690094830544
 31
0.0
  0
LINE
  5
9E6
330
18
100
AcDbEntity
  8
Object
100
AcDbLine
 10
10.396
 20
14.07690094830544
 30
0.0
 11
10.374
 21
14.07690094830544
 31
0.0
  0
LINE
  5
9E7
330
18
100
AcDbEntity
  8
Object
100
AcDbLine
 10
10.374
 20
14.07690094830544
 30
0.0
 11
10.355
 21
14.07690094830544
 31
0.0
  0
LINE
  5
9E8
330
18
100
AcDbEntity
  8
Object
100
AcDbLine
 10
10.355
 20
14.07690094830544
 30
0.0
 11
10.09
 21
14.07690094830544
 31
0.0
  0
LINE
  5
9E9
330
18
100
AcDbEntity
  8
Object
100
AcDbLine
 10
10.355
 20
14.07690094830544
 30
0.0
 11
10.355
 21
13.81290094830544
 31
0.0
  0
LINE
  5
9EA
330
18
100
AcDbEntity
  8
Object
100
AcDbLine
 10
10.355
 20
13.81290094830544
 30
0.0
 11
10.09
 21
13.81290094830544
 31
0.0
  0
LINE
  5
9EB
330
18
100
AcDbEntity
  8
Object
100
AcDbLine
 10
10.09
 20
14.07690094830544
 30
0.0
 11
10.079
 21
14.07290094830544
 31
0.0
  0
LINE
  5
9EC
330
18
100
AcDbEntity
  8
Object
100
AcDbLine
 10
10.079
 20
14.07290094830544
 30
0.0
 11
10.071
 21
14.06190094830544
 31
0.0
  0
LINE
  5
9ED
330
18
100
AcDbEntity
  8
Object
100
AcDbLine
 10
10.09
 20
13.81290094830544
 30
0.0
 11
10.079
 21
13.81690094830544
 31
0.0
  0
LINE
  5
9EE
330
18
100
AcDbEntity
  8
Object
100
AcDbLine
 10
10.079
 20
13.81690094830544
 30
0.0
 11
10.071
 21
13.82790094830544
 31
0.0
  0
LINE
  5
9EF
330
18
100
AcDbEntity
  8
Object
100
AcDbLine
 10
10.071
 20
14.06190094830544
 30
0.0
 11
10.068
 21
14.04690094830544
 31
0.0
  0
LINE
  5
9F0
330
18
100
AcDbEntity
  8
Object
100
AcDbLine
 10
10.068
 20
14.04690094830544
 30
0.0
 11
10.068
 21
13.84290094830544
 31
0.0
  0
LINE
  5
9F1
330
18
100
AcDbEntity
  8
Object
100
AcDbLine
 10
10.068
 20
13.84290094830544
 30
0.0
 11
10.071
 21
13.82790094830544
 31
0.0
  0
LINE
  5
9F2
330
18
100
AcDbEntity
  8
Object
100
AcDbLine
 10
10.09
 20
13.81290094830544
 30
0.0
 11
10.355
 21
13.81290094830544
 31
0.0
  0
LINE
  5
9F3
330
18
100
AcDbEntity
  8
Object
100
AcDbLine
 10
10.082
 20
13.68290094830544
 30
0.0
 11
10.09
 21
13.68290094830544
 31
0.0
  0
LINE
  5
9F4
330
18
100
AcDbEntity
  8
Object
100
AcDbLine
 10
10.09
 20
13.68290094830544
 30
0.0
 11
10.09
 21
13.35990094830544
 31
0.0
  0
LINE
  5
9F5
330
18
100
AcDbEntity
  8
Object
100
AcDbLine
 10
10.355
 20
14.07690094830544
 30
0.0
 11
10.09
 21
14.07690094830544
 31
0.0
  0
LINE
  5
9F6
330
18
100
AcDbEntity
  8
Object
100
AcDbLine
 10
10.683
 20
13.82490094830544
 30
0.0
 11
10.706
 21
13.81990094830544
 31
0.0
  0
LINE
  5
9F7
330
18
100
AcDbEntity
  8
Object
100
AcDbLine
 10
10.706
 20
13.81990094830544
 30
0.0
 11
10.665
 21
13.83190094830544
 31
0.0
  0
LINE
  5
9F8
330
18
100
AcDbEntity
  8
Object
100
AcDbLine
 10
10.668
 20
13.83090094830544
 30
0.0
 11
10.663
 21
13.83290094830544
 31
0.0
  0
LINE
  5
9F9
330
18
100
AcDbEntity
  8
Object
100
AcDbLine
 10
10.683
 20
13.82490094830544
 30
0.0
 11
10.665
 21
13.83190094830544
 31
0.0
  0
LINE
  5
9FA
330
18
100
AcDbEntity
  8
Object
100
AcDbLine
 10
10.665
 20
13.83190094830544
 30
0.0
 11
10.661
 21
13.83390094830544
 31
0.0
  0
LINE
  5
9FB
330
18
100
AcDbEntity
  8
Object
100
AcDbLine
 10
10.633
 20
13.85490094830544
 30
0.0
 11
10.629
 21
13.85890094830544
 31
0.0
  0
LINE
  5
9FC
330
18
100
AcDbEntity
  8
Object
100
AcDbLine
 10
10.607
 20
13.89190094830544
 30
0.0
 11
10.598
 21
13.91590094830544
 31
0.0
  0
LINE
  5
9FD
330
18
100
AcDbEntity
  8
Object
100
AcDbLine
 10
10.93
 20
13.94490094830544
 30
0.0
 11
10.923
 21
13.88990094830544
 31
0.0
  0
LINE
  5
9FE
330
18
100
AcDbEntity
  8
Object
100
AcDbLine
 10
10.923
 20
13.88990094830544
 30
0.0
 11
10.902
 21
13.83990094830544
 31
0.0
  0
LINE
  5
9FF
330
18
100
AcDbEntity
  8
Object
100
AcDbLine
 10
10.93
 20
13.94490094830544
 30
0.0
 11
10.923
 21
13.99890094830544
 31
0.0
  0
LINE
  5
A00
330
18
100
AcDbEntity
  8
Object
100
AcDbLine
 10
10.869
 20
13.79590094830544
 30
0.0
 11
10.902
 21
13.83990094830544
 31
0.0
  0
LINE
  5
A01
330
18
100
AcDbEntity
  8
Object
100
AcDbLine
 10
10.869
 20
14.09290094830544
 30
0.0
 11
10.902
 21
14.04990094830544
 31
0.0
  0
LINE
  5
A02
330
18
100
AcDbEntity
  8
Object
100
AcDbLine
 10
10.902
 20
14.04990094830544
 30
0.0
 11
10.923
 21
13.99890094830544
 31
0.0
  0
LINE
  5
A03
330
18
100
AcDbEntity
  8
Object
100
AcDbLine
 10
10.869
 20
14.09290094830544
 30
0.0
 11
10.825
 21
14.12590094830544
 31
0.0
  0
LINE
  5
A04
330
18
100
AcDbEntity
  8
Object
100
AcDbLine
 10
10.825
 20
13.76290094830544
 30
0.0
 11
10.869
 21
13.79590094830544
 31
0.0
  0
LINE
  5
A05
330
18
100
AcDbEntity
  8
Object
100
AcDbLine
 10
10.778
 20
13.84390094830544
 30
0.0
 11
10.756
 21
13.83090094830544
 31
0.0
  0
LINE
  5
A06
330
18
100
AcDbEntity
  8
Object
100
AcDbLine
 10
10.774
 20
13.74190094830544
 30
0.0
 11
10.825
 21
13.76290094830544
 31
0.0
  0
LINE
  5
A07
330
18
100
AcDbEntity
  8
Object
100
AcDbLine
 10
10.825
 20
14.12590094830544
 30
0.0
 11
10.774
 21
14.14690094830544
 31
0.0
  0
LINE
  5
A08
330
18
100
AcDbEntity
  8
Object
100
AcDbLine
 10
10.756
 20
13.83090094830544
 30
0.0
 11
10.732
 21
13.82290094830544
 31
0.0
  0
LINE
  5
A09
330
18
100
AcDbEntity
  8
Object
100
AcDbLine
 10
10.774
 20
14.14690094830544
 30
0.0
 11
10.72
 21
14.15490094830544
 31
0.0
  0
LINE
  5
A0A
330
18
100
AcDbEntity
  8
Object
100
AcDbLine
 10
10.72
 20
13.73490094830544
 30
0.0
 11
10.774
 21
13.74190094830544
 31
0.0
  0
LINE
  5
A0B
330
18
100
AcDbEntity
  8
Object
100
AcDbLine
 10
10.732
 20
13.82290094830544
 30
0.0
 11
10.706
 21
13.81990094830544
 31
0.0
  0
LINE
  5
A0C
330
18
100
AcDbEntity
  8
Object
100
AcDbLine
 10
10.665
 20
13.83190094830544
 30
0.0
 11
10.631
 21
13.85690094830544
 31
0.0
  0
LINE
  5
A0D
330
18
100
AcDbEntity
  8
Object
100
AcDbLine
 10
10.631
 20
13.85690094830544
 30
0.0
 11
10.607
 21
13.89190094830544
 31
0.0
  0
LINE
  5
A0E
330
18
100
AcDbEntity
  8
Object
100
AcDbLine
 10
10.538
 20
14.04990094830544
 30
0.0
 11
10.517
 21
13.99890094830544
 31
0.0
  0
LINE
  5
A0F
330
18
100
AcDbEntity
  8
Object
100
AcDbLine
 10
10.606
 20
13.96790094830544
 30
0.0
 11
10.611
 21
13.97990094830544
 31
0.0
  0
LINE
  5
A10
330
18
100
AcDbEntity
  8
Object
100
AcDbLine
 10
10.517
 20
13.88990094830544
 30
0.0
 11
10.538
 21
13.83990094830544
 31
0.0
  0
LINE
  5
A11
330
18
100
AcDbEntity
  8
Object
100
AcDbLine
 10
10.607
 20
13.89190094830544
 30
0.0
 11
10.601
 21
13.91690094830544
 31
0.0
  0
LINE
  5
A12
330
18
100
AcDbEntity
  8
Object
100
AcDbLine
 10
10.606
 20
13.96790094830544
 30
0.0
 11
10.601
 21
13.94290094830544
 31
0.0
  0
LINE
  5
A13
330
18
100
AcDbEntity
  8
Object
100
AcDbLine
 10
10.601
 20
13.94290094830544
 30
0.0
 11
10.601
 21
13.91690094830544
 31
0.0
  0
LINE
  5
A14
330
18
100
AcDbEntity
  8
Object
100
AcDbLine
 10
10.663
 20
14.15690094830544
 30
0.0
 11
10.72
 21
14.16490094830544
 31
0.0
  0
LINE
  5
A15
330
18
100
AcDbEntity
  8
Object
100
AcDbLine
 10
10.72
 20
14.16490094830544
 30
0.0
 11
10.72
 21
14.15490094830544
 31
0.0
  0
LINE
  5
A16
330
18
100
AcDbEntity
  8
Object
100
AcDbLine
 10
10.72
 20
14.15490094830544
 30
0.0
 11
10.666
 21
14.14690094830544
 31
0.0
  0
LINE
  5
A17
330
18
100
AcDbEntity
  8
Object
100
AcDbLine
 10
10.666
 20
13.74190094830544
 30
0.0
 11
10.72
 21
13.73490094830544
 31
0.0
  0
LINE
  5
A18
330
18
100
AcDbEntity
  8
Object
100
AcDbLine
 10
10.72
 20
13.73490094830544
 30
0.0
 11
10.72
 21
13.72490094830544
 31
0.0
  0
LINE
  5
A19
330
18
100
AcDbEntity
  8
Object
100
AcDbLine
 10
10.72
 20
13.72490094830544
 30
0.0
 11
10.663
 21
13.73190094830544
 31
0.0
  0
LINE
  5
A1A
330
18
100
AcDbEntity
  8
Object
100
AcDbLine
 10
10.615
 20
14.12590094830544
 30
0.0
 11
10.666
 21
14.14690094830544
 31
0.0
  0
LINE
  5
A1B
330
18
100
AcDbEntity
  8
Object
100
AcDbLine
 10
10.663
 20
14.15690094830544
 30
0.0
 11
10.61
 21
14.13490094830544
 31
0.0
  0
LINE
  5
A1C
330
18
100
AcDbEntity
  8
Object
100
AcDbLine
 10
10.666
 20
13.74190094830544
 30
0.0
 11
10.615
 21
13.76290094830544
 31
0.0
  0
LINE
  5
A1D
330
18
100
AcDbEntity
  8
Object
100
AcDbLine
 10
10.61
 20
13.75390094830544
 30
0.0
 11
10.663
 21
13.73190094830544
 31
0.0
  0
LINE
  5
A1E
330
18
100
AcDbEntity
  8
Object
100
AcDbLine
 10
10.61
 20
14.13490094830544
 30
0.0
 11
10.564
 21
14.09990094830544
 31
0.0
  0
LINE
  5
A1F
330
18
100
AcDbEntity
  8
Object
100
AcDbLine
 10
10.572
 20
14.09290094830544
 30
0.0
 11
10.615
 21
14.12590094830544
 31
0.0
  0
LINE
  5
A20
330
18
100
AcDbEntity
  8
Object
100
AcDbLine
 10
10.564
 20
13.78890094830544
 30
0.0
 11
10.61
 21
13.75390094830544
 31
0.0
  0
LINE
  5
A21
330
18
100
AcDbEntity
  8
Object
100
AcDbLine
 10
10.615
 20
13.76290094830544
 30
0.0
 11
10.572
 21
13.79590094830544
 31
0.0
  0
LINE
  5
A22
330
18
100
AcDbEntity
  8
Object
100
AcDbLine
 10
10.538
 20
14.04990094830544
 30
0.0
 11
10.572
 21
14.09290094830544
 31
0.0
  0
LINE
  5
A23
330
18
100
AcDbEntity
  8
Object
100
AcDbLine
 10
10.564
 20
14.09990094830544
 30
0.0
 11
10.53
 21
14.05490094830544
 31
0.0
  0
LINE
  5
A24
330
18
100
AcDbEntity
  8
Object
100
AcDbLine
 10
10.572
 20
13.79590094830544
 30
0.0
 11
10.538
 21
13.83990094830544
 31
0.0
  0
LINE
  5
A25
330
18
100
AcDbEntity
  8
Object
100
AcDbLine
 10
10.564
 20
13.78890094830544
 30
0.0
 11
10.53
 21
13.83490094830544
 31
0.0
  0
LINE
  5
A26
330
18
100
AcDbEntity
  8
Object
100
AcDbLine
 10
10.53
 20
13.83490094830544
 30
0.0
 11
10.508
 21
13.88790094830544
 31
0.0
  0
LINE
  5
A27
330
18
100
AcDbEntity
  8
Object
100
AcDbLine
 10
10.53
 20
14.05490094830544
 30
0.0
 11
10.508
 21
14.00190094830544
 31
0.0
  0
LINE
  5
A28
330
18
100
AcDbEntity
  8
Object
100
AcDbLine
 10
10.517
 20
13.99890094830544
 30
0.0
 11
10.51
 21
13.94490094830544
 31
0.0
  0
LINE
  5
A29
330
18
100
AcDbEntity
  8
Object
100
AcDbLine
 10
10.51
 20
13.94490094830544
 30
0.0
 11
10.517
 21
13.88990094830544
 31
0.0
  0
LINE
  5
A2A
330
18
100
AcDbEntity
  8
Object
100
AcDbLine
 10
10.508
 20
13.88790094830544
 30
0.0
 11
10.5
 21
13.94490094830544
 31
0.0
  0
LINE
  5
A2B
330
18
100
AcDbEntity
  8
Object
100
AcDbLine
 10
10.5
 20
13.94490094830544
 30
0.0
 11
10.508
 21
14.00190094830544
 31
0.0
  0
LINE
  5
A2C
330
18
100
AcDbEntity
  8
Object
100
AcDbLine
 10
10.933
 20
14.00190094830544
 30
0.0
 11
10.94
 21
13.94490094830544
 31
0.0
  0
LINE
  5
A2D
330
18
100
AcDbEntity
  8
Object
100
AcDbLine
 10
10.94
 20
13.94490094830544
 30
0.0
 11
10.933
 21
13.88790094830544
 31
0.0
  0
LINE
  5
A2E
330
18
100
AcDbEntity
  8
Object
100
AcDbLine
 10
10.933
 20
13.88790094830544
 30
0.0
 11
10.911
 21
13.83490094830544
 31
0.0
  0
LINE
  5
A2F
330
18
100
AcDbEntity
  8
Object
100
AcDbLine
 10
10.933
 20
14.00190094830544
 30
0.0
 11
10.911
 21
14.05490094830544
 31
0.0
  0
LINE
  5
A30
330
18
100
AcDbEntity
  8
Object
100
AcDbLine
 10
10.911
 20
14.05490094830544
 30
0.0
 11
10.876
 21
14.09990094830544
 31
0.0
  0
LINE
  5
A31
330
18
100
AcDbEntity
  8
Object
100
AcDbLine
 10
10.876
 20
13.78890094830544
 30
0.0
 11
10.911
 21
13.83490094830544
 31
0.0
  0
LINE
  5
A32
330
18
100
AcDbEntity
  8
Object
100
AcDbLine
 10
10.876
 20
14.09990094830544
 30
0.0
 11
10.83
 21
14.13490094830544
 31
0.0
  0
LINE
  5
A33
330
18
100
AcDbEntity
  8
Object
100
AcDbLine
 10
10.83
 20
13.75390094830544
 30
0.0
 11
10.876
 21
13.78890094830544
 31
0.0
  0
LINE
  5
A34
330
18
100
AcDbEntity
  8
Object
100
AcDbLine
 10
10.83
 20
14.13490094830544
 30
0.0
 11
10.777
 21
14.15690094830544
 31
0.0
  0
LINE
  5
A35
330
18
100
AcDbEntity
  8
Object
100
AcDbLine
 10
10.777
 20
13.73190094830544
 30
0.0
 11
10.83
 21
13.75390094830544
 31
0.0
  0
LINE
  5
A36
330
18
100
AcDbEntity
  8
Object
100
AcDbLine
 10
10.777
 20
14.15690094830544
 30
0.0
 11
10.72
 21
14.16490094830544
 31
0.0
  0
LINE
  5
A37
330
18
100
AcDbEntity
  8
Object
100
AcDbLine
 10
10.777
 20
13.73190094830544
 30
0.0
 11
10.72
 21
13.72490094830544
 31
0.0
  0
LINE
  5
A38
330
18
100
AcDbEntity
  8
Object
100
AcDbLine
 10
10.72
 20
13.72490094830544
 30
0.0
 11
10.663
 21
13.73190094830544
 31
0.0
  0
LINE
  5
A39
330
18
100
AcDbEntity
  8
Object
100
AcDbLine
 10
10.72
 20
14.16490094830544
 30
0.0
 11
10.663
 21
14.15690094830544
 31
0.0
  0
LINE
  5
A3A
330
18
100
AcDbEntity
  8
Object
100
AcDbLine
 10
10.61
 20
13.75390094830544
 30
0.0
 11
10.663
 21
13.73190094830544
 31
0.0
  0
LINE
  5
A3B
330
18
100
AcDbEntity
  8
Object
100
AcDbLine
 10
10.663
 20
14.15690094830544
 30
0.0
 11
10.61
 21
14.13490094830544
 31
0.0
  0
LINE
  5
A3C
330
18
100
AcDbEntity
  8
Object
100
AcDbLine
 10
10.61
 20
14.13490094830544
 30
0.0
 11
10.564
 21
14.09990094830544
 31
0.0
  0
LINE
  5
A3D
330
18
100
AcDbEntity
  8
Object
100
AcDbLine
 10
10.61
 20
13.75390094830544
 30
0.0
 11
10.564
 21
13.78890094830544
 31
0.0
  0
LINE
  5
A3E
330
18
100
AcDbEntity
  8
Object
100
AcDbLine
 10
10.564
 20
13.78890094830544
 30
0.0
 11
10.53
 21
13.83490094830544
 31
0.0
  0
LINE
  5
A3F
330
18
100
AcDbEntity
  8
Object
100
AcDbLine
 10
10.564
 20
14.09990094830544
 30
0.0
 11
10.53
 21
14.05490094830544
 31
0.0
  0
LINE
  5
A40
330
18
100
AcDbEntity
  8
Object
100
AcDbLine
 10
10.53
 20
14.05490094830544
 30
0.0
 11
10.508
 21
14.00190094830544
 31
0.0
  0
LINE
  5
A41
330
18
100
AcDbEntity
  8
Object
100
AcDbLine
 10
10.53
 20
13.83490094830544
 30
0.0
 11
10.508
 21
13.88790094830544
 31
0.0
  0
LINE
  5
A42
330
18
100
AcDbEntity
  8
Object
100
AcDbLine
 10
10.508
 20
13.88790094830544
 30
0.0
 11
10.5
 21
13.94490094830544
 31
0.0
  0
LINE
  5
A43
330
18
100
AcDbEntity
  8
Object
100
AcDbLine
 10
10.5
 20
13.94490094830544
 30
0.0
 11
10.508
 21
14.00190094830544
 31
0.0
  0
LINE
  5
A44
330
18
100
AcDbEntity
  8
Object
100
AcDbLine
 10
10.933
 20
13.88790094830544
 30
0.0
 11
10.94
 21
13.94490094830544
 31
0.0
  0
LINE
  5
A45
330
18
100
AcDbEntity
  8
Object
100
AcDbLine
 10
10.94
 20
13.94490094830544
 30
0.0
 11
10.933
 21
14.00190094830544
 31
0.0
  0
LINE
  5
A46
330
18
100
AcDbEntity
  8
Object
100
AcDbLine
 10
10.933
 20
14.00190094830544
 30
0.0
 11
10.911
 21
14.05490094830544
 31
0.0
  0
LINE
  5
A47
330
18
100
AcDbEntity
  8
Object
100
AcDbLine
 10
10.933
 20
13.88790094830544
 30
0.0
 11
10.911
 21
13.83490094830544
 31
0.0
  0
LINE
  5
A48
330
18
100
AcDbEntity
  8
Object
100
AcDbLine
 10
10.911
 20
13.83490094830544
 30
0.0
 11
10.876
 21
13.78890094830544
 31
0.0
  0
LINE
  5
A49
330
18
100
AcDbEntity
  8
Object
100
AcDbLine
 10
10.911
 20
14.05490094830544
 30
0.0
 11
10.876
 21
14.09990094830544
 31
0.0
  0
LINE
  5
A4A
330
18
100
AcDbEntity
  8
Object
100
AcDbLine
 10
10.876
 20
14.09990094830544
 30
0.0
 11
10.83
 21
14.13490094830544
 31
0.0
  0
LINE
  5
A4B
330
18
100
AcDbEntity
  8
Object
100
AcDbLine
 10
10.876
 20
13.78890094830544
 30
0.0
 11
10.83
 21
13.75390094830544
 31
0.0
  0
LINE
  5
A4C
330
18
100
AcDbEntity
  8
Object
100
AcDbLine
 10
10.83
 20
13.75390094830544
 30
0.0
 11
10.777
 21
13.73190094830544
 31
0.0
  0
LINE
  5
A4D
330
18
100
AcDbEntity
  8
Object
100
AcDbLine
 10
10.83
 20
14.13490094830544
 30
0.0
 11
10.777
 21
14.15690094830544
 31
0.0
  0
LINE
  5
A4E
330
18
100
AcDbEntity
  8
Object
100
AcDbLine
 10
10.777
 20
14.15690094830544
 30
0.0
 11
10.72
 21
14.16490094830544
 31
0.0
  0
LINE
  5
A4F
330
18
100
AcDbEntity
  8
Object
100
AcDbLine
 10
10.72
 20
13.72490094830544
 30
0.0
 11
10.777
 21
13.73190094830544
 31
0.0
  0
LINE
  5
A50
330
18
100
AcDbEntity
  8
Object
100
AcDbLine
 10
10.835
 20
13.99390094830544
 30
0.0
 11
10.845
 21
13.95390094830544
 31
0.0
  0
LINE
  5
A51
330
18
100
AcDbEntity
  8
Object
100
AcDbLine
 10
10.845
 20
13.95390094830544
 30
0.0
 11
10.841
 21
13.91290094830544
 31
0.0
  0
LINE
  5
A52
330
18
100
AcDbEntity
  8
Object
100
AcDbLine
 10
10.83
 20
13.94090094830544
 30
0.0
 11
10.823
 21
13.91690094830544
 31
0.0
  0
LINE
  5
A53
330
18
100
AcDbEntity
  8
Object
100
AcDbLine
 10
10.824
 20
13.87590094830544
 30
0.0
 11
10.841
 21
13.91290094830544
 31
0.0
  0
LINE
  5
A54
330
18
100
AcDbEntity
  8
Object
100
AcDbLine
 10
10.835
 20
13.99390094830544
 30
0.0
 11
10.813
 21
14.02790094830544
 31
0.0
  0
LINE
  5
A55
330
18
100
AcDbEntity
  8
Object
100
AcDbLine
 10
10.823
 20
13.91690094830544
 30
0.0
 11
10.81
 21
13.89390094830544
 31
0.0
  0
LINE
  5
A56
330
18
100
AcDbEntity
  8
Object
100
AcDbLine
 10
10.81
 20
13.89390094830544
 30
0.0
 11
10.792
 21
13.87590094830544
 31
0.0
  0
LINE
  5
A57
330
18
100
AcDbEntity
  8
Object
100
AcDbLine
 10
10.796
 20
13.84590094830544
 30
0.0
 11
10.824
 21
13.87590094830544
 31
0.0
  0
LINE
  5
A58
330
18
100
AcDbEntity
  8
Object
100
AcDbLine
 10
10.813
 20
14.02790094830544
 30
0.0
 11
10.781
 21
14.05390094830544
 31
0.0
  0
LINE
  5
A59
330
18
100
AcDbEntity
  8
Object
100
AcDbLine
 10
10.769
 20
13.85790094830544
 30
0.0
 11
10.759
 21
13.85290094830544
 31
0.0
  0
LINE
  5
A5A
330
18
100
AcDbEntity
  8
Object
100
AcDbLine
 10
10.777
 20
13.86190094830544
 30
0.0
 11
10.771
 21
13.85890094830544
 31
0.0
  0
LINE
  5
A5B
330
18
100
AcDbEntity
  8
Object
100
AcDbLine
 10
10.808
 20
14.03290094830544
 30
0.0
 11
10.789
 21
14.04890094830544
 31
0.0
  0
LINE
  5
A5C
330
18
100
AcDbEntity
  8
Object
100
AcDbLine
 10
10.693
 20
14.06590094830544
 30
0.0
 11
10.689
 21
14.06590094830544
 31
0.0
  0
LINE
  5
A5D
330
18
100
AcDbEntity
  8
Object
100
AcDbLine
 10
10.677
 20
14.06090094830544
 30
0.0
 11
10.659
 21
14.05390094830544
 31
0.0
  0
LINE
  5
A5E
330
18
100
AcDbEntity
  8
Object
100
AcDbLine
 10
10.689
 20
14.06590094830544
 30
0.0
 11
10.685
 21
14.06390094830544
 31
0.0
  0
LINE
  5
A5F
330
18
100
AcDbEntity
  8
Object
100
AcDbLine
 10
10.648
 20
13.87590094830544
 30
0.0
 11
10.631
 21
13.89890094830544
 31
0.0
  0
LINE
  5
A60
330
18
100
AcDbEntity
  8
Object
100
AcDbLine
 10
10.64
 20
14.03690094830544
 30
0.0
 11
10.624
 21
14.01590094830544
 31
0.0
  0
LINE
  5
A61
330
18
100
AcDbEntity
  8
Object
100
AcDbLine
 10
10.624
 20
14.01590094830544
 30
0.0
 11
10.614
 21
13.99190094830544
 31
0.0
  0
LINE
  5
A62
330
18
100
AcDbEntity
  8
Object
100
AcDbLine
 10
10.61
 20
13.94090094830544
 30
0.0
 11
10.609
 21
13.96690094830544
 31
0.0
  0
LINE
  5
A63
330
18
100
AcDbEntity
  8
Object
100
AcDbLine
 10
10.609
 20
13.96690094830544
 30
0.0
 11
10.614
 21
13.99190094830544
 31
0.0
  0
LINE
  5
A64
330
18
100
AcDbEntity
  8
Object
100
AcDbLine
 10
10.72
 20
13.84490094830544
 30
0.0
 11
10.693
 21
13.84790094830544
 31
0.0
  0
LINE
  5
A65
330
18
100
AcDbEntity
  8
Object
100
AcDbLine
 10
10.693
 20
13.84790094830544
 30
0.0
 11
10.682
 21
13.85190094830544
 31
0.0
  0
LINE
  5
A66
330
18
100
AcDbEntity
  8
Object
100
AcDbLine
 10
10.693
 20
13.84790094830544
 30
0.0
 11
10.669
 21
13.85890094830544
 31
0.0
  0
LINE
  5
A67
330
18
100
AcDbEntity
  8
Object
100
AcDbLine
 10
10.669
 20
13.85890094830544
 30
0.0
 11
10.682
 21
13.85190094830544
 31
0.0
  0
LINE
  5
A68
330
18
100
AcDbEntity
  8
Object
100
AcDbLine
 10
10.648
 20
13.87590094830544
 30
0.0
 11
10.669
 21
13.85890094830544
 31
0.0
  0
LINE
  5
A69
330
18
100
AcDbEntity
  8
Object
100
AcDbLine
 10
10.669
 20
13.85890094830544
 30
0.0
 11
10.649
 21
13.87390094830544
 31
0.0
  0
LINE
  5
A6A
330
18
100
AcDbEntity
  8
Object
100
AcDbLine
 10
10.649
 20
13.87390094830544
 30
0.0
 11
10.647
 21
13.87590094830544
 31
0.0
  0
LINE
  5
A6B
330
18
100
AcDbEntity
  8
Object
100
AcDbLine
 10
10.845
 20
13.94490094830544
 30
0.0
 11
10.845
 21
13.95390094830544
 31
0.0
  0
LINE
  5
A6C
330
18
100
AcDbEntity
  8
Object
100
AcDbLine
 10
10.845
 20
13.95390094830544
 30
0.0
 11
10.843
 21
13.96890094830544
 31
0.0
  0
LINE
  5
A6D
330
18
100
AcDbEntity
  8
Object
100
AcDbLine
 10
10.843
 20
13.96890094830544
 30
0.0
 11
10.835
 21
13.99390094830544
 31
0.0
  0
LINE
  5
A6E
330
18
100
AcDbEntity
  8
Object
100
AcDbLine
 10
10.841
 20
13.91590094830544
 30
0.0
 11
10.841
 21
13.91290094830544
 31
0.0
  0
LINE
  5
A6F
330
18
100
AcDbEntity
  8
Object
100
AcDbLine
 10
10.841
 20
13.91290094830544
 30
0.0
 11
10.837
 21
13.90390094830544
 31
0.0
  0
LINE
  5
A70
330
18
100
AcDbEntity
  8
Object
100
AcDbLine
 10
10.835
 20
13.99390094830544
 30
0.0
 11
10.824
 21
14.01390094830544
 31
0.0
  0
LINE
  5
A71
330
18
100
AcDbEntity
  8
Object
100
AcDbLine
 10
10.824
 20
14.01390094830544
 30
0.0
 11
10.813
 21
14.02790094830544
 31
0.0
  0
LINE
  5
A72
330
18
100
AcDbEntity
  8
Object
100
AcDbLine
 10
10.813
 20
14.02790094830544
 30
0.0
 11
10.808
 21
14.03290094830544
 31
0.0
  0
LINE
  5
A73
330
18
100
AcDbEntity
  8
Object
100
AcDbLine
 10
10.789
 20
14.04890094830544
 30
0.0
 11
10.781
 21
14.05390094830544
 31
0.0
  0
LINE
  5
A74
330
18
100
AcDbEntity
  8
Object
100
AcDbLine
 10
10.781
 20
14.05390094830544
 30
0.0
 11
10.768
 21
14.05990094830544
 31
0.0
  0
LINE
  5
A75
330
18
100
AcDbEntity
  8
Object
100
AcDbLine
 10
10.768
 20
14.05990094830544
 30
0.0
 11
10.762
 21
14.06190094830544
 31
0.0
  0
LINE
  5
A76
330
18
100
AcDbEntity
  8
Object
100
AcDbLine
 10
10.762
 20
14.06190094830544
 30
0.0
 11
10.744
 21
14.06690094830544
 31
0.0
  0
LINE
  5
A77
330
18
100
AcDbEntity
  8
Object
100
AcDbLine
 10
10.744
 20
14.06690094830544
 30
0.0
 11
10.741
 21
14.06790094830544
 31
0.0
  0
LINE
  5
A78
330
18
100
AcDbEntity
  8
Object
100
AcDbLine
 10
10.741
 20
14.06790094830544
 30
0.0
 11
10.72
 21
14.06990094830544
 31
0.0
  0
LINE
  5
A79
330
18
100
AcDbEntity
  8
Object
100
AcDbLine
 10
10.792
 20
13.87590094830544
 30
0.0
 11
10.777
 21
13.86190094830544
 31
0.0
  0
LINE
  5
A7A
330
18
100
AcDbEntity
  8
Object
100
AcDbLine
 10
10.777
 20
13.86190094830544
 30
0.0
 11
10.771
 21
13.85890094830544
 31
0.0
  0
LINE
  5
A7B
330
18
100
AcDbEntity
  8
Object
100
AcDbLine
 10
10.771
 20
13.85890094830544
 30
0.0
 11
10.759
 21
13.85290094830544
 31
0.0
  0
LINE
  5
A7C
330
18
100
AcDbEntity
  8
Object
100
AcDbLine
 10
10.759
 20
13.85290094830544
 30
0.0
 11
10.747
 21
13.84790094830544
 31
0.0
  0
LINE
  5
A7D
330
18
100
AcDbEntity
  8
Object
100
AcDbLine
 10
10.747
 20
13.84790094830544
 30
0.0
 11
10.74
 21
13.84690094830544
 31
0.0
  0
LINE
  5
A7E
330
18
100
AcDbEntity
  8
Object
100
AcDbLine
 10
10.74
 20
13.84690094830544
 30
0.0
 11
10.72
 21
13.84490094830544
 31
0.0
  0
LINE
  5
A7F
330
18
100
AcDbEntity
  8
Object
100
AcDbLine
 10
10.72
 20
13.84490094830544
 30
0.0
 11
10.747
 21
13.84790094830544
 31
0.0
  0
LINE
  5
A80
330
18
100
AcDbEntity
  8
Object
100
AcDbLine
 10
10.72
 20
13.84490094830544
 30
0.0
 11
10.74
 21
13.84690094830544
 31
0.0
  0
LINE
  5
A81
330
18
100
AcDbEntity
  8
Object
100
AcDbLine
 10
10.83
 20
13.94090094830544
 30
0.0
 11
10.831
 21
13.96690094830544
 31
0.0
  0
LINE
  5
A82
330
18
100
AcDbEntity
  8
Object
100
AcDbLine
 10
10.8
 20
14.03690094830544
 30
0.0
 11
10.816
 21
14.01590094830544
 31
0.0
  0
LINE
  5
A83
330
18
100
AcDbEntity
  8
Object
100
AcDbLine
 10
10.816
 20
14.01590094830544
 30
0.0
 11
10.826
 21
13.99290094830544
 31
0.0
  0
LINE
  5
A84
330
18
100
AcDbEntity
  8
Object
100
AcDbLine
 10
10.826
 20
13.99290094830544
 30
0.0
 11
10.831
 21
13.96690094830544
 31
0.0
  0
LINE
  5
A85
330
18
100
AcDbEntity
  8
Object
100
AcDbLine
 10
10.8
 20
14.03690094830544
 30
0.0
 11
10.781
 21
14.05390094830544
 31
0.0
  0
LINE
  5
A86
330
18
100
AcDbEntity
  8
Object
100
AcDbLine
 10
10.781
 20
14.05390094830544
 30
0.0
 11
10.762
 21
14.06190094830544
 31
0.0
  0
LINE
  5
A87
330
18
100
AcDbEntity
  8
Object
100
AcDbLine
 10
10.762
 20
14.06190094830544
 30
0.0
 11
10.741
 21
14.06790094830544
 31
0.0
  0
LINE
  5
A88
330
18
100
AcDbEntity
  8
Object
100
AcDbLine
 10
10.792
 20
13.87590094830544
 30
0.0
 11
10.771
 21
13.85890094830544
 31
0.0
  0
LINE
  5
A89
330
18
100
AcDbEntity
  8
Object
100
AcDbLine
 10
10.771
 20
13.85890094830544
 30
0.0
 11
10.747
 21
13.84790094830544
 31
0.0
  0
LINE
  5
A8A
330
18
100
AcDbEntity
  8
Object
100
AcDbLine
 10
10.693
 20
13.84790094830544
 30
0.0
 11
10.72
 21
13.84490094830544
 31
0.0
  0
LINE
  5
A8B
330
18
100
AcDbEntity
  8
Object
100
AcDbLine
 10
10.699
 20
14.06790094830544
 30
0.0
 11
10.72
 21
14.06990094830544
 31
0.0
  0
LINE
  5
A8C
330
18
100
AcDbEntity
  8
Object
100
AcDbLine
 10
10.72
 20
14.06990094830544
 30
0.0
 11
10.741
 21
14.06790094830544
 31
0.0
  0
LINE
  5
A8D
330
18
100
AcDbEntity
  8
Object
100
AcDbLine
 10
10.699
 20
14.06790094830544
 30
0.0
 11
10.678
 21
14.06190094830544
 31
0.0
  0
LINE
  5
A8E
330
18
100
AcDbEntity
  8
Object
100
AcDbLine
 10
10.678
 20
14.06190094830544
 30
0.0
 11
10.659
 21
14.05390094830544
 31
0.0
  0
LINE
  5
A8F
330
18
100
AcDbEntity
  8
Object
100
AcDbLine
 10
10.659
 20
14.05390094830544
 30
0.0
 11
10.64
 21
14.03690094830544
 31
0.0
  0
LINE
  5
A90
330
18
100
AcDbEntity
  8
Object
100
AcDbLine
 10
10.648
 20
13.87590094830544
 30
0.0
 11
10.63
 21
13.89390094830544
 31
0.0
  0
LINE
  5
A91
330
18
100
AcDbEntity
  8
Object
100
AcDbLine
 10
10.63
 20
13.89390094830544
 30
0.0
 11
10.617
 21
13.91690094830544
 31
0.0
  0
LINE
  5
A92
330
18
100
AcDbEntity
  8
Object
100
AcDbLine
 10
10.617
 20
13.91690094830544
 30
0.0
 11
10.61
 21
13.94090094830544
 31
0.0
  0
LINE
  5
A93
330
18
100
AcDbEntity
  8
Object
100
AcDbLine
 10
10.72
 20
14.06990094830544
 30
0.0
 11
10.699
 21
14.06790094830544
 31
0.0
  0
LINE
  5
A94
330
18
100
AcDbEntity
  8
Object
100
AcDbLine
 10
10.699
 20
14.06790094830544
 30
0.0
 11
10.689
 21
14.06590094830544
 31
0.0
  0
LINE
  5
A95
330
18
100
AcDbEntity
  8
Object
100
AcDbLine
 10
10.689
 20
14.06590094830544
 30
0.0
 11
10.678
 21
14.06190094830544
 31
0.0
  0
DIMENSION
  5
A96
330
18
100
AcDbEntity
  8
Dimension
100
AcDbDimension
  2
*D0
 10
12.61090378058507
 20
12.94490094830544
 30
0.0
 11
12.61090378058507
 21
13.94490094830544
 31
0.0
 70
    32
 71
     5
 42
2.000000000000001
  3
STANDARD
100
AcDbAlignedDimension
 13
10.985
 23
14.94490094830544
 33
0.0
 14
10.985
 24
12.94490094830544
 34
0.0
 50
90.0
100
AcDbRotatedDimension
  0
DIMENSION
  5
AA4
330
18
100
AcDbEntity
  8
Dimension
100
AcDbDimension
  2
*D1
 10
11.36
 20
10.41347962824294
 30
0.0
 11
6.919499999999999
 21
10.41347962824294
 31
0.0
 70
    32
 71
     5
 42
8.881
  3
STANDARD
100
AcDbAlignedDimension
 13
2.478999999999999
 23
8.72690094830544
 33
0.0
 14
11.36
 24
9.060900948305439
 34
0.0
100
AcDbRotatedDimension
  0
DIMENSION
  5
AB2
330
18
100
AcDbEntity
  8
Dimension
100
AcDbDimension
  2
*D2
 10
15.41891073498873
 20
4.56990094830544
 30
0.0
 11
15.41891073498872
 21
6.815400948305442
 31
0.0
 70
    32
 71
     5
 42
4.490999999999999
  3
STANDARD
100
AcDbAlignedDimension
 13
16.669
 23
9.060900948305439
 33
0.0
 14
17.044
 24
4.56990094830544
 34
0.0
 50
90.0
100
AcDbRotatedDimension
  0
MTEXT
  5
AC2
330
18
100
AcDbEntity
  8
Text
100
AcDbMText
 10
11.37324893148254
 20
0.8775685908585026
 30
0.0
 40
0.09
 41
0.25
 71
     5
 72
     5
  1
1
 73
     1
 44
1.0
1001
ACAD
1000
MTEXTBEGIN
1070
    73
1070
     1
1070
    44
1040
1.0
1070
    74
1070
     0
1000
MTEXTEND
  0
MTEXT
  5
AC3
330
18
100
AcDbEntity
  8
Text
100
AcDbMText
 10
11.74824893148254
 20
0.8775685908585026
 30
0.0
 40
0.07
 41
0.5
 71
     5
 72
     5
  1
6-15-07
 73
     1
 44
1.0
1001
ACAD
1000
MTEXTBEGIN
1070
    73
1070
     1
1070
    44
1040
1.0
1070
    74
1070
     0
1000
MTEXTEND
  0
MTEXT
  5
AC4
330
18
100
AcDbEntity
  8
Text
100
AcDbMText
 10
12.18574893148254
 20
0.8775685908585026
 30
0.0
 40
0.09
 41
0.375
 71
     5
 72
     5
  1
DTP
 73
     1
 44
1.0
1001
ACAD
1000
MTEXTBEGIN
1070
    73
1070
     1
1070
    44
1040
1.0
1070
    74
1070
     0
1000
MTEXTEND
  0
MTEXT
  5
AC5
330
18
100
AcDbEntity
  8
Text
100
AcDbMText
 10
12.77324893148254
 20
0.8775685908585021
 30
0.0
 40
0.07
 41
2.75
 71
     4
 72
     5
  1
B. REVISED PAPER SIZE; WAS B SIZE.\PA. REVISED DRAWING TITLE.
 73
     1
 44
1.0
1001
ACAD
1000
MTEXTBEGIN
1070
    73
1070
     1
1070
    44
1040
1.0
1070
    74
1070
     0
1000
MTEXTEND
  0
MTEXT
  5
AC6
330
18
100
AcDbEntity
  8
Text
100
AcDbMText
 10
12.5604002814227
 20
0.8762490740326649
 30
0.0
 40
0.07
 41
0.375
 71
     5
 72
     5
  1
DJWA
 73
     1
 44
1.0
1001
ACAD
1000
MTEXTBEGIN
1070
    73
1070
     1
1070
    44
1040
1.0
1070
    74
1070
     0
1000
MTEXTEND
  0
MTEXT
  5
AC7
330
18
100
AcDbEntity
  8
Text
100
AcDbMText
 10
11.37324893148254
 20
1.127568590858502
 30
0.0
 40
0.09
 41
0.25
 71
     5
 72
     5
  1
-
 73
     1
 44
1.0
1001
ACAD
1000
MTEXTBEGIN
1070
    73
1070
     1
1070
    44
1040
1.0
1070
    74
1070
     0
1000
MTEXTEND
  0
MTEXT
  5
AC8
330
18
100
AcDbEntity
  8
Text
100
AcDbMText
 10
11.74824893148254
 20
1.127568590858502
 30
0.0
 40
0.07
 41
0.5
 71
     5
 72
     5
  1
--------
 73
     1
 44
1.0
1001
ACAD
1000
MTEXTBEGIN
1070
    73
1070
     1
1070
    44
1040
1.0
1070
    74
1070
     0
1000
MTEXTEND
  0
MTEXT
  5
AC9
330
18
100
AcDbEntity
  8
Text
100
AcDbMText
 10
12.18574893148254
 20
1.127568590858502
 30
0.0
 40
0.09
 41
0.375
 71
     5
 72
     5
  1
---
 73
     1
 44
1.0
1001
ACAD
1000
MTEXTBEGIN
1070
    73
1070
     1
1070
    44
1040
1.0
1070
    74
1070
     0
1000
MTEXTEND
  0
MTEXT
  5
ACA
330
18
100
AcDbEntity
  8
Text
100
AcDbMText
 10
12.77324893148254
 20
1.127568590858502
 30
0.0
 40
0.07
 41
2.75
 71
     4
 72
     5
  1
D. ADDED RIGHT SIDE VIEW.\PC. REVISED PART GEOMETRY.
 73
     1
 44
1.0
1001
ACAD
1000
MTEXTBEGIN
1070
    73
1070
     1
1070
    44
1040
1.0
1070
    74
1070
     0
1000
MTEXTEND
  0
MTEXT
  5
ACB
330
18
100
AcDbEntity
  8
Text
100
AcDbMText
 10
12.5604002814227
 20
1.126249074032665
 30
0.0
 40
0.07
 41
0.375
 71
     5
 72
     5
  1
----
 73
     1
 44
1.0
1001
ACAD
1000
MTEXTBEGIN
1070
    73
1070
     1
1070
    44
1040
1.0
1070
    74
1070
     0
1000
MTEXTEND
  0
MTEXT
  5
ACC
330
18
100
AcDbEntity
  8
Text
100
AcDbMText
 10
11.37324893148254
 20
1.369153718801785
 30
0.0
 40
0.09
 41
0.25
 71
     5
 72
     5
  1
-
 73
     1
 44
1.0
1001
ACAD
1000
MTEXTBEGIN
1070
    73
1070
     1
1070
    44
1040
1.0
1070
    74
1070
     0
1000
MTEXTEND
  0
MTEXT
  5
ACD
330
18
100
AcDbEntity
  8
Text
100
AcDbMText
 10
11.74824893148254
 20
1.369153718801785
 30
0.0
 40
0.07
 41
0.5
 71
     5
 72
     5
  1
--------
 73
     1
 44
1.0
1001
ACAD
1000
MTEXTBEGIN
1070
    73
1070
     1
1070
    44
1040
1.0
1070
    74
1070
     0
1000
MTEXTEND
  0
MTEXT
  5
ACE
330
18
100
AcDbEntity
  8
Text
100
AcDbMText
 10
12.18574893148254
 20
1.369153718801785
 30
0.0
 40
0.09
 41
0.375
 71
     5
 72
     5
  1
---
 73
     1
 44
1.0
1001
ACAD
1000
MTEXTBEGIN
1070
    73
1070
     1
1070
    44
1040
1.0
1070
    74
1070
     0
1000
MTEXTEND
  0
MTEXT
  5
ACF
330
18
100
AcDbEntity
  8
Text
100
AcDbMText
 10
12.77324893148254
 20
1.369153718801784
 30
0.0
 40
0.07
 41
2.75
 71
     4
 72
     5
  1
E. REVISED DIMENSION.
 73
     1
 44
1.0
1001
ACAD
1000
MTEXTBEGIN
1070
    73
1070
     1
1070
    44
1040
1.0
1070
    74
1070
     0
1000
MTEXTEND
  0
MTEXT
  5
AD0
330
18
100
AcDbEntity
  8
Text
100
AcDbMText
 10
12.5604002814227
 20
1.367834201975947
 30
0.0
 40
0.07
 41
0.375
 71
     5
 72
     5
  1
----
 73
     1
 44
1.0
1001
ACAD
1000
MTEXTBEGIN
1070
    73
1070
     1
1070
    44
1040
1.0
1070
    74
1070
     0
1000
MTEXTEND
  0
LINE
  5
AD1
330
18
100
AcDbEntity
  8
Text
100
AcDbLine
 10
17.77240336079058
 20
1.52082360707071
 30
0.0
 11
17.92240336079057
 21
1.780631228206042
 31
0.0
  0
LINE
  5
AD2
330
18
100
AcDbEntity
  8
Text
100
AcDbLine
 10
17.92240336079057
 20
1.780631228206042
 30
0.0
 11
18.07240336079057
 21
1.520823607070709
 31
0.0
  0
LINE
  5
AD3
330
18
100
AcDbEntity
  8
Text
100
AcDbLine
 10
18.07240336079057
 20
1.520823607070709
 30
0.0
 11
17.77240336079058
 21
1.52082360707071
 31
0.0
  0
TEXT
  5
AD4
330
18
100
AcDbEntity
  8
Text
100
AcDbText
 10
17.88154774853807
 20
1.574859726577634
 30
0.0
 40
0.09
  1
A
100
AcDbText
  0
LINE
  5
AD5
330
18
100
AcDbEntity
  8
Text
100
AcDbLine
 10
21.35226916045306
 20
0.7620930444259529
 30
0.0
 11
21.50226916045306
 21
1.021900665561285
 31
0.0
  0
LINE
  5
AD6
330
18
100
AcDbEntity
  8
Text
100
AcDbLine
 10
21.50226916045306
 20
1.021900665561285
 30
0.0
 11
21.65226916045306
 21
0.7620930444259524
 31
0.0
  0
LINE
  5
AD7
330
18
100
AcDbEntity
  8
Text
100
AcDbLine
 10
21.65226916045306
 20
0.7620930444259524
 30
0.0
 11
21.35226916045306
 21
0.7620930444259529
 31
0.0
  0
TEXT
  5
AD8
330
18
100
AcDbEntity
  8
Text
100
AcDbText
 10
21.4648981698217
 20
0.8126459152351435
 30
0.0
 40
0.09
  1
B
100
AcDbText
  0
LINE
  5
AD9
330
18
100
AcDbEntity
  8
Text
100
AcDbLine
 10
16.62082474389684
 20
3.893867607451739
 30
0.0
 11
16.77082474389684
 21
4.153675228587072
 31
0.0
  0
LINE
  5
ADA
330
18
100
AcDbEntity
  8
Text
100
AcDbLine
 10
16.77082474389684
 20
4.153675228587072
 30
0.0
 11
16.92082474389684
 21
3.893867607451739
 31
0.0
  0
LINE
  5
ADB
330
18
100
AcDbEntity
  8
Text
100
AcDbLine
 10
16.92082474389684
 20
3.893867607451739
 30
0.0
 11
16.62082474389684
 21
3.893867607451739
 31
0.0
  0
TEXT
  5
ADC
330
18
100
AcDbEntity
  8
Text
100
AcDbText
 10
16.72648444546568
 20
3.944733713102237
 30
0.0
 40
0.09
  1
C
100
AcDbText
  0
LINE
  5
ADD
330
18
100
AcDbEntity
  8
Text
100
AcDbLine
 10
16.28702268112303
 20
3.89386760745174
 30
0.0
 11
16.43702268112303
 21
4.153675228587072
 31
0.0
  0
LINE
  5
ADE
330
18
100
AcDbEntity
  8
Text
100
AcDbLine
 10
16.43702268112303
 20
4.153675228587072
 30
0.0
 11
16.58702268112303
 21
3.893867607451739
 31
0.0
  0
LINE
  5
ADF
330
18
100
AcDbEntity
  8
Text
100
AcDbLine
 10
16.58702268112303
 20
3.893867607451739
 30
0.0
 11
16.28702268112303
 21
3.89386760745174
 31
0.0
  0
TEXT
  5
AE0
330
18
100
AcDbEntity
  8
Text
100
AcDbText
 10
16.39944278233512
 20
3.94811257701344
 30
0.0
 40
0.09
  1
D
100
AcDbText
  0
LINE
  5
AE1
330
18
100
AcDbEntity
  8
Text
100
AcDbLine
 10
14.67333826679795
 20
6.689360309689462
 30
0.0
 11
14.82333826679795
 21
6.949167930824794
 31
0.0
  0
LINE
  5
AE2
330
18
100
AcDbEntity
  8
Text
100
AcDbLine
 10
14.82333826679795
 20
6.949167930824794
 30
0.0
 11
14.97333826679795
 21
6.689360309689462
 31
0.0
  0
LINE
  5
AE3
330
18
100
AcDbEntity
  8
Text
100
AcDbLine
 10
14.97333826679795
 20
6.689360309689462
 30
0.0
 11
14.67333826679795
 21
6.689360309689462
 31
0.0
  0
TEXT
  5
AE4
330
18
100
AcDbEntity
  8
Text
100
AcDbText
 10
14.78254882601036
 20
6.73794009073262
 30
0.0
 40
0.09
  1
E
100
AcDbText
  0
LINE
  5
AE5
330
18
100
AcDbEntity
  8
Text
100
AcDbLine
 10
6.119573543517979
 20
4.078964239493103
 30
0.0
 11
6.269573543517978
 21
4.338771860628435
 31
0.0
  0
LINE
  5
AE6
330
18
100
AcDbEntity
  8
Text
100
AcDbLine
 10
6.269573543517978
 20
4.338771860628435
 30
0.0
 11
6.419573543517977
 21
4.078964239493103
 31
0.0
  0
LINE
  5
AE7
330
18
100
AcDbEntity
  8
Text
100
AcDbLine
 10
6.419573543517977
 20
4.078964239493103
 30
0.0
 11
6.119573543517979
 21
4.078964239493103
 31
0.0
  0
TEXT
  5
AE8
330
18
100
AcDbEntity
  8
Text
100
AcDbText
 10
6.225233245086812
 20
4.139966896636365
 30
0.0
 40
0.09
  1
C
100
AcDbText
  0
LINE
  5
AE9
330
18
100
AcDbEntity
  8
Text
100
AcDbLine
 10
6.173924614718565
 20
12.13222571868389
 30
0.0
 11
6.323924614718563
 21
12.39203333981922
 31
0.0
  0
LINE
  5
AEA
330
18
100
AcDbEntity
  8
Text
100
AcDbLine
 10
6.323924614718563
 20
12.39203333981922
 30
0.0
 11
6.473924614718562
 21
12.13222571868389
 31
0.0
  0
LINE
  5
AEB
330
18
100
AcDbEntity
  8
Text
100
AcDbLine
 10
6.473924614718562
 20
12.13222571868389
 30
0.0
 11
6.173924614718565
 21
12.13222571868389
 31
0.0
  0
TEXT
  5
AEC
330
18
100
AcDbEntity
  8
Text
100
AcDbText
 10
6.285085456813959
 20
12.1877294222944
 30
0.0
 40
0.09
  1
C
100
AcDbText
  0
ENDSEC
  0
SECTION
  2
OBJECTS
  0
DICTIONARY
  5
C
330
0
100
AcDbDictionary
281
     1
  3
ACAD_COLOR
350
10D
  3
ACAD_GROUP
350
D
  3
ACAD_LAYOUT
350
110
  3
ACAD_MATERIAL
350
10C
  3
ACAD_MLINESTYLE
350
1B
  3
ACAD_PLOTSETTINGS
350
111
  3
ACAD_PLOTSTYLENAME
350
10A
  3
ACAD_TABLESTYLE
350
10E
  3
ACDBHEADERROUNDTRIPXREC
350
B12
  3
AcDbVariableDictionary
350
13E
  3
ASE_INDEX_DICTIONARY
350
148
  0
DICTIONARY
  5
154
330
2
100
AcDbDictionary
280
     1
281
     1
  3
ACAD_LAYERFILTERS
360
158
  3
ACLYDICTIONARY
360
157
  0
DICTIONARY
  5
10D
102
{ACAD_REACTORS
330
C
102
}
330
C
100
AcDbDictionary
281
     1
  0
DICTIONARY
  5
D
102
{ACAD_REACTORS
330
C
102
}
330
C
100
AcDbDictionary
281
     1
  0
DICTIONARY
  5
110
102
{ACAD_REACTORS
330
C
102
}
330
C
100
AcDbDictionary
281
     1
  3
Layout1
350
113
  3
Model
350
112
  0
DICTIONARY
  5
10C
102
{ACAD_REACTORS
330
C
102
}
330
C
100
AcDbDictionary
281
     1
  0
DICTIONARY
  5
1B
102
{ACAD_REACTORS
330
C
102
}
330
C
100
AcDbDictionary
281
     1
  3
STANDARD
350
1C
  0
DICTIONARY
  5
111
102
{ACAD_REACTORS
330
C
102
}
330
C
100
AcDbDictionary
281
     1
  0
ACDBDICTIONARYWDFLT
  5
10A
102
{ACAD_REACTORS
330
C
102
}
330
C
100
AcDbDictionary
281
     1
  3
Normal
350
10B
100
AcDbDictionaryWithDefault
340
10B
  0
DICTIONARY
  5
10E
102
{ACAD_REACTORS
330
C
102
}
330
C
100
AcDbDictionary
281
     1
  3
Standard
350
10F
  0
DICTIONARY
  5
B12
102
{ACAD_REACTORS
330
C
102
}
330
C
100
AcDbDictionary
281
     1
  0
DICTIONARY
  5
13E
102
{ACAD_REACTORS
330
C
102
}
330
C
100
AcDbDictionary
281
     1
  3
CTABLESTYLE
350
13F
  3
DIMASSOC
350
B0F
  3
PROJECTNAME
350
B10
  0
DICTIONARY
  5
148
102
{ACAD_REACTORS
330
C
102
}
330
C
100
AcDbDictionary
281
     1
  3
ASEBlockHierarchyIndexRecord
350
14A
1001
DCO15
1040
1529148047.148
  0
DICTIONARY
  5
158
102
{ACAD_REACTORS
330
154
102
}
330
154
100
AcDbDictionary
281
     1
  0
DICTIONARY
  5
157
102
{ACAD_REACTORS
330
154
102
}
330
154
100
AcDbDictionary
281
     1
1001
ACAD
1000
<All
  0
LAYOUT
  5
113
102
{ACAD_XDICTIONARY
360
B15
102
}
102
{ACAD_REACTORS
330
110
102
}
330
110
100
AcDbPlotSettings
  1

  2
\\RSENG\RSplotter4NT
  4

  6

 40
0.0
 41
0.0
 42
0.0
 43
0.0
 44
0.0
 45
0.0
 46
0.0
 47
0.0
 48
0.0
 49
0.0
140
0.0
141
0.0
142
1.0
143
1.0
 70
   688
 72
     0
 73
     0
 74
     5
  7
Symantec Fax Starter Edition
 75
    16
147
1.0
148
0.0
149
0.0
100
AcDbLayout
  1
Layout1
 70
     1
 71
     1
 10
0.0
 20
0.0
 11
12.0
 21
9.0
 12
0.0
 22
0.0
 32
0.0
 14
1.000000000000000E+20
 24
1.000000000000000E+20
 34
1.000000000000000E+20
 15
-1.000000000000000E+20
 25
-1.000000000000000E+20
 35
-1.000000000000000E+20
146
0.0
 13
0.0
 23
0.0
 33
0.0
 16
1.0
 26
0.0
 36
0.0
 17
0.0
 27
1.0
 37
0.0
 76
     0
330
15
  0
LAYOUT
  5
112
102
{ACAD_XDICTIONARY
360
B13
102
}
102
{ACAD_REACTORS
330
110
102
}
330
110
100
AcDbPlotSettings
  1

  2
\\RSENG\RSplotter4NT
  4

  6

 40
0.0
 41
0.0
 42
0.0
 43
0.0
 44
0.0
 45
0.0
 46
0.0
 47
0.0
 48
0.0
 49
0.0
140
0.0
141
0.0
142
1.0
143
1.0
 70
  1712
 72
     0
 73
     0
 74
     0
  7
Symantec Fax Starter Edition
 75
     0
147
1.0
148
0.0
149
0.0
100
AcDbLayout
  1
Model
 70
     1
 71
     0
 10
0.0
 20
0.0
 11
12.0
 21
9.0
 12
0.0
 22
0.0
 32
0.0
 14
0.0
 24
0.0
 34
0.0
 15
0.0
 25
0.0
 35
0.0
146
0.0
 13
0.0
 23
0.0
 33
0.0
 16
1.0
 26
0.0
 36
0.0
 17
0.0
 27
1.0
 37
0.0
 76
     0
330
18
  0
MLINESTYLE
  5
1C
102
{ACAD_REACTORS
330
1B
102
}
330
1B
100
AcDbMlineStyle
  2
STANDARD
 70
     0
  3

 62
   256
 51
90.0
 52
90.0
 71
     2
 49
0.5
 62
   256
  6
BYLAYER
 49
-0.5
 62
   256
  6
BYLAYER
  0
ACDBPLACEHOLDER
  5
10B
102
{ACAD_REACTORS
330
10A
102
}
330
10A
  0
TABLESTYLE
  5
10F
102
{ACAD_REACTORS
330
10E
102
}
330
10E
100
AcDbTableStyle
  3
Standard
 70
     0
 71
     0
 40
0.06
 41
0.06
280
     0
281
     0
  7
STANDARD
140
0.18
170
     2
 62
     0
 63
     7
283
     0
274
    -2
284
     1
 64
     0
275
    -2
285
     1
 65
     0
276
    -2
286
     1
 66
     0
277
    -2
287
     1
 67
     0
278
    -2
288
     1
 68
     0
279
    -2
289
     1
 69
     0
  7
STANDARD
140
0.25
170
     5
 62
     0
 63
     7
283
     0
274
    -2
284
     1
 64
     0
275
    -2
285
     1
 65
     0
276
    -2
286
     1
 66
     0
277
    -2
287
     1
 67
     0
278
    -2
288
     1
 68
     0
279
    -2
289
     1
 69
     0
  7
STANDARD
140
0.18
170
     5
 62
     0
 63
     7
283
     0
274
    -2
284
     1
 64
     0
275
    -2
285
     1
 65
     0
276
    -2
286
     1
 66
     0
277
    -2
287
     1
 67
     0
278
    -2
288
     1
 68
     0
279
    -2
289
     1
 69
     0
  0
DICTIONARYVAR
  5
13F
102
{ACAD_REACTORS
330
13E
102
}
330
13E
100
DictionaryVariables
280
     0
  1
STANDARD
  0
DICTIONARYVAR
  5
B0F
102
{ACAD_REACTORS
330
13E
102
}
330
13E
100
DictionaryVariables
280
     0
  1
1
  0
DICTIONARYVAR
  5
B10
102
{ACAD_REACTORS
330
13E
102
}
330
13E
100
DictionaryVariables
280
     0
  1

  0
XRECORD
  5
14A
102
{ACAD_REACTORS
330
148
102
}
330
148
100
AcDbXrecord
280
     1
  0
DICTIONARY
  5
B15
330
113
100
AcDbDictionary
280
     1
281
     1
  3
ACAD_XREC_ROUNDTRIP
360
B16
  0
DICTIONARY
  5
B13
330
112
100
AcDbDictionary
280
     1
281
     1
  3
ACAD_XREC_ROUNDTRIP
360
B14
  0
XRECORD
  5
B16
102
{ACAD_REACTORS
330
B15
102
}
330
B15
100
AcDbXrecord
280
     1
102
SHADEPLOT
 70
     0
102
SHADEPLOTRESLEVEL
 70
     2
102
SHADEPLOTCUSTOMDPI
 70
   300
  0
XRECORD
  5
B14
102
{ACAD_REACTORS
330
B13
102
}
330
B13
100
AcDbXrecord
280
     1
102
SHADEPLOT
 70
     0
102
SHADEPLOTRESLEVEL
 70
     2
102
SHADEPLOTCUSTOMDPI
 70
   300
  0
ENDSEC
  0
EOF
