  0
SECTION
  2
HEADER
  9
$ACADVER
  1
AC1015
  9
$ACADMAINTVER
 70
    20
  9
$DWGCODEPAGE
  3
ANSI_1252
  9
$INSBASE
 10
0.0
 20
0.0
 30
0.0
  9
$EXTMIN
 10
-0.075
 20
-0.075
 30
0.0
  9
$EXTMAX
 10
11.075
 20
8.575000000000001
 30
0.0
  9
$LIMMIN
 10
0.0
 20
0.0
  9
$LIMMAX
 10
12.0
 20
9.0
  9
$ORTHOMODE
 70
     0
  9
$REGENMODE
 70
     1
  9
$FILLMODE
 70
     1
  9
$QTEXTMODE
 70
     0
  9
$MIRRTEXT
 70
     1
  9
$LTSCALE
 40
1.0
  9
$ATTMODE
 70
     1
  9
$TEXTSIZE
 40
0.09
  9
$TRACEWID
 40
0.05
  9
$TEXTSTYLE
  7
STANDARD
  9
$CLAYER
  8
0
  9
$CELTYPE
  6
BYLAYER
  9
$CECOLOR
 62
   256
  9
$CELTSCALE
 40
1.0
  9
$DISPSILH
 70
     0
  9
$DIMSCALE
 40
1.0
  9
$DIMASZ
 40
0.125
  9
$DIMEXO
 40
0.0625
  9
$DIMDLI
 40
0.38
  9
$DIMRND
 40
0.0
  9
$DIMDLE
 40
0.0
  9
$DIMEXE
 40
0.125
  9
$DIMTP
 40
0.0
  9
$DIMTM
 40
0.0
  9
$DIMTXT
 40
0.09
  9
$DIMCEN
 40
0.09
  9
$DIMTSZ
 40
0.0
  9
$DIMTOL
 70
     0
  9
$DIMLIM
 70
     0
  9
$DIMTIH
 70
     1
  9
$DIMTOH
 70
     1
  9
$DIMSE1
 70
     0
  9
$DIMSE2
 70
     0
  9
$DIMTAD
 70
     0
  9
$DIMZIN
 70
     0
  9
$DIMBLK
  1

  9
$DIMASO
 70
     1
  9
$DIMSHO
 70
     1
  9
$DIMPOST
  1

  9
$DIMAPOST
  1
mm
  9
$DIMALT
 70
     1
  9
$DIMALTD
 70
     1
  9
$DIMALTF
 40
25.4
  9
$DIMLFAC
 40
1.0
  9
$DIMTOFL
 70
     0
  9
$DIMTVP
 40
0.0
  9
$DIMTIX
 70
     0
  9
$DIMSOXD
 70
     0
  9
$DIMSAH
 70
     0
  9
$DIMBLK1
  1

  9
$DIMBLK2
  1

  9
$DIMSTYLE
  2
STANDARD
  9
$DIMCLRD
 70
     0
  9
$DIMCLRE
 70
     0
  9
$DIMCLRT
 70
     0
  9
$DIMTFAC
 40
1.0
  9
$DIMGAP
 40
0.09
  9
$DIMJUST
 70
     0
  9
$DIMSD1
 70
     0
  9
$DIMSD2
 70
     0
  9
$DIMTOLJ
 70
     1
  9
$DIMTZIN
 70
     0
  9
$DIMALTZ
 70
     0
  9
$DIMALTTZ
 70
     0
  9
$DIMUPT
 70
     0
  9
$DIMDEC
 70
     2
  9
$DIMTDEC
 70
     2
  9
$DIMALTU
 70
     2
  9
$DIMALTTD
 70
     1
  9
$DIMTXSTY
  7
STANDARD
  9
$DIMAUNIT
 70
     0
  9
$DIMADEC
 70
     0
  9
$DIMALTRND
 40
0.0
  9
$DIMAZIN
 70
     0
  9
$DIMDSEP
 70
    46
  9
$DIMATFIT
 70
     3
  9
$DIMFRAC
 70
     0
  9
$DIMLDRBLK
  1

  9
$DIMLUNIT
 70
     2
  9
$DIMLWD
 70
    -2
  9
$DIMLWE
 70
    -2
  9
$DIMTMOVE
 70
     0
  9
$LUNITS
 70
     2
  9
$LUPREC
 70
     2
  9
$SKETCHINC
 40
0.1
  9
$FILLETRAD
 40
0.5
  9
$AUNITS
 70
     0
  9
$AUPREC
 70
     0
  9
$MENU
  1
.
  9
$ELEVATION
 40
0.0
  9
$PELEVATION
 40
0.0
  9
$THICKNESS
 40
0.0
  9
$LIMCHECK
 70
     0
  9
$CHAMFERA
 40
0.5
  9
$CHAMFERB
 40
0.5
  9
$CHAMFERC
 40
1.0
  9
$CHAMFERD
 40
0.0
  9
$SKPOLY
 70
     0
  9
$TDCREATE
 40
2451681.555436007
  9
$TDUCREATE
 40
2451681.763769340
  9
$TDUPDATE
 40
2454294.563960683
  9
$TDUUPDATE
 40
2454294.772294016
  9
$TDINDWG
 40
0.2282590741
  9
$TDUSRTIMER
 40
0.2282590741
  9
$USRTIMER
 70
     1
  9
$ANGBASE
 50
0.0
  9
$ANGDIR
 70
     0
  9
$PDMODE
 70
     2
  9
$PDSIZE
 40
0.075
  9
$PLINEWID
 40
0.0
  9
$SPLFRAME
 70
     0
  9
$SPLINETYPE
 70
     6
  9
$SPLINESEGS
 70
     8
  9
$HANDSEED
  5
656
  9
$SURFTAB1
 70
     6
  9
$SURFTAB2
 70
     6
  9
$SURFTYPE
 70
     6
  9
$SURFU
 70
     6
  9
$SURFV
 70
     6
  9
$UCSBASE
  2

  9
$UCSNAME
  2

  9
$UCSORG
 10
0.0
 20
0.0
 30
0.0
  9
$UCSXDIR
 10
1.0
 20
0.0
 30
0.0
  9
$UCSYDIR
 10
0.0
 20
1.0
 30
0.0
  9
$UCSORTHOREF
  2

  9
$UCSORTHOVIEW
 70
     0
  9
$UCSORGTOP
 10
0.0
 20
0.0
 30
0.0
  9
$UCSORGBOTTOM
 10
0.0
 20
0.0
 30
0.0
  9
$UCSORGLEFT
 10
0.0
 20
0.0
 30
0.0
  9
$UCSORGRIGHT
 10
0.0
 20
0.0
 30
0.0
  9
$UCSORGFRONT
 10
0.0
 20
0.0
 30
0.0
  9
$UCSORGBACK
 10
0.0
 20
0.0
 30
0.0
  9
$PUCSBASE
  2

  9
$PUCSNAME
  2

  9
$PUCSORG
 10
0.0
 20
0.0
 30
0.0
  9
$PUCSXDIR
 10
1.0
 20
0.0
 30
0.0
  9
$PUCSYDIR
 10
0.0
 20
1.0
 30
0.0
  9
$PUCSORTHOREF
  2

  9
$PUCSORTHOVIEW
 70
     0
  9
$PUCSORGTOP
 10
0.0
 20
0.0
 30
0.0
  9
$PUCSORGBOTTOM
 10
0.0
 20
0.0
 30
0.0
  9
$PUCSORGLEFT
 10
0.0
 20
0.0
 30
0.0
  9
$PUCSORGRIGHT
 10
0.0
 20
0.0
 30
0.0
  9
$PUCSORGFRONT
 10
0.0
 20
0.0
 30
0.0
  9
$PUCSORGBACK
 10
0.0
 20
0.0
 30
0.0
  9
$USERI1
 70
     0
  9
$USERI2
 70
     0
  9
$USERI3
 70
     0
  9
$USERI4
 70
     0
  9
$USERI5
 70
     0
  9
$USERR1
 40
0.0
  9
$USERR2
 40
0.0
  9
$USERR3
 40
0.0
  9
$USERR4
 40
0.0
  9
$USERR5
 40
0.0
  9
$WORLDVIEW
 70
     1
  9
$SHADEDGE
 70
     3
  9
$SHADEDIF
 70
    70
  9
$TILEMODE
 70
     1
  9
$MAXACTVP
 70
    48
  9
$PINSBASE
 10
0.0
 20
0.0
 30
0.0
  9
$PLIMCHECK
 70
     0
  9
$PEXTMIN
 10
1.000000000000000E+20
 20
1.000000000000000E+20
 30
1.000000000000000E+20
  9
$PEXTMAX
 10
-1.000000000000000E+20
 20
-1.000000000000000E+20
 30
-1.000000000000000E+20
  9
$PLIMMIN
 10
0.0
 20
0.0
  9
$PLIMMAX
 10
12.0
 20
9.0
  9
$UNITMODE
 70
     0
  9
$VISRETAIN
 70
     1
  9
$PLINEGEN
 70
     0
  9
$PSLTSCALE
 70
     1
  9
$TREEDEPTH
 70
  3020
  9
$CMLSTYLE
  2
STANDARD
  9
$CMLJUST
 70
     0
  9
$CMLSCALE
 40
1.0
  9
$PROXYGRAPHICS
 70
     1
  9
$MEASUREMENT
 70
     0
  9
$CELWEIGHT
370
    -1
  9
$ENDCAPS
280
     0
  9
$JOINSTYLE
280
     0
  9
$LWDISPLAY
290
     0
  9
$INSUNITS
 70
     0
  9
$HYPERLINKBASE
  1

  9
$STYLESHEET
  1

  9
$XEDIT
290
     1
  9
$CEPSNTYPE
380
     0
  9
$PSTYLEMODE
290
     1
  9
$FINGERPRINTGUID
  2
{0DBA2F4B-C1BF-4E7E-99F6-24CB8BD685C4}
  9
$VERSIONGUID
  2
{12A0EAC5-E70F-4E62-97E2-4C1E97174C60}
  9
$EXTNAMES
290
     1
  9
$PSVPSCALE
 40
0.0
  9
$OLESTARTUP
290
     0
  0
ENDSEC
  0
SECTION
  2
CLASSES
  0
CLASS
  1
ACDBDICTIONARYWDFLT
  2
AcDbDictionaryWithDefault
  3
ObjectDBX Classes
 90
        0
280
     0
281
     0
  0
CLASS
  1
TABLESTYLE
  2
AcDbTableStyle
  3
ObjectDBX Classes
 90
     2047
280
     0
281
     0
  0
CLASS
  1
DICTIONARYVAR
  2
AcDbDictionaryVar
  3
ObjectDBX Classes
 90
        0
280
     0
281
     0
  0
CLASS
  1
ACDBPLACEHOLDER
  2
AcDbPlaceHolder
  3
ObjectDBX Classes
 90
        0
280
     0
281
     0
  0
CLASS
  1
LAYOUT
  2
AcDbLayout
  3
ObjectDBX Classes
 90
        0
280
     0
281
     0
  0
ENDSEC
  0
SECTION
  2
TABLES
  0
TABLE
  2
VPORT
  5
8
330
0
100
AcDbSymbolTable
 70
     2
  0
VPORT
  5
650
330
8
100
AcDbSymbolTableRecord
100
AcDbViewportTableRecord
  2
*Active
 70
     0
 10
0.0
 20
0.0
 11
1.0
 21
1.0
 12
5.499834485850286
 22
4.554391431607214
 13
0.0
 23
0.0
 14
0.5
 24
0.5
 15
0.5
 25
0.5
 16
0.0
 26
0.0
 36
1.0
 17
0.0
 27
0.0
 37
0.0
 40
9.315343815646048
 41
1.499364675984752
 42
50.0
 43
0.0
 44
0.0
 50
0.0
 51
0.0
 71
     0
 72
   100
 73
     1
 74
     1
 75
     0
 76
     0
 77
     0
 78
     0
281
     0
 65
     1
110
0.0
120
0.0
130
0.0
111
1.0
121
0.0
131
0.0
112
0.0
122
1.0
132
0.0
 79
     0
146
0.0
  0
ENDTAB
  0
TABLE
  2
LTYPE
  5
5
330
0
100
AcDbSymbolTable
 70
     1
  0
LTYPE
  5
12
330
5
100
AcDbSymbolTableRecord
100
AcDbLinetypeTableRecord
  2
BYBLOCK
 70
     0
  3

 72
    65
 73
     0
 40
0.0
  0
LTYPE
  5
13
330
5
100
AcDbSymbolTableRecord
100
AcDbLinetypeTableRecord
  2
BYLAYER
 70
     0
  3

 72
    65
 73
     0
 40
0.0
  0
LTYPE
  5
14
330
5
100
AcDbSymbolTableRecord
100
AcDbLinetypeTableRecord
  2
CONTINUOUS
 70
     0
  3
Solid line
 72
    65
 73
     0
 40
0.0
  0
ENDTAB
  0
TABLE
  2
LAYER
  5
2
102
{ACAD_XDICTIONARY
360
126
102
}
330
0
100
AcDbSymbolTable
 70
     6
  0
LAYER
  5
E
330
2
100
AcDbSymbolTableRecord
100
AcDbLayerTableRecord
  2
0
 70
     0
 62
     7
  6
CONTINUOUS
370
    -3
390
DE
  0
LAYER
  5
20
330
2
100
AcDbSymbolTableRecord
100
AcDbLayerTableRecord
  2
Title Block
 70
     0
 62
     3
  6
CONTINUOUS
370
    -3
390
DE
  0
LAYER
  5
21
330
2
100
AcDbSymbolTableRecord
100
AcDbLayerTableRecord
  2
Dimension
 70
     0
 62
     6
  6
CONTINUOUS
370
    -3
390
DE
  0
LAYER
  5
22
330
2
100
AcDbSymbolTableRecord
100
AcDbLayerTableRecord
  2
Text
 70
     0
 62
     1
  6
CONTINUOUS
370
    -3
390
DE
  0
LAYER
  5
23D
330
2
100
AcDbSymbolTableRecord
100
AcDbLayerTableRecord
  2
Defpoints
 70
     0
 62
     7
  6
CONTINUOUS
290
     0
370
    -3
390
DE
  0
LAYER
  5
258
330
2
100
AcDbSymbolTableRecord
100
AcDbLayerTableRecord
  2
Object
 70
     0
 62
     5
  6
CONTINUOUS
370
    -3
390
DE
1001
AcAecLayerStandard
1000

1000

  0
ENDTAB
  0
TABLE
  2
STYLE
  5
3
330
0
100
AcDbSymbolTable
 70
     1
  0
STYLE
  5
F
330
3
100
AcDbSymbolTableRecord
100
AcDbTextStyleTableRecord
  2
STANDARD
 70
     0
 40
0.0
 41
1.0
 50
0.0
 71
     0
 42
0.09
  3
technic_.ttf
  4

1001
ACAD
1000
Technic
1071
      514
  0
ENDTAB
  0
TABLE
  2
VIEW
  5
6
330
0
100
AcDbSymbolTable
 70
     0
  0
ENDTAB
  0
TABLE
  2
UCS
  5
7
330
0
100
AcDbSymbolTable
 70
     0
  0
ENDTAB
  0
TABLE
  2
APPID
  5
9
330
0
100
AcDbSymbolTable
 70
     4
  0
APPID
  5
10
330
9
100
AcDbSymbolTableRecord
100
AcDbRegAppTableRecord
  2
ACAD
 70
     0
  0
APPID
  5
FA
330
9
100
AcDbSymbolTableRecord
100
AcDbRegAppTableRecord
  2
DCO15
 70
     0
  0
APPID
  5
125
330
9
100
AcDbSymbolTableRecord
100
AcDbRegAppTableRecord
  2
AcAecLayerStandard
 70
     0
  0
APPID
  5
14B
330
9
100
AcDbSymbolTableRecord
100
AcDbRegAppTableRecord
  2
ACAD_DSTYLE_DIMTEXT_FILL
 70
     0
  0
ENDTAB
  0
TABLE
  2
DIMSTYLE
  5
A
330
0
100
AcDbSymbolTable
 70
     1
100
AcDbDimStyleTable
 71
     1
340
1D
  0
DIMSTYLE
105
1D
102
{ACAD_REACTORS
330
5BF
330
623
102
}
330
A
100
AcDbSymbolTableRecord
100
AcDbDimStyleTableRecord
  2
STANDARD
 70
     0
  4
mm
 41
0.125
 44
0.125
140
0.09
170
     1
171
     1
271
     2
272
     2
274
     1
340
F
  0
ENDTAB
  0
TABLE
  2
BLOCK_RECORD
  5
1
330
0
100
AcDbSymbolTable
 70
     2
  0
BLOCK_RECORD
  5
18
330
1
100
AcDbSymbolTableRecord
100
AcDbBlockTableRecord
  2
*MODEL_SPACE
340
E5
  0
BLOCK_RECORD
  5
15
330
1
100
AcDbSymbolTableRecord
100
AcDbBlockTableRecord
  2
*PAPER_SPACE
340
E6
  0
BLOCK_RECORD
  5
5C0
330
1
100
AcDbSymbolTableRecord
100
AcDbBlockTableRecord
  2
*D0
340
0
  0
BLOCK_RECORD
  5
624
330
1
100
AcDbSymbolTableRecord
100
AcDbBlockTableRecord
  2
*D1
340
0
  0
ENDTAB
  0
ENDSEC
  0
SECTION
  2
BLOCKS
  0
BLOCK
  5
19
330
18
100
AcDbEntity
  8
0
100
AcDbBlockBegin
  2
*MODEL_SPACE
 70
     0
 10
0.0
 20
0.0
 30
0.0
  3
*MODEL_SPACE
  1

  0
ENDBLK
  5
1A
330
18
100
AcDbEntity
  8
0
100
AcDbBlockEnd
  0
BLOCK
  5
16
330
15
100
AcDbEntity
 67
     1
  8
0
100
AcDbBlockBegin
  2
*PAPER_SPACE
 70
     0
 10
0.0
 20
0.0
 30
0.0
  3
*PAPER_SPACE
  1

  0
ENDBLK
  5
17
330
15
100
AcDbEntity
 67
     1
  8
0
100
AcDbBlockEnd
  0
BLOCK
  5
5CB
330
5C0
100
AcDbEntity
  8
0
100
AcDbBlockBegin
  2
*D0
 70
     1
 10
0.0
 20
0.0
 30
0.0
  3
*D0
  1

  0
LINE
  5
63B
330
5C0
100
AcDbEntity
  8
Dimension
 62
     0
370
    -2
100
AcDbLine
 10
6.16985208852384
 20
6.756164540278923
 30
0.0
 11
6.16985208852384
 21
7.471809641904846
 31
0.0
  0
LINE
  5
63C
330
5C0
100
AcDbEntity
  8
Dimension
 62
     0
370
    -2
100
AcDbLine
 10
7.41985208852384
 20
6.318164540278924
 30
0.0
 11
7.41985208852384
 21
7.471809641904846
 31
0.0
  0
LINE
  5
63D
330
5C0
100
AcDbEntity
  8
Dimension
 62
     0
370
    -2
100
AcDbLine
 10
6.04485208852384
 20
7.346809641904846
 30
0.0
 11
5.91985208852384
 21
7.346809641904846
 31
0.0
  0
LINE
  5
63E
330
5C0
100
AcDbEntity
  8
Dimension
 62
     0
370
    -2
100
AcDbLine
 10
7.54485208852384
 20
7.346809641904846
 30
0.0
 11
7.66985208852384
 21
7.346809641904846
 31
0.0
  0
SOLID
  5
63F
330
5C0
100
AcDbEntity
  8
Dimension
 62
     0
100
AcDbTrace
 10
6.04485208852384
 20
7.36764297523818
 30
0.0
 11
6.04485208852384
 21
7.325976308571513
 31
0.0
 12
6.16985208852384
 22
7.346809641904846
 32
0.0
 13
6.16985208852384
 23
7.346809641904846
 33
0.0
  0
SOLID
  5
640
330
5C0
100
AcDbEntity
  8
Dimension
 62
     0
100
AcDbTrace
 10
7.54485208852384
 20
7.36764297523818
 30
0.0
 11
7.54485208852384
 21
7.325976308571513
 31
0.0
 12
7.41985208852384
 22
7.346809641904846
 32
0.0
 13
7.41985208852384
 23
7.346809641904846
 33
0.0
  0
MTEXT
  5
641
330
5C0
100
AcDbEntity
  8
Dimension
 62
     0
100
AcDbMText
 10
6.79485208852384
 20
7.346809641904846
 30
0.0
 40
0.09
 41
0.0
 71
     5
 72
     1
  1
\A1;1.25 [31.8mm]
 73
     1
 44
1.0
1001
ACAD
1000
MTEXTBEGIN
1070
    73
1070
     1
1070
    44
1040
1.0
1070
    74
1070
     0
1000
MTEXTEND
  0
POINT
  5
642
330
5C0
100
AcDbEntity
  8
Defpoints
 62
     0
100
AcDbPoint
 10
6.16985208852384
 20
6.693664540278923
 30
0.0
  0
POINT
  5
643
330
5C0
100
AcDbEntity
  8
Defpoints
 62
     0
100
AcDbPoint
 10
7.41985208852384
 20
6.255664540278924
 30
0.0
  0
POINT
  5
644
330
5C0
100
AcDbEntity
  8
Defpoints
 62
     0
100
AcDbPoint
 10
7.41985208852384
 20
7.346809641904846
 30
0.0
  0
ENDBLK
  5
5CC
330
5C0
100
AcDbEntity
  8
0
100
AcDbBlockEnd
  0
BLOCK
  5
62F
330
624
100
AcDbEntity
  8
0
100
AcDbBlockBegin
  2
*D1
 70
     1
 10
0.0
 20
0.0
 30
0.0
  3
*D1
  1

  0
LINE
  5
631
330
624
100
AcDbEntity
  8
Dimension
 62
     0
370
    -2
100
AcDbLine
 10
1.260681756475357
 20
5.131164540278923
 30
0.0
 11
1.260681756475358
 21
7.471809641904846
 31
0.0
  0
LINE
  5
632
330
624
100
AcDbEntity
  8
Dimension
 62
     0
370
    -2
100
AcDbLine
 10
4.510681756475358
 20
5.131164540278923
 30
0.0
 11
4.510681756475358
 21
7.471809641904846
 31
0.0
  0
LINE
  5
633
330
624
100
AcDbEntity
  8
Dimension
 62
     0
370
    -2
100
AcDbLine
 10
1.385681756475358
 20
7.346809641904846
 30
0.0
 11
2.384958072264832
 21
7.346809641904846
 31
0.0
  0
LINE
  5
634
330
624
100
AcDbEntity
  8
Dimension
 62
     0
370
    -2
100
AcDbLine
 10
4.385681756475358
 20
7.346809641904846
 30
0.0
 11
3.386405440685884
 21
7.346809641904846
 31
0.0
  0
SOLID
  5
635
330
624
100
AcDbEntity
  8
Dimension
 62
     0
100
AcDbTrace
 10
1.385681756475358
 20
7.36764297523818
 30
0.0
 11
1.385681756475358
 21
7.325976308571513
 31
0.0
 12
1.260681756475358
 22
7.346809641904846
 32
0.0
 13
1.260681756475358
 23
7.346809641904846
 33
0.0
  0
SOLID
  5
636
330
624
100
AcDbEntity
  8
Dimension
 62
     0
100
AcDbTrace
 10
4.385681756475358
 20
7.36764297523818
 30
0.0
 11
4.385681756475358
 21
7.325976308571513
 31
0.0
 12
4.510681756475358
 22
7.346809641904846
 32
0.0
 13
4.510681756475358
 23
7.346809641904846
 33
0.0
  0
MTEXT
  5
637
330
624
100
AcDbEntity
  8
Dimension
 62
     0
100
AcDbMText
 10
2.885681756475358
 20
7.346809641904846
 30
0.0
 40
0.09
 41
0.0
 71
     5
 72
     1
  1
\A1;3.25 [82.6mm]
 73
     1
 44
1.0
1001
ACAD
1000
MTEXTBEGIN
1070
    73
1070
     1
1070
    44
1040
1.0
1070
    74
1070
     0
1000
MTEXTEND
  0
POINT
  5
638
330
624
100
AcDbEntity
  8
Defpoints
 62
     0
100
AcDbPoint
 10
1.260681756475357
 20
5.068664540278923
 30
0.0
  0
POINT
  5
639
330
624
100
AcDbEntity
  8
Defpoints
 62
     0
100
AcDbPoint
 10
4.510681756475358
 20
5.068664540278923
 30
0.0
  0
POINT
  5
63A
330
624
100
AcDbEntity
  8
Defpoints
 62
     0
100
AcDbPoint
 10
4.510681756475358
 20
7.346809641904846
 30
0.0
  0
ENDBLK
  5
630
330
624
100
AcDbEntity
  8
0
100
AcDbBlockEnd
  0
ENDSEC
  0
SECTION
  2
ENTITIES
  0
TEXT
  5
51
330
18
100
AcDbEntity
  8
Title Block
100
AcDbText
 10
6.776695012655547
 20
2.672489851525508
 30
0.0
 40
0.05
  1
FILENAME:
100
AcDbText
  0
TEXT
  5
52
330
18
100
AcDbEntity
  8
Title Block
100
AcDbText
 10
6.769285028728251
 20
2.076224967549325
 30
0.0
 40
0.35
  1
PANDUIT
100
AcDbText
  0
TEXT
  5
53
330
18
100
AcDbEntity
  8
Title Block
100
AcDbText
 10
8.721820398821382
 20
2.061410940562986
 30
0.0
 40
0.125
  1
CORP. TINLEY PARK, IL
100
AcDbText
  0
TEXT
  5
54
330
18
100
AcDbEntity
  8
Title Block
100
AcDbText
 10
6.780399976708615
 20
1.91697409709392
 30
0.0
 40
0.05
  1
TITLE:
100
AcDbText
  0
MTEXT
  5
57
330
18
100
AcDbEntity
  8
Title Block
100
AcDbMText
 10
8.0
 20
1.372215793536348
 30
0.0
 40
0.075
 41
2.5
 71
     5
 72
     5
  1
UNLESS OTHERWISE SPECIFIED,\PDIMENSIONAL TOLERANCES ARE:       
 73
     1
 44
1.0
1001
ACAD
1000
MTEXTBEGIN
1070
    73
1070
     1
1070
    44
1040
1.0
1070
    74
1070
     0
1000
MTEXTEND
  0
MTEXT
  5
58
330
18
100
AcDbEntity
  8
Title Block
100
AcDbMText
 10
7.392379866610014
 20
1.131487708483632
 30
0.0
 40
0.075
 41
2.5
 71
     5
 72
     5
  1
(.X)\P(.XX)
 73
     1
 44
1.0
1001
ACAD
1000
MTEXTBEGIN
1070
    73
1070
     1
1070
    44
1040
1.0
1070
    74
1070
     0
1000
MTEXTEND
  0
MTEXT
  5
59
330
18
100
AcDbEntity
  8
Title Block
100
AcDbMText
 10
8.400140053124118
 20
1.131487708483632
 30
0.0
 40
0.075
 41
2.5
 71
     5
 72
     5
  1
(.XXX)\PANGLES:
 73
     1
 44
1.0
1001
ACAD
1000
MTEXTBEGIN
1070
    73
1070
     1
1070
    44
1040
1.0
1070
    74
1070
     0
1000
MTEXTEND
  0
MTEXT
  5
5A
330
18
100
AcDbEntity
  8
Title Block
100
AcDbMText
 10
10.0
 20
1.25
 30
0.0
 40
0.06
 41
1.5
 71
     5
 72
     5
  1
UNLESS OTHERWISE SPECIFIED,\PALL DIMENSIONS ARE GIVEN IN INCHES, THIRD ANGLE PROJECTION
 73
     1
 44
1.0
1001
ACAD
1000
MTEXTBEGIN
1070
    73
1070
     1
1070
    44
1040
1.0
1070
    74
1070
     0
1000
MTEXTEND
  0
TEXT
  5
5E
330
18
100
AcDbEntity
  8
Title Block
100
AcDbText
 10
6.760764454306187
 20
0.9281373372752312
 30
0.0
 40
0.05
  1
DRAWN BY:
100
AcDbText
  0
TEXT
  5
5F
330
18
100
AcDbEntity
  8
Title Block
100
AcDbText
 10
6.764469474180437
 20
0.6811431865635028
 30
0.0
 40
0.05
  1
DATE:
100
AcDbText
  0
TEXT
  5
60
330
18
100
AcDbEntity
  8
Title Block
100
AcDbText
 10
6.768174438233497
 20
0.4304455338317968
 30
0.0
 40
0.05
  1
CHECKED BY:
100
AcDbText
  0
TEXT
  5
62
330
18
100
AcDbEntity
  8
Title Block
100
AcDbText
 10
7.520289593133067
 20
0.9281373372752312
 30
0.0
 40
0.05
  1
MATERIAL:
100
AcDbText
  0
TEXT
  5
63
330
18
100
AcDbEntity
  8
Title Block
100
AcDbText
 10
9.265344938781542
 20
0.9281373372752312
 30
0.0
 40
0.05
  1
SCALE:
100
AcDbText
  0
TEXT
  5
64
330
18
100
AcDbEntity
  8
Title Block
100
AcDbText
 10
9.265344938781542
 20
0.6725952630490007
 30
0.0
 40
0.05
  1
DRAWING NUMBER:
100
AcDbText
  0
TEXT
  5
65
330
18
100
AcDbEntity
  8
Title Block
100
AcDbText
 10
10.34942622928998
 20
0.6762987650689816
 30
0.0
 40
0.05
  1
DRAWING
100
AcDbText
  0
TEXT
  5
66
330
18
100
AcDbEntity
  8
Title Block
100
AcDbText
 10
10.42723125590085
 20
0.2811642688682026
 30
0.0
 40
0.05
  1
SIZE
100
AcDbText
  0
TEXT
  5
67
330
18
100
AcDbEntity
  8
Title Block
100
AcDbText
 10
10.38647626056889
 20
0.3911285990572359
 30
0.0
 40
0.25
  1
A
100
AcDbText
  0
MTEXT
  5
68
330
18
100
AcDbEntity
  8
Title Block
100
AcDbMText
 10
0.375
 20
0.375
 30
0.0
 40
0.05
 41
0.25
 71
     5
 72
     5
  1
REV
 73
     1
 44
1.0
1001
ACAD
1000
MTEXTBEGIN
1070
    73
1070
     1
1070
    44
1040
1.0
1070
    74
1070
     0
1000
MTEXTEND
  0
MTEXT
  5
69
330
18
100
AcDbEntity
  8
Title Block
100
AcDbMText
 10
0.75
 20
0.375
 30
0.0
 40
0.05
 41
0.5
 71
     5
 72
     5
  1
DATE
 73
     1
 44
1.0
1001
ACAD
1000
MTEXTBEGIN
1070
    73
1070
     1
1070
    44
1040
1.0
1070
    74
1070
     0
1000
MTEXTEND
  0
MTEXT
  5
6A
330
18
100
AcDbEntity
  8
Title Block
100
AcDbMText
 10
1.189999999999999
 20
0.375
 30
0.0
 40
0.05
 41
0.38
 71
     5
 72
     5
  1
BY
 73
     1
 44
1.0
1001
ACAD
1000
MTEXTBEGIN
1070
    73
1070
     1
1070
    44
1040
1.0
1070
    74
1070
     0
1000
MTEXTEND
  0
MTEXT
  5
6B
330
18
100
AcDbEntity
  8
Title Block
100
AcDbMText
 10
1.564999999999999
 20
0.375
 30
0.0
 40
0.05
 41
0.38
 71
     5
 72
     5
  1
CHK
 73
     1
 44
1.0
1001
ACAD
1000
MTEXTBEGIN
1070
    73
1070
     1
1070
    44
1040
1.0
1070
    74
1070
     0
1000
MTEXTEND
  0
MTEXT
  5
6C
330
18
100
AcDbEntity
  8
Title Block
100
AcDbMText
 10
3.125
 20
0.375
 30
0.0
 40
0.05
 41
2.75
 71
     5
 72
     5
  1
DESCRIPTION
 73
     1
 44
1.0
1001
ACAD
1000
MTEXTBEGIN
1070
    73
1070
     1
1070
    44
1040
1.0
1070
    74
1070
     0
1000
MTEXTEND
  0
MTEXT
  5
6D
330
18
100
AcDbEntity
  8
Title Block
100
AcDbMText
 10
5.064999999999999
 20
0.375
 30
0.0
 40
0.05
 41
1.129999999999999
 71
     5
 72
     5
  1
ECN   -   R
 73
     1
 44
1.0
1001
ACAD
1000
MTEXTBEGIN
1070
    73
1070
     1
1070
    44
1040
1.0
1070
    74
1070
     0
1000
MTEXTEND
  0
MTEXT
  5
6E
330
18
100
AcDbEntity
  8
Title Block
100
AcDbMText
 10
5.815
 20
0.375
 30
0.0
 40
0.05
 41
0.38
 71
     5
 72
     5
  1
CUST
 73
     1
 44
1.0
1001
ACAD
1000
MTEXTBEGIN
1070
    73
1070
     1
1070
    44
1040
1.0
1070
    74
1070
     0
1000
MTEXTEND
  0
MTEXT
  5
6F
330
18
100
AcDbEntity
  8
Title Block
100
AcDbMText
 10
6.19
 20
0.375
 30
0.0
 40
0.05
 41
0.38
 71
     5
 72
     5
  1
SUP
 73
     1
 44
1.0
1001
ACAD
1000
MTEXTBEGIN
1070
    73
1070
     1
1070
    44
1040
1.0
1070
    74
1070
     0
1000
MTEXTEND
  0
LWPOLYLINE
  5
71
330
18
100
AcDbEntity
  8
Title Block
100
AcDbPolyline
 90
        4
 70
     1
 43
0.01
 10
0.25
 20
8.250000000000001
 10
0.25
 20
0.25
 10
10.75
 20
0.25
 10
10.75
 20
8.25
  0
LINE
  5
A5
330
18
100
AcDbEntity
  8
Title Block
100
AcDbLine
 10
10.75
 20
2.749999999999999
 30
0.0
 11
0.25
 21
2.75
 31
0.0
  0
LINE
  5
A6
330
18
100
AcDbEntity
  8
Title Block
100
AcDbLine
 10
6.75
 20
2.75
 30
0.0
 11
6.75
 21
0.25
 31
0.0
  0
LINE
  5
A7
330
18
100
AcDbEntity
  8
Title Block
100
AcDbLine
 10
10.75
 20
2.499999999999999
 30
0.0
 11
0.25
 21
2.5
 31
0.0
  0
LINE
  5
A8
330
18
100
AcDbEntity
  8
Title Block
100
AcDbLine
 10
6.75
 20
2.25
 30
0.0
 11
0.25
 21
2.25
 31
0.0
  0
LINE
  5
A9
330
18
100
AcDbEntity
  8
Title Block
100
AcDbLine
 10
10.75
 20
1.999999999999999
 30
0.0
 11
0.25
 21
2.0
 31
0.0
  0
LINE
  5
AA
330
18
100
AcDbEntity
  8
Title Block
100
AcDbLine
 10
6.75
 20
1.75
 30
0.0
 11
0.25
 21
1.75
 31
0.0
  0
LINE
  5
AB
330
18
100
AcDbEntity
  8
Title Block
100
AcDbLine
 10
10.75
 20
1.499999999999999
 30
0.0
 11
0.25
 21
1.5
 31
0.0
  0
LINE
  5
AC
330
18
100
AcDbEntity
  8
Title Block
100
AcDbLine
 10
6.75
 20
1.25
 30
0.0
 11
0.25
 21
1.25
 31
0.0
  0
LINE
  5
AD
330
18
100
AcDbEntity
  8
Title Block
100
AcDbLine
 10
10.75
 20
0.9999999999999996
 30
0.0
 11
0.25
 21
1.0
 31
0.0
  0
LINE
  5
AE
330
18
100
AcDbEntity
  8
Title Block
100
AcDbLine
 10
7.5
 20
0.75
 30
0.0
 11
0.25
 21
0.7500000000000009
 31
0.0
  0
LINE
  5
AF
330
18
100
AcDbEntity
  8
Title Block
100
AcDbLine
 10
7.5
 20
0.5
 30
0.0
 11
0.25
 21
0.5000000000000009
 31
0.0
  0
LINE
  5
B6
330
18
100
AcDbEntity
  8
Title Block
100
AcDbLine
 10
0.25
 20
0.25
 30
0.0
 11
0.25
 21
2.75
 31
0.0
  0
LINE
  5
BC
330
18
100
AcDbEntity
  8
Title Block
100
AcDbLine
 10
0.5
 20
0.25
 30
0.0
 11
0.5
 21
2.750000000000001
 31
0.0
  0
LINE
  5
BD
330
18
100
AcDbEntity
  8
Title Block
100
AcDbLine
 10
1.0
 20
0.25
 30
0.0
 11
1.0
 21
2.750000000000001
 31
0.0
  0
LINE
  5
C0
330
18
100
AcDbEntity
  8
Title Block
100
AcDbLine
 10
1.375
 20
0.25
 30
0.0
 11
1.375
 21
2.750000000000001
 31
0.0
  0
LINE
  5
C1
330
18
100
AcDbEntity
  8
Title Block
100
AcDbLine
 10
1.75
 20
0.25
 30
0.0
 11
1.75
 21
2.750000000000001
 31
0.0
  0
LINE
  5
C2
330
18
100
AcDbEntity
  8
Title Block
100
AcDbLine
 10
6.375
 20
2.75
 30
0.0
 11
6.375
 21
0.25
 31
0.0
  0
LINE
  5
C3
330
18
100
AcDbEntity
  8
Title Block
100
AcDbLine
 10
6.0
 20
2.75
 30
0.0
 11
6.0
 21
0.25
 31
0.0
  0
LINE
  5
C4
330
18
100
AcDbEntity
  8
Title Block
100
AcDbLine
 10
5.625
 20
2.75
 30
0.0
 11
5.625
 21
0.25
 31
0.0
  0
LINE
  5
C5
330
18
100
AcDbEntity
  8
Title Block
100
AcDbLine
 10
5.25
 20
2.75
 30
0.0
 11
5.25
 21
0.5000000000000002
 31
0.0
  0
LINE
  5
C6
330
18
100
AcDbEntity
  8
Title Block
100
AcDbLine
 10
4.5
 20
2.75
 30
0.0
 11
4.5
 21
0.25
 31
0.0
  0
LINE
  5
C7
330
18
100
AcDbEntity
  8
Title Block
100
AcDbLine
 10
9.25
 20
0.75
 30
0.0
 11
9.25
 21
1.499999999999999
 31
0.0
  0
LINE
  5
C8
330
18
100
AcDbEntity
  8
Title Block
100
AcDbLine
 10
9.25
 20
0.75
 30
0.0
 11
9.25
 21
0.25
 31
0.0
  0
LINE
  5
C9
330
18
100
AcDbEntity
  8
Title Block
100
AcDbLine
 10
9.25
 20
0.75
 30
0.0
 11
10.75
 21
0.75
 31
0.0
  0
LINE
  5
CA
330
18
100
AcDbEntity
  8
Title Block
100
AcDbLine
 10
7.5
 20
0.5
 30
0.0
 11
7.5
 21
0.25
 31
0.0
  0
LINE
  5
CB
330
18
100
AcDbEntity
  8
Title Block
100
AcDbLine
 10
7.5
 20
0.5
 30
0.0
 11
7.5
 21
1.0
 31
0.0
  0
LINE
  5
CD
330
18
100
AcDbEntity
  8
Title Block
100
AcDbLine
 10
10.25
 20
0.75
 30
0.0
 11
10.25
 21
0.25
 31
0.0
  0
POINT
  5
D0
330
18
100
AcDbEntity
  8
Title Block
100
AcDbPoint
 10
11.0
 20
8.5
 30
0.0
  0
POINT
  5
D2
330
18
100
AcDbEntity
  8
Title Block
100
AcDbPoint
 10
11.0
 20
0.0
 30
0.0
  0
POINT
  5
D4
330
18
100
AcDbEntity
  8
Title Block
100
AcDbPoint
 10
0.0
 20
0.0
 30
0.0
  0
POINT
  5
D6
330
18
100
AcDbEntity
  8
Title Block
100
AcDbPoint
 10
0.0
 20
8.500000000000001
 30
0.0
  0
MTEXT
  5
EC
330
18
100
AcDbEntity
  8
Text
100
AcDbMText
 10
0.375
 20
0.6250000000000009
 30
0.0
 40
0.09
 41
0.25
 71
     5
 72
     5
  1
R
 73
     1
 44
1.0
1001
ACAD
1000
MTEXTBEGIN
1070
    73
1070
     1
1070
    44
1040
1.0
1070
    74
1070
     0
1000
MTEXTEND
  0
MTEXT
  5
ED
330
18
100
AcDbEntity
  8
Text
100
AcDbMText
 10
0.75
 20
0.6250000000000009
 30
0.0
 40
0.07
 41
0.5
 71
     5
 72
     5
  1
7-10-07
 73
     1
 44
1.0
1001
ACAD
1000
MTEXTBEGIN
1070
    73
1070
     1
1070
    44
1040
1.0
1070
    74
1070
     0
1000
MTEXTEND
  0
MTEXT
  5
EE
330
18
100
AcDbEntity
  8
Text
100
AcDbMText
 10
1.1875
 20
0.6250000000000009
 30
0.0
 40
0.09
 41
0.375
 71
     5
 72
     5
  1
DTP
 73
     1
 44
1.0
1001
ACAD
1000
MTEXTBEGIN
1070
    73
1070
     1
1070
    44
1040
1.0
1070
    74
1070
     0
1000
MTEXTEND
  0
MTEXT
  5
F0
330
18
100
AcDbEntity
  8
Text
100
AcDbMText
 10
3.125
 20
0.6250000000000005
 30
0.0
 40
0.09
 41
2.75
 71
     5
 72
     5
  1
DRAWING RELEASED
 73
     1
 44
1.0
1001
ACAD
1000
MTEXTBEGIN
1070
    73
1070
     1
1070
    44
1040
1.0
1070
    74
1070
     0
1000
MTEXTEND
  0
MTEXT
  5
F6
330
18
100
AcDbEntity
  8
Text
100
AcDbMText
 10
7.474999999999999
 20
0.85
 30
0.0
 40
0.09
 41
0.75
 71
     6
 72
     5
  1
DTP
 73
     1
 44
1.0
1001
ACAD
1000
MTEXTBEGIN
1070
    73
1070
     1
1070
    44
1040
1.0
1070
    74
1070
     0
1000
MTEXTEND
  0
MTEXT
  5
F7
330
18
100
AcDbEntity
  8
Text
100
AcDbMText
 10
7.474999999999999
 20
0.5999999999999999
 30
0.0
 40
0.09
 41
0.75
 71
     6
 72
     5
  1
7-10-07
 73
     1
 44
1.0
1001
ACAD
1000
MTEXTBEGIN
1070
    73
1070
     1
1070
    44
1040
1.0
1070
    74
1070
     0
1000
MTEXTEND
  0
MTEXT
  5
FF
330
18
100
AcDbEntity
  8
Text
100
AcDbMText
 10
7.474999999999999
 20
0.3500000000000001
 30
0.0
 40
0.09
 41
0.75
 71
     6
 72
     5
  1
DJWA
 73
     1
 44
1.0
1001
ACAD
1000
MTEXTBEGIN
1070
    73
1070
     1
1070
    44
1040
1.0
1070
    74
1070
     0
1000
MTEXTEND
  0
MTEXT
  5
102
330
18
100
AcDbEntity
  8
Text
100
AcDbMText
 10
8.75
 20
2.625
 30
0.0
 40
0.09
 41
4.0
 71
     5
 72
     5
  1
FRSSM2.dwg
 73
     1
 44
1.0
1001
ACAD
1000
MTEXTBEGIN
1070
    73
1070
     1
1070
    44
1040
1.0
1070
    74
1070
     0
1000
MTEXTEND
  0
MTEXT
  5
103
330
18
100
AcDbEntity
  8
Text
100
AcDbMText
 10
8.75
 20
1.75
 30
0.0
 40
0.09
 41
4.0
 71
     5
 72
     5
  1
FIBERRUNNER SLACK SPOOL MANAGER - 2.37"\P(60.3) DIAMETER (FRSSM2)\PMARKETING DRAWING
 73
     1
 44
1.0
1001
ACAD
1000
MTEXTBEGIN
1070
    73
1070
     1
1070
    44
1040
1.0
1070
    74
1070
     0
1000
MTEXTEND
  0
MTEXT
  5
104
330
18
100
AcDbEntity
  8
Text
100
AcDbMText
 10
10.0
 20
0.8749999999999998
 30
0.0
 40
0.12
 41
1.5
 71
     5
 72
     5
  1
FULL
 73
     1
 44
1.0
1001
ACAD
1000
MTEXTBEGIN
1070
    73
1070
     1
1070
    44
1040
1.0
1070
    74
1070
     0
1000
MTEXTEND
  0
MTEXT
  5
105
330
18
100
AcDbEntity
  8
Text
100
AcDbMText
 10
9.75
 20
0.5
 30
0.0
 40
0.12
 41
1.0
 71
     5
 72
     5
  1
36897-1228
 73
     1
 44
1.0
1001
ACAD
1000
MTEXTBEGIN
1070
    73
1070
     1
1070
    44
1040
1.0
1070
    74
1070
     0
1000
MTEXTEND
  0
MTEXT
  5
2C6
330
18
100
AcDbEntity
  8
Text
100
AcDbMText
 10
8.225984893962792
 20
7.903701582045286
 30
0.0
 40
0.09
 41
2.261093369285816
 71
     1
 72
     5
  3
{\LNOTES:}\P\P1. THE FIBERRUNNER SLACK SPOOL \P   MANAGER - 2.37" (60.3) DIAMETER\P   INCLUDES:\P   ONE (1) SLACK SPOOL,\P   ONE (1) {\H0.7x;\S1#4;}-20x{\H0.7x;\S1#2;} HEX HEAD CAP \P            SCREW,\P   ONE (1) {\H0.7x;\S1#4;} SAE FLAT WASHER,\P  
  1
 ONE (1) {\H0.7x;\S1#4;}-20 HEX KEPS NUT.
 73
     1
 44
1.0
1001
ACAD
1000
MTEXTBEGIN
1070
    73
1070
     1
1070
    44
1040
1.0
1070
    74
1070
     1
1000
MTEXTEND
  0
TEXT
  5
2C8
330
18
100
AcDbEntity
  8
Text
100
AcDbText
 10
2.381700995606317
 20
3.035750052373717
 30
0.0
 40
0.125
  1
FRONT VIEW
100
AcDbText
  0
TEXT
  5
2C9
330
18
100
AcDbEntity
  8
Text
100
AcDbText
 10
6.086969668805348
 20
3.021148981093378
 30
0.0
 40
0.125
  1
RIGHT SIDE VIEW
100
AcDbText
  0
MTEXT
  5
2DB
330
18
100
AcDbEntity
  8
Text
100
AcDbMText
 10
1.560400281422708
 20
0.626249074032665
 30
0.0
 40
0.07
 41
0.375
 71
     5
 72
     5
  1
DJWA
 73
     1
 44
1.0
1001
ACAD
1000
MTEXTBEGIN
1070
    73
1070
     1
1070
    44
1040
1.0
1070
    74
1070
     0
1000
MTEXTEND
  0
LINE
  5
2E9
330
18
100
AcDbEntity
  8
Object
100
AcDbLine
 10
4.190681756475358
 20
5.068664540278923
 30
0.0
 11
4.232681756475358
 21
5.068664540278923
 31
0.0
  0
LINE
  5
2EA
330
18
100
AcDbEntity
  8
Object
100
AcDbLine
 10
4.232681756475358
 20
5.068664540278923
 30
0.0
 11
4.224681756475357
 21
4.922664540278923
 31
0.0
  0
LINE
  5
2EB
330
18
100
AcDbEntity
  8
Object
100
AcDbLine
 10
4.224681756475357
 20
4.922664540278923
 30
0.0
 11
4.200681756475358
 21
4.778664540278923
 31
0.0
  0
LINE
  5
2EC
330
18
100
AcDbEntity
  8
Object
100
AcDbLine
 10
4.190681756475358
 20
5.068664540278923
 30
0.0
 11
4.152681756475358
 21
5.068664540278923
 31
0.0
  0
LINE
  5
2ED
330
18
100
AcDbEntity
  8
Object
100
AcDbLine
 10
4.161681756475358
 20
4.638664540278924
 30
0.0
 11
4.200681756475358
 21
4.778664540278923
 31
0.0
  0
LINE
  5
2EE
330
18
100
AcDbEntity
  8
Object
100
AcDbLine
 10
4.152681756475358
 20
5.068664540278923
 30
0.0
 11
4.121681756475357
 21
5.068664540278923
 31
0.0
  0
LINE
  5
2EF
330
18
100
AcDbEntity
  8
Object
100
AcDbLine
 10
4.121681756475357
 20
5.068664540278923
 30
0.0
 11
4.100681756475358
 21
5.068664540278923
 31
0.0
  0
LINE
  5
2F0
330
18
100
AcDbEntity
  8
Object
100
AcDbLine
 10
4.100681756475358
 20
5.068664540278923
 30
0.0
 11
4.090681756475358
 21
5.068664540278923
 31
0.0
  0
LINE
  5
2F1
330
18
100
AcDbEntity
  8
Object
100
AcDbLine
 10
4.161681756475358
 20
4.638664540278924
 30
0.0
 11
4.107681756475358
 21
4.502664540278924
 31
0.0
  0
LINE
  5
2F2
330
18
100
AcDbEntity
  8
Object
100
AcDbLine
 10
4.107681756475358
 20
4.502664540278924
 30
0.0
 11
4.039681756475358
 21
4.374664540278923
 31
0.0
  0
LINE
  5
2F3
330
18
100
AcDbEntity
  8
Object
100
AcDbLine
 10
4.022681756475357
 20
4.670664540278924
 30
0.0
 11
3.971681756475357
 21
4.545664540278924
 31
0.0
  0
LINE
  5
2F4
330
18
100
AcDbEntity
  8
Object
100
AcDbLine
 10
3.957681756475357
 20
4.253664540278923
 30
0.0
 11
4.039681756475358
 21
4.374664540278923
 31
0.0
  0
LINE
  5
2F5
330
18
100
AcDbEntity
  8
Object
100
AcDbLine
 10
3.971681756475357
 20
4.545664540278924
 30
0.0
 11
3.905681756475358
 21
4.427664540278923
 31
0.0
  0
LINE
  5
2F6
330
18
100
AcDbEntity
  8
Object
100
AcDbLine
 10
3.905681756475358
 20
4.427664540278923
 30
0.0
 11
3.827681756475358
 21
4.317664540278923
 31
0.0
  0
LINE
  5
2F7
330
18
100
AcDbEntity
  8
Object
100
AcDbLine
 10
3.827681756475358
 20
4.317664540278923
 30
0.0
 11
3.737681756475357
 21
4.216664540278924
 31
0.0
  0
LINE
  5
2F8
330
18
100
AcDbEntity
  8
Object
100
AcDbLine
 10
3.737681756475357
 20
4.216664540278924
 30
0.0
 11
3.636681756475358
 21
4.126664540278924
 31
0.0
  0
LINE
  5
2F9
330
18
100
AcDbEntity
  8
Object
100
AcDbLine
 10
3.636681756475358
 20
4.126664540278924
 30
0.0
 11
3.526681756475358
 21
4.048664540278923
 31
0.0
  0
LINE
  5
2FA
330
18
100
AcDbEntity
  8
Object
100
AcDbLine
 10
3.526681756475358
 20
4.048664540278923
 30
0.0
 11
3.408681756475358
 21
3.982664540278924
 31
0.0
  0
LINE
  5
2FB
330
18
100
AcDbEntity
  8
Object
100
AcDbLine
 10
3.408681756475358
 20
3.982664540278924
 30
0.0
 11
3.283681756475358
 21
3.931664540278924
 31
0.0
  0
LINE
  5
2FC
330
18
100
AcDbEntity
  8
Object
100
AcDbLine
 10
3.283681756475358
 20
3.931664540278924
 30
0.0
 11
3.153681756475358
 21
3.893664540278924
 31
0.0
  0
LINE
  5
2FD
330
18
100
AcDbEntity
  8
Object
100
AcDbLine
 10
3.153681756475358
 20
3.893664540278924
 30
0.0
 11
3.020681756475358
 21
3.871664540278923
 31
0.0
  0
LINE
  5
2FE
330
18
100
AcDbEntity
  8
Object
100
AcDbLine
 10
3.020681756475358
 20
3.871664540278923
 30
0.0
 11
2.885681756475357
 21
3.863664540278924
 31
0.0
  0
LINE
  5
2FF
330
18
100
AcDbEntity
  8
Object
100
AcDbLine
 10
2.885681756475357
 20
3.863664540278924
 30
0.0
 11
2.750681756475358
 21
3.871664540278923
 31
0.0
  0
LINE
  5
300
330
18
100
AcDbEntity
  8
Object
100
AcDbLine
 10
2.750681756475358
 20
3.871664540278923
 30
0.0
 11
2.616681756475357
 21
3.893664540278924
 31
0.0
  0
LINE
  5
301
330
18
100
AcDbEntity
  8
Object
100
AcDbLine
 10
2.616681756475357
 20
3.893664540278924
 30
0.0
 11
2.487681756475358
 21
3.931664540278924
 31
0.0
  0
LINE
  5
302
330
18
100
AcDbEntity
  8
Object
100
AcDbLine
 10
2.487681756475358
 20
3.931664540278924
 30
0.0
 11
2.362681756475358
 21
3.982664540278924
 31
0.0
  0
LINE
  5
303
330
18
100
AcDbEntity
  8
Object
100
AcDbLine
 10
2.362681756475358
 20
3.982664540278924
 30
0.0
 11
2.243681756475358
 21
4.048664540278923
 31
0.0
  0
LINE
  5
304
330
18
100
AcDbEntity
  8
Object
100
AcDbLine
 10
2.243681756475358
 20
4.048664540278923
 30
0.0
 11
2.133681756475358
 21
4.126664540278924
 31
0.0
  0
LINE
  5
305
330
18
100
AcDbEntity
  8
Object
100
AcDbLine
 10
2.133681756475358
 20
4.126664540278924
 30
0.0
 11
2.032681756475358
 21
4.216664540278924
 31
0.0
  0
LINE
  5
306
330
18
100
AcDbEntity
  8
Object
100
AcDbLine
 10
2.032681756475358
 20
4.216664540278924
 30
0.0
 11
1.942681756475358
 21
4.317664540278923
 31
0.0
  0
LINE
  5
307
330
18
100
AcDbEntity
  8
Object
100
AcDbLine
 10
1.942681756475358
 20
4.317664540278923
 30
0.0
 11
1.864681756475357
 21
4.427664540278923
 31
0.0
  0
LINE
  5
308
330
18
100
AcDbEntity
  8
Object
100
AcDbLine
 10
1.864681756475357
 20
4.427664540278923
 30
0.0
 11
1.799681756475358
 21
4.545664540278924
 31
0.0
  0
LINE
  5
309
330
18
100
AcDbEntity
  8
Object
100
AcDbLine
 10
1.799681756475358
 20
4.545664540278924
 30
0.0
 11
1.747681756475357
 21
4.670664540278924
 31
0.0
  0
LINE
  5
30A
330
18
100
AcDbEntity
  8
Object
100
AcDbLine
 10
1.747681756475357
 20
4.670664540278924
 30
0.0
 11
1.710681756475358
 21
4.800664540278924
 31
0.0
  0
LINE
  5
30B
330
18
100
AcDbEntity
  8
Object
100
AcDbLine
 10
1.710681756475358
 20
4.800664540278924
 30
0.0
 11
1.687681756475358
 21
4.933664540278924
 31
0.0
  0
LINE
  5
30C
330
18
100
AcDbEntity
  8
Object
100
AcDbLine
 10
1.687681756475358
 20
4.933664540278924
 30
0.0
 11
1.679681756475358
 21
5.068664540278923
 31
0.0
  0
LINE
  5
30D
330
18
100
AcDbEntity
  8
Object
100
AcDbLine
 10
1.679681756475358
 20
5.068664540278923
 30
0.0
 11
1.670681756475357
 21
5.068664540278923
 31
0.0
  0
LINE
  5
30E
330
18
100
AcDbEntity
  8
Object
100
AcDbLine
 10
1.670681756475357
 20
5.068664540278923
 30
0.0
 11
1.648681756475357
 21
5.068664540278923
 31
0.0
  0
LINE
  5
30F
330
18
100
AcDbEntity
  8
Object
100
AcDbLine
 10
1.648681756475357
 20
5.068664540278923
 30
0.0
 11
1.617681756475358
 21
5.068664540278923
 31
0.0
  0
LINE
  5
310
330
18
100
AcDbEntity
  8
Object
100
AcDbLine
 10
1.617681756475358
 20
5.068664540278923
 30
0.0
 11
1.579681756475357
 21
5.068664540278923
 31
0.0
  0
LINE
  5
311
330
18
100
AcDbEntity
  8
Object
100
AcDbLine
 10
1.579681756475357
 20
5.068664540278923
 30
0.0
 11
1.537681756475357
 21
5.068664540278923
 31
0.0
  0
LINE
  5
312
330
18
100
AcDbEntity
  8
Object
100
AcDbLine
 10
4.046681756475358
 20
5.068664540278923
 30
0.0
 11
4.090681756475358
 21
5.068664540278923
 31
0.0
  0
LINE
  5
313
330
18
100
AcDbEntity
  8
Object
100
AcDbLine
 10
4.090681756475358
 20
5.068664540278923
 30
0.0
 11
4.082681756475357
 21
4.933664540278924
 31
0.0
  0
LINE
  5
314
330
18
100
AcDbEntity
  8
Object
100
AcDbLine
 10
4.082681756475357
 20
4.933664540278924
 30
0.0
 11
4.060681756475357
 21
4.800664540278924
 31
0.0
  0
LINE
  5
315
330
18
100
AcDbEntity
  8
Object
100
AcDbLine
 10
4.060681756475357
 20
4.800664540278924
 30
0.0
 11
4.022681756475357
 21
4.670664540278924
 31
0.0
  0
LINE
  5
316
330
18
100
AcDbEntity
  8
Object
100
AcDbLine
 10
2.952681756475358
 20
3.909664540278924
 30
0.0
 11
2.817681756475358
 21
3.909664540278924
 31
0.0
  0
LINE
  5
317
330
18
100
AcDbEntity
  8
Object
100
AcDbLine
 10
2.817681756475358
 20
3.909664540278924
 30
0.0
 11
2.683681756475357
 21
3.924664540278924
 31
0.0
  0
LINE
  5
318
330
18
100
AcDbEntity
  8
Object
100
AcDbLine
 10
2.683681756475357
 20
3.924664540278924
 30
0.0
 11
2.551681756475358
 21
3.955664540278923
 31
0.0
  0
LINE
  5
319
330
18
100
AcDbEntity
  8
Object
100
AcDbLine
 10
2.551681756475358
 20
3.955664540278923
 30
0.0
 11
2.425681756475357
 21
4.002664540278924
 31
0.0
  0
LINE
  5
31A
330
18
100
AcDbEntity
  8
Object
100
AcDbLine
 10
2.425681756475357
 20
4.002664540278924
 30
0.0
 11
2.304681756475358
 21
4.062664540278924
 31
0.0
  0
LINE
  5
31B
330
18
100
AcDbEntity
  8
Object
100
AcDbLine
 10
2.304681756475358
 20
4.062664540278924
 30
0.0
 11
2.191681756475357
 21
4.136664540278924
 31
0.0
  0
LINE
  5
31C
330
18
100
AcDbEntity
  8
Object
100
AcDbLine
 10
2.191681756475357
 20
4.136664540278924
 30
0.0
 11
2.087681756475357
 21
4.223664540278924
 31
0.0
  0
LINE
  5
31D
330
18
100
AcDbEntity
  8
Object
100
AcDbLine
 10
2.087681756475357
 20
4.223664540278924
 30
0.0
 11
1.995681756475358
 21
4.321664540278923
 31
0.0
  0
LINE
  5
31E
330
18
100
AcDbEntity
  8
Object
100
AcDbLine
 10
1.995681756475358
 20
4.321664540278923
 30
0.0
 11
1.914681756475357
 21
4.430664540278923
 31
0.0
  0
LINE
  5
31F
330
18
100
AcDbEntity
  8
Object
100
AcDbLine
 10
1.914681756475357
 20
4.430664540278923
 30
0.0
 11
1.847681756475358
 21
4.547664540278923
 31
0.0
  0
LINE
  5
320
330
18
100
AcDbEntity
  8
Object
100
AcDbLine
 10
1.847681756475358
 20
4.547664540278923
 30
0.0
 11
1.793681756475358
 21
4.671664540278924
 31
0.0
  0
LINE
  5
321
330
18
100
AcDbEntity
  8
Object
100
AcDbLine
 10
1.793681756475358
 20
4.671664540278924
 30
0.0
 11
1.754681756475357
 21
4.800664540278924
 31
0.0
  0
LINE
  5
322
330
18
100
AcDbEntity
  8
Object
100
AcDbLine
 10
1.754681756475357
 20
4.800664540278924
 30
0.0
 11
1.731681756475357
 21
4.933664540278924
 31
0.0
  0
LINE
  5
323
330
18
100
AcDbEntity
  8
Object
100
AcDbLine
 10
1.731681756475357
 20
4.933664540278924
 30
0.0
 11
1.723681756475357
 21
5.068664540278923
 31
0.0
  0
LINE
  5
324
330
18
100
AcDbEntity
  8
Object
100
AcDbLine
 10
1.723681756475357
 20
5.068664540278923
 30
0.0
 11
1.679681756475358
 21
5.068664540278923
 31
0.0
  0
LINE
  5
325
330
18
100
AcDbEntity
  8
Object
100
AcDbLine
 10
4.232681756475358
 20
5.068664540278923
 30
0.0
 11
4.224681756475357
 21
5.214664540278923
 31
0.0
  0
LINE
  5
326
330
18
100
AcDbEntity
  8
Object
100
AcDbLine
 10
4.224681756475357
 20
5.214664540278923
 30
0.0
 11
4.200681756475358
 21
5.358664540278923
 31
0.0
  0
LINE
  5
327
330
18
100
AcDbEntity
  8
Object
100
AcDbLine
 10
4.200681756475358
 20
5.358664540278923
 30
0.0
 11
4.161681756475358
 21
5.498664540278924
 31
0.0
  0
LINE
  5
328
330
18
100
AcDbEntity
  8
Object
100
AcDbLine
 10
4.161681756475358
 20
5.498664540278924
 30
0.0
 11
4.107681756475358
 21
5.634664540278923
 31
0.0
  0
LINE
  5
329
330
18
100
AcDbEntity
  8
Object
100
AcDbLine
 10
4.107681756475358
 20
5.634664540278923
 30
0.0
 11
4.039681756475358
 21
5.762664540278923
 31
0.0
  0
LINE
  5
32A
330
18
100
AcDbEntity
  8
Object
100
AcDbLine
 10
3.971681756475357
 20
5.591664540278924
 30
0.0
 11
4.022681756475357
 21
5.466664540278924
 31
0.0
  0
LINE
  5
32B
330
18
100
AcDbEntity
  8
Object
100
AcDbLine
 10
4.039681756475358
 20
5.762664540278923
 30
0.0
 11
3.957681756475357
 21
5.883664540278924
 31
0.0
  0
LINE
  5
32C
330
18
100
AcDbEntity
  8
Object
100
AcDbLine
 10
3.905681756475358
 20
5.709664540278923
 30
0.0
 11
3.971681756475357
 21
5.591664540278924
 31
0.0
  0
LINE
  5
32D
330
18
100
AcDbEntity
  8
Object
100
AcDbLine
 10
3.957681756475357
 20
5.883664540278924
 30
0.0
 11
3.863681756475358
 21
5.994664540278924
 31
0.0
  0
LINE
  5
32E
330
18
100
AcDbEntity
  8
Object
100
AcDbLine
 10
3.827681756475358
 20
5.819664540278924
 30
0.0
 11
3.905681756475358
 21
5.709664540278923
 31
0.0
  0
LINE
  5
32F
330
18
100
AcDbEntity
  8
Object
100
AcDbLine
 10
3.863681756475358
 20
5.994664540278924
 30
0.0
 11
3.757681756475358
 21
6.095664540278924
 31
0.0
  0
LINE
  5
330
330
18
100
AcDbEntity
  8
Object
100
AcDbLine
 10
3.737681756475357
 20
5.920664540278924
 30
0.0
 11
3.827681756475358
 21
5.819664540278924
 31
0.0
  0
LINE
  5
331
330
18
100
AcDbEntity
  8
Object
100
AcDbLine
 10
3.757681756475358
 20
6.095664540278924
 30
0.0
 11
3.641681756475358
 21
6.183664540278924
 31
0.0
  0
LINE
  5
332
330
18
100
AcDbEntity
  8
Object
100
AcDbLine
 10
3.737681756475357
 20
5.920664540278924
 30
0.0
 11
3.636681756475358
 21
6.010664540278924
 31
0.0
  0
LINE
  5
333
330
18
100
AcDbEntity
  8
Object
100
AcDbLine
 10
3.636681756475358
 20
6.010664540278924
 30
0.0
 11
3.526681756475358
 21
6.088664540278924
 31
0.0
  0
LINE
  5
334
330
18
100
AcDbEntity
  8
Object
100
AcDbLine
 10
3.641681756475358
 20
6.183664540278924
 30
0.0
 11
3.516681756475358
 21
6.258664540278924
 31
0.0
  0
LINE
  5
335
330
18
100
AcDbEntity
  8
Object
100
AcDbLine
 10
3.516681756475358
 20
6.258664540278924
 30
0.0
 11
3.383681756475358
 21
6.319664540278924
 31
0.0
  0
LINE
  5
336
330
18
100
AcDbEntity
  8
Object
100
AcDbLine
 10
3.283681756475358
 20
6.205664540278924
 30
0.0
 11
3.408681756475358
 21
6.154664540278924
 31
0.0
  0
LINE
  5
337
330
18
100
AcDbEntity
  8
Object
100
AcDbLine
 10
3.383681756475358
 20
6.319664540278924
 30
0.0
 11
3.245681756475358
 21
6.366664540278923
 31
0.0
  0
LINE
  5
338
330
18
100
AcDbEntity
  8
Object
100
AcDbLine
 10
3.153681756475358
 20
6.243664540278923
 30
0.0
 11
3.283681756475358
 21
6.205664540278924
 31
0.0
  0
LINE
  5
339
330
18
100
AcDbEntity
  8
Object
100
AcDbLine
 10
3.245681756475358
 20
6.366664540278923
 30
0.0
 11
3.103681756475357
 21
6.397664540278924
 31
0.0
  0
LINE
  5
33A
330
18
100
AcDbEntity
  8
Object
100
AcDbLine
 10
3.020681756475358
 20
6.266664540278924
 30
0.0
 11
3.153681756475358
 21
6.243664540278923
 31
0.0
  0
LINE
  5
33B
330
18
100
AcDbEntity
  8
Object
100
AcDbLine
 10
3.103681756475357
 20
6.397664540278924
 30
0.0
 11
2.958681756475358
 21
6.413664540278924
 31
0.0
  0
LINE
  5
33C
330
18
100
AcDbEntity
  8
Object
100
AcDbLine
 10
2.958681756475358
 20
6.413664540278924
 30
0.0
 11
2.812681756475358
 21
6.413664540278924
 31
0.0
  0
LINE
  5
33D
330
18
100
AcDbEntity
  8
Object
100
AcDbLine
 10
2.812681756475358
 20
6.413664540278924
 30
0.0
 11
2.667681756475357
 21
6.397664540278924
 31
0.0
  0
LINE
  5
33E
330
18
100
AcDbEntity
  8
Object
100
AcDbLine
 10
2.616681756475357
 20
6.243664540278923
 30
0.0
 11
2.750681756475358
 21
6.266664540278924
 31
0.0
  0
LINE
  5
33F
330
18
100
AcDbEntity
  8
Object
100
AcDbLine
 10
2.667681756475357
 20
6.397664540278924
 30
0.0
 11
2.524681756475358
 21
6.366664540278923
 31
0.0
  0
LINE
  5
340
330
18
100
AcDbEntity
  8
Object
100
AcDbLine
 10
2.487681756475358
 20
6.205664540278924
 30
0.0
 11
2.616681756475357
 21
6.243664540278923
 31
0.0
  0
LINE
  5
341
330
18
100
AcDbEntity
  8
Object
100
AcDbLine
 10
2.524681756475358
 20
6.366664540278923
 30
0.0
 11
2.386681756475358
 21
6.319664540278924
 31
0.0
  0
LINE
  5
342
330
18
100
AcDbEntity
  8
Object
100
AcDbLine
 10
2.362681756475358
 20
6.154664540278924
 30
0.0
 11
2.487681756475358
 21
6.205664540278924
 31
0.0
  0
LINE
  5
343
330
18
100
AcDbEntity
  8
Object
100
AcDbLine
 10
2.386681756475358
 20
6.319664540278924
 30
0.0
 11
2.254681756475358
 21
6.258664540278924
 31
0.0
  0
LINE
  5
344
330
18
100
AcDbEntity
  8
Object
100
AcDbLine
 10
2.243681756475358
 20
6.088664540278924
 30
0.0
 11
2.133681756475358
 21
6.010664540278924
 31
0.0
  0
LINE
  5
345
330
18
100
AcDbEntity
  8
Object
100
AcDbLine
 10
2.133681756475358
 20
6.010664540278924
 30
0.0
 11
2.032681756475358
 21
5.920664540278924
 31
0.0
  0
LINE
  5
346
330
18
100
AcDbEntity
  8
Object
100
AcDbLine
 10
2.032681756475358
 20
5.920664540278924
 30
0.0
 11
1.942681756475358
 21
5.819664540278924
 31
0.0
  0
LINE
  5
347
330
18
100
AcDbEntity
  8
Object
100
AcDbLine
 10
1.942681756475358
 20
5.819664540278924
 30
0.0
 11
1.864681756475357
 21
5.709664540278923
 31
0.0
  0
LINE
  5
348
330
18
100
AcDbEntity
  8
Object
100
AcDbLine
 10
1.864681756475357
 20
5.709664540278923
 30
0.0
 11
1.799681756475358
 21
5.591664540278924
 31
0.0
  0
LINE
  5
349
330
18
100
AcDbEntity
  8
Object
100
AcDbLine
 10
1.799681756475358
 20
5.591664540278924
 30
0.0
 11
1.747681756475357
 21
5.466664540278924
 31
0.0
  0
LINE
  5
34A
330
18
100
AcDbEntity
  8
Object
100
AcDbLine
 10
1.747681756475357
 20
5.466664540278924
 30
0.0
 11
1.710681756475358
 21
5.336664540278923
 31
0.0
  0
LINE
  5
34B
330
18
100
AcDbEntity
  8
Object
100
AcDbLine
 10
1.710681756475358
 20
5.336664540278923
 30
0.0
 11
1.687681756475358
 21
5.203664540278923
 31
0.0
  0
LINE
  5
34C
330
18
100
AcDbEntity
  8
Object
100
AcDbLine
 10
1.687681756475358
 20
5.203664540278923
 30
0.0
 11
1.679681756475358
 21
5.068664540278923
 31
0.0
  0
LINE
  5
34D
330
18
100
AcDbEntity
  8
Object
100
AcDbLine
 10
4.502681756475357
 20
5.227664540278923
 30
0.0
 11
4.510681756475358
 21
5.068664540278923
 31
0.0
  0
LINE
  5
34E
330
18
100
AcDbEntity
  8
Object
100
AcDbLine
 10
4.510681756475358
 20
5.068664540278923
 30
0.0
 11
4.502681756475357
 21
4.909664540278924
 31
0.0
  0
LINE
  5
34F
330
18
100
AcDbEntity
  8
Object
100
AcDbLine
 10
4.502681756475357
 20
5.227664540278923
 30
0.0
 11
4.479681756475358
 21
5.385664540278924
 31
0.0
  0
LINE
  5
350
330
18
100
AcDbEntity
  8
Object
100
AcDbLine
 10
4.479681756475358
 20
4.751664540278924
 30
0.0
 11
4.502681756475357
 21
4.909664540278924
 31
0.0
  0
LINE
  5
351
330
18
100
AcDbEntity
  8
Object
100
AcDbLine
 10
4.479681756475358
 20
5.385664540278924
 30
0.0
 11
4.440681756475358
 21
5.540664540278924
 31
0.0
  0
LINE
  5
352
330
18
100
AcDbEntity
  8
Object
100
AcDbLine
 10
4.440681756475358
 20
4.596664540278923
 30
0.0
 11
4.479681756475358
 21
4.751664540278924
 31
0.0
  0
LINE
  5
353
330
18
100
AcDbEntity
  8
Object
100
AcDbLine
 10
4.440681756475358
 20
5.540664540278924
 30
0.0
 11
4.386681756475358
 21
5.690664540278923
 31
0.0
  0
LINE
  5
354
330
18
100
AcDbEntity
  8
Object
100
AcDbLine
 10
4.386681756475358
 20
4.446664540278923
 30
0.0
 11
4.440681756475358
 21
4.596664540278923
 31
0.0
  0
LINE
  5
355
330
18
100
AcDbEntity
  8
Object
100
AcDbLine
 10
4.386681756475358
 20
5.690664540278923
 30
0.0
 11
4.318681756475358
 21
5.834664540278923
 31
0.0
  0
LINE
  5
356
330
18
100
AcDbEntity
  8
Object
100
AcDbLine
 10
4.318681756475358
 20
4.302664540278923
 30
0.0
 11
4.386681756475358
 21
4.446664540278923
 31
0.0
  0
LINE
  5
357
330
18
100
AcDbEntity
  8
Object
100
AcDbLine
 10
4.318681756475358
 20
5.834664540278923
 30
0.0
 11
4.236681756475357
 21
5.971664540278924
 31
0.0
  0
LINE
  5
358
330
18
100
AcDbEntity
  8
Object
100
AcDbLine
 10
4.236681756475357
 20
4.165664540278924
 30
0.0
 11
4.318681756475358
 21
4.302664540278923
 31
0.0
  0
LINE
  5
359
330
18
100
AcDbEntity
  8
Object
100
AcDbLine
 10
4.236681756475357
 20
5.971664540278924
 30
0.0
 11
4.141681756475358
 21
6.099664540278924
 31
0.0
  0
LINE
  5
35A
330
18
100
AcDbEntity
  8
Object
100
AcDbLine
 10
4.141681756475358
 20
4.037664540278924
 30
0.0
 11
4.236681756475357
 21
4.165664540278924
 31
0.0
  0
LINE
  5
35B
330
18
100
AcDbEntity
  8
Object
100
AcDbLine
 10
4.141681756475358
 20
6.099664540278924
 30
0.0
 11
4.034681756475357
 21
6.217664540278923
 31
0.0
  0
LINE
  5
35C
330
18
100
AcDbEntity
  8
Object
100
AcDbLine
 10
3.957681756475357
 20
4.253664540278923
 30
0.0
 11
3.863681756475358
 21
4.142664540278924
 31
0.0
  0
LINE
  5
35D
330
18
100
AcDbEntity
  8
Object
100
AcDbLine
 10
4.034681756475357
 20
3.919664540278923
 30
0.0
 11
4.141681756475358
 21
4.037664540278924
 31
0.0
  0
LINE
  5
35E
330
18
100
AcDbEntity
  8
Object
100
AcDbLine
 10
4.034681756475357
 20
6.217664540278923
 30
0.0
 11
3.916681756475357
 21
6.324664540278924
 31
0.0
  0
LINE
  5
35F
330
18
100
AcDbEntity
  8
Object
100
AcDbLine
 10
3.863681756475358
 20
4.142664540278924
 30
0.0
 11
3.757681756475358
 21
4.041664540278923
 31
0.0
  0
LINE
  5
360
330
18
100
AcDbEntity
  8
Object
100
AcDbLine
 10
3.916681756475357
 20
3.812664540278924
 30
0.0
 11
4.034681756475357
 21
3.919664540278923
 31
0.0
  0
LINE
  5
361
330
18
100
AcDbEntity
  8
Object
100
AcDbLine
 10
3.916681756475357
 20
6.324664540278924
 30
0.0
 11
3.788681756475357
 21
6.419664540278923
 31
0.0
  0
LINE
  5
362
330
18
100
AcDbEntity
  8
Object
100
AcDbLine
 10
3.757681756475358
 20
4.041664540278923
 30
0.0
 11
3.641681756475358
 21
3.953664540278924
 31
0.0
  0
LINE
  5
363
330
18
100
AcDbEntity
  8
Object
100
AcDbLine
 10
3.788681756475357
 20
3.717664540278923
 30
0.0
 11
3.916681756475357
 21
3.812664540278924
 31
0.0
  0
LINE
  5
364
330
18
100
AcDbEntity
  8
Object
100
AcDbLine
 10
3.788681756475357
 20
6.419664540278923
 30
0.0
 11
3.651681756475358
 21
6.501664540278923
 31
0.0
  0
LINE
  5
365
330
18
100
AcDbEntity
  8
Object
100
AcDbLine
 10
3.641681756475358
 20
3.953664540278924
 30
0.0
 11
3.516681756475358
 21
3.878664540278923
 31
0.0
  0
LINE
  5
366
330
18
100
AcDbEntity
  8
Object
100
AcDbLine
 10
3.651681756475358
 20
3.635664540278924
 30
0.0
 11
3.788681756475357
 21
3.717664540278923
 31
0.0
  0
LINE
  5
367
330
18
100
AcDbEntity
  8
Object
100
AcDbLine
 10
3.651681756475358
 20
6.501664540278923
 30
0.0
 11
3.507681756475358
 21
6.569664540278924
 31
0.0
  0
LINE
  5
368
330
18
100
AcDbEntity
  8
Object
100
AcDbLine
 10
3.516681756475358
 20
3.878664540278923
 30
0.0
 11
3.383681756475358
 21
3.817664540278923
 31
0.0
  0
LINE
  5
369
330
18
100
AcDbEntity
  8
Object
100
AcDbLine
 10
3.507681756475358
 20
6.569664540278924
 30
0.0
 11
3.356681756475358
 21
6.623664540278924
 31
0.0
  0
LINE
  5
36A
330
18
100
AcDbEntity
  8
Object
100
AcDbLine
 10
3.383681756475358
 20
3.817664540278923
 30
0.0
 11
3.245681756475358
 21
3.770664540278923
 31
0.0
  0
LINE
  5
36B
330
18
100
AcDbEntity
  8
Object
100
AcDbLine
 10
3.356681756475358
 20
6.623664540278924
 30
0.0
 11
3.202681756475358
 21
6.662664540278924
 31
0.0
  0
LINE
  5
36C
330
18
100
AcDbEntity
  8
Object
100
AcDbLine
 10
3.245681756475358
 20
3.770664540278923
 30
0.0
 11
3.103681756475357
 21
3.739664540278924
 31
0.0
  0
LINE
  5
36D
330
18
100
AcDbEntity
  8
Object
100
AcDbLine
 10
3.202681756475358
 20
6.662664540278924
 30
0.0
 11
3.044681756475357
 21
6.685664540278923
 31
0.0
  0
LINE
  5
36E
330
18
100
AcDbEntity
  8
Object
100
AcDbLine
 10
3.103681756475357
 20
3.739664540278924
 30
0.0
 11
2.958681756475358
 21
3.723664540278924
 31
0.0
  0
LINE
  5
36F
330
18
100
AcDbEntity
  8
Object
100
AcDbLine
 10
3.044681756475357
 20
6.685664540278923
 30
0.0
 11
2.885681756475357
 21
6.693664540278923
 31
0.0
  0
LINE
  5
370
330
18
100
AcDbEntity
  8
Object
100
AcDbLine
 10
2.885681756475357
 20
3.443664540278923
 30
0.0
 11
3.044681756475357
 21
3.451664540278923
 31
0.0
  0
LINE
  5
371
330
18
100
AcDbEntity
  8
Object
100
AcDbLine
 10
2.958681756475358
 20
3.723664540278924
 30
0.0
 11
2.812681756475358
 21
3.723664540278924
 31
0.0
  0
LINE
  5
372
330
18
100
AcDbEntity
  8
Object
100
AcDbLine
 10
2.885681756475357
 20
6.693664540278923
 30
0.0
 11
2.725681756475357
 21
6.685664540278923
 31
0.0
  0
LINE
  5
373
330
18
100
AcDbEntity
  8
Object
100
AcDbLine
 10
2.725681756475357
 20
3.451664540278923
 30
0.0
 11
2.885681756475357
 21
3.443664540278923
 31
0.0
  0
LINE
  5
374
330
18
100
AcDbEntity
  8
Object
100
AcDbLine
 10
2.812681756475358
 20
3.723664540278924
 30
0.0
 11
2.667681756475357
 21
3.739664540278924
 31
0.0
  0
LINE
  5
375
330
18
100
AcDbEntity
  8
Object
100
AcDbLine
 10
2.725681756475357
 20
6.685664540278923
 30
0.0
 11
2.568681756475357
 21
6.662664540278924
 31
0.0
  0
LINE
  5
376
330
18
100
AcDbEntity
  8
Object
100
AcDbLine
 10
2.568681756475357
 20
3.474664540278924
 30
0.0
 11
2.725681756475357
 21
3.451664540278923
 31
0.0
  0
LINE
  5
377
330
18
100
AcDbEntity
  8
Object
100
AcDbLine
 10
2.667681756475357
 20
3.739664540278924
 30
0.0
 11
2.524681756475358
 21
3.770664540278923
 31
0.0
  0
LINE
  5
378
330
18
100
AcDbEntity
  8
Object
100
AcDbLine
 10
2.568681756475357
 20
6.662664540278924
 30
0.0
 11
2.413681756475358
 21
6.623664540278924
 31
0.0
  0
LINE
  5
379
330
18
100
AcDbEntity
  8
Object
100
AcDbLine
 10
2.413681756475358
 20
3.513664540278924
 30
0.0
 11
2.568681756475357
 21
3.474664540278924
 31
0.0
  0
LINE
  5
37A
330
18
100
AcDbEntity
  8
Object
100
AcDbLine
 10
2.524681756475358
 20
3.770664540278923
 30
0.0
 11
2.386681756475358
 21
3.817664540278923
 31
0.0
  0
LINE
  5
37B
330
18
100
AcDbEntity
  8
Object
100
AcDbLine
 10
2.413681756475358
 20
6.623664540278924
 30
0.0
 11
2.263681756475357
 21
6.569664540278924
 31
0.0
  0
LINE
  5
37C
330
18
100
AcDbEntity
  8
Object
100
AcDbLine
 10
2.263681756475357
 20
3.567664540278924
 30
0.0
 11
2.413681756475358
 21
3.513664540278924
 31
0.0
  0
LINE
  5
37D
330
18
100
AcDbEntity
  8
Object
100
AcDbLine
 10
2.386681756475358
 20
3.817664540278923
 30
0.0
 11
2.254681756475358
 21
3.878664540278923
 31
0.0
  0
LINE
  5
37E
330
18
100
AcDbEntity
  8
Object
100
AcDbLine
 10
2.263681756475357
 20
6.569664540278924
 30
0.0
 11
2.119681756475357
 21
6.501664540278923
 31
0.0
  0
LINE
  5
37F
330
18
100
AcDbEntity
  8
Object
100
AcDbLine
 10
2.119681756475357
 20
3.635664540278924
 30
0.0
 11
2.263681756475357
 21
3.567664540278924
 31
0.0
  0
LINE
  5
380
330
18
100
AcDbEntity
  8
Object
100
AcDbLine
 10
2.129681756475358
 20
6.183664540278924
 30
0.0
 11
2.254681756475358
 21
6.258664540278924
 31
0.0
  0
LINE
  5
381
330
18
100
AcDbEntity
  8
Object
100
AcDbLine
 10
2.119681756475357
 20
6.501664540278923
 30
0.0
 11
1.982681756475358
 21
6.419664540278923
 31
0.0
  0
LINE
  5
382
330
18
100
AcDbEntity
  8
Object
100
AcDbLine
 10
1.982681756475358
 20
3.717664540278923
 30
0.0
 11
2.119681756475357
 21
3.635664540278924
 31
0.0
  0
LINE
  5
383
330
18
100
AcDbEntity
  8
Object
100
AcDbLine
 10
2.254681756475358
 20
3.878664540278923
 30
0.0
 11
2.129681756475358
 21
3.953664540278924
 31
0.0
  0
LINE
  5
384
330
18
100
AcDbEntity
  8
Object
100
AcDbLine
 10
1.982681756475358
 20
6.419664540278923
 30
0.0
 11
1.854681756475358
 21
6.324664540278924
 31
0.0
  0
LINE
  5
385
330
18
100
AcDbEntity
  8
Object
100
AcDbLine
 10
2.012681756475357
 20
6.095664540278924
 30
0.0
 11
2.129681756475358
 21
6.183664540278924
 31
0.0
  0
LINE
  5
386
330
18
100
AcDbEntity
  8
Object
100
AcDbLine
 10
2.129681756475358
 20
3.953664540278924
 30
0.0
 11
2.012681756475357
 21
4.041664540278923
 31
0.0
  0
LINE
  5
387
330
18
100
AcDbEntity
  8
Object
100
AcDbLine
 10
1.854681756475358
 20
3.812664540278924
 30
0.0
 11
1.982681756475358
 21
3.717664540278923
 31
0.0
  0
LINE
  5
388
330
18
100
AcDbEntity
  8
Object
100
AcDbLine
 10
1.854681756475358
 20
6.324664540278924
 30
0.0
 11
1.736681756475357
 21
6.217664540278923
 31
0.0
  0
LINE
  5
389
330
18
100
AcDbEntity
  8
Object
100
AcDbLine
 10
1.907681756475358
 20
5.994664540278924
 30
0.0
 11
2.012681756475357
 21
6.095664540278924
 31
0.0
  0
LINE
  5
38A
330
18
100
AcDbEntity
  8
Object
100
AcDbLine
 10
1.736681756475357
 20
3.919664540278923
 30
0.0
 11
1.854681756475358
 21
3.812664540278924
 31
0.0
  0
LINE
  5
38B
330
18
100
AcDbEntity
  8
Object
100
AcDbLine
 10
2.012681756475357
 20
4.041664540278923
 30
0.0
 11
1.907681756475358
 21
4.142664540278924
 31
0.0
  0
LINE
  5
38C
330
18
100
AcDbEntity
  8
Object
100
AcDbLine
 10
1.736681756475357
 20
6.217664540278923
 30
0.0
 11
1.628681756475358
 21
6.099664540278924
 31
0.0
  0
LINE
  5
38D
330
18
100
AcDbEntity
  8
Object
100
AcDbLine
 10
1.812681756475358
 20
5.883664540278924
 30
0.0
 11
1.907681756475358
 21
5.994664540278924
 31
0.0
  0
LINE
  5
38E
330
18
100
AcDbEntity
  8
Object
100
AcDbLine
 10
1.907681756475358
 20
4.142664540278924
 30
0.0
 11
1.812681756475358
 21
4.253664540278923
 31
0.0
  0
LINE
  5
38F
330
18
100
AcDbEntity
  8
Object
100
AcDbLine
 10
1.628681756475358
 20
4.037664540278924
 30
0.0
 11
1.736681756475357
 21
3.919664540278923
 31
0.0
  0
LINE
  5
390
330
18
100
AcDbEntity
  8
Object
100
AcDbLine
 10
1.730681756475358
 20
5.762664540278923
 30
0.0
 11
1.812681756475358
 21
5.883664540278924
 31
0.0
  0
LINE
  5
391
330
18
100
AcDbEntity
  8
Object
100
AcDbLine
 10
1.628681756475358
 20
6.099664540278924
 30
0.0
 11
1.533681756475358
 21
5.971664540278924
 31
0.0
  0
LINE
  5
392
330
18
100
AcDbEntity
  8
Object
100
AcDbLine
 10
1.812681756475358
 20
4.253664540278923
 30
0.0
 11
1.730681756475358
 21
4.374664540278923
 31
0.0
  0
LINE
  5
393
330
18
100
AcDbEntity
  8
Object
100
AcDbLine
 10
1.533681756475358
 20
4.165664540278924
 30
0.0
 11
1.628681756475358
 21
4.037664540278924
 31
0.0
  0
LINE
  5
394
330
18
100
AcDbEntity
  8
Object
100
AcDbLine
 10
1.533681756475358
 20
5.971664540278924
 30
0.0
 11
1.451681756475357
 21
5.834664540278923
 31
0.0
  0
LINE
  5
395
330
18
100
AcDbEntity
  8
Object
100
AcDbLine
 10
1.662681756475357
 20
5.634664540278923
 30
0.0
 11
1.730681756475358
 21
5.762664540278923
 31
0.0
  0
LINE
  5
396
330
18
100
AcDbEntity
  8
Object
100
AcDbLine
 10
1.730681756475358
 20
4.374664540278923
 30
0.0
 11
1.662681756475357
 21
4.502664540278924
 31
0.0
  0
LINE
  5
397
330
18
100
AcDbEntity
  8
Object
100
AcDbLine
 10
1.451681756475357
 20
4.302664540278923
 30
0.0
 11
1.533681756475358
 21
4.165664540278924
 31
0.0
  0
LINE
  5
398
330
18
100
AcDbEntity
  8
Object
100
AcDbLine
 10
1.451681756475357
 20
5.834664540278923
 30
0.0
 11
1.383681756475358
 21
5.690664540278923
 31
0.0
  0
LINE
  5
399
330
18
100
AcDbEntity
  8
Object
100
AcDbLine
 10
1.608681756475357
 20
5.498664540278924
 30
0.0
 11
1.662681756475357
 21
5.634664540278923
 31
0.0
  0
LINE
  5
39A
330
18
100
AcDbEntity
  8
Object
100
AcDbLine
 10
1.383681756475358
 20
4.446664540278923
 30
0.0
 11
1.451681756475357
 21
4.302664540278923
 31
0.0
  0
LINE
  5
39B
330
18
100
AcDbEntity
  8
Object
100
AcDbLine
 10
1.662681756475357
 20
4.502664540278924
 30
0.0
 11
1.608681756475357
 21
4.638664540278924
 31
0.0
  0
LINE
  5
39C
330
18
100
AcDbEntity
  8
Object
100
AcDbLine
 10
1.383681756475358
 20
5.690664540278923
 30
0.0
 11
1.330681756475358
 21
5.540664540278924
 31
0.0
  0
LINE
  5
39D
330
18
100
AcDbEntity
  8
Object
100
AcDbLine
 10
1.569681756475358
 20
5.358664540278923
 30
0.0
 11
1.608681756475357
 21
5.498664540278924
 31
0.0
  0
LINE
  5
39E
330
18
100
AcDbEntity
  8
Object
100
AcDbLine
 10
1.608681756475357
 20
4.638664540278924
 30
0.0
 11
1.569681756475358
 21
4.778664540278923
 31
0.0
  0
LINE
  5
39F
330
18
100
AcDbEntity
  8
Object
100
AcDbLine
 10
1.330681756475358
 20
4.596664540278923
 30
0.0
 11
1.383681756475358
 21
4.446664540278923
 31
0.0
  0
LINE
  5
3A0
330
18
100
AcDbEntity
  8
Object
100
AcDbLine
 10
1.545681756475357
 20
5.214664540278923
 30
0.0
 11
1.569681756475358
 21
5.358664540278923
 31
0.0
  0
LINE
  5
3A1
330
18
100
AcDbEntity
  8
Object
100
AcDbLine
 10
1.330681756475358
 20
5.540664540278924
 30
0.0
 11
1.291681756475358
 21
5.385664540278924
 31
0.0
  0
LINE
  5
3A2
330
18
100
AcDbEntity
  8
Object
100
AcDbLine
 10
1.569681756475358
 20
4.778664540278923
 30
0.0
 11
1.545681756475357
 21
4.922664540278923
 31
0.0
  0
LINE
  5
3A3
330
18
100
AcDbEntity
  8
Object
100
AcDbLine
 10
1.291681756475358
 20
4.751664540278924
 30
0.0
 11
1.330681756475358
 21
4.596664540278923
 31
0.0
  0
LINE
  5
3A4
330
18
100
AcDbEntity
  8
Object
100
AcDbLine
 10
1.291681756475358
 20
5.385664540278924
 30
0.0
 11
1.267681756475358
 21
5.227664540278923
 31
0.0
  0
LINE
  5
3A5
330
18
100
AcDbEntity
  8
Object
100
AcDbLine
 10
1.545681756475357
 20
5.214664540278923
 30
0.0
 11
1.537681756475357
 21
5.068664540278923
 31
0.0
  0
LINE
  5
3A6
330
18
100
AcDbEntity
  8
Object
100
AcDbLine
 10
1.537681756475357
 20
5.068664540278923
 30
0.0
 11
1.545681756475357
 21
4.922664540278923
 31
0.0
  0
LINE
  5
3A7
330
18
100
AcDbEntity
  8
Object
100
AcDbLine
 10
1.267681756475358
 20
4.909664540278924
 30
0.0
 11
1.291681756475358
 21
4.751664540278924
 31
0.0
  0
LINE
  5
3A8
330
18
100
AcDbEntity
  8
Object
100
AcDbLine
 10
1.267681756475358
 20
5.227664540278923
 30
0.0
 11
1.260681756475357
 21
5.068664540278923
 31
0.0
  0
LINE
  5
3A9
330
18
100
AcDbEntity
  8
Object
100
AcDbLine
 10
1.260681756475357
 20
5.068664540278923
 30
0.0
 11
1.267681756475358
 21
4.909664540278924
 31
0.0
  0
LINE
  5
3AA
330
18
100
AcDbEntity
  8
Object
100
AcDbLine
 10
4.029681756475358
 20
5.202664540278924
 30
0.0
 11
4.036681756475358
 21
5.068664540278923
 31
0.0
  0
LINE
  5
3AB
330
18
100
AcDbEntity
  8
Object
100
AcDbLine
 10
4.046681756475358
 20
5.068664540278923
 30
0.0
 11
4.038681756475357
 21
5.203664540278923
 31
0.0
  0
LINE
  5
3AC
330
18
100
AcDbEntity
  8
Object
100
AcDbLine
 10
4.036681756475358
 20
5.068664540278923
 30
0.0
 11
4.029681756475358
 21
4.934664540278924
 31
0.0
  0
LINE
  5
3AD
330
18
100
AcDbEntity
  8
Object
100
AcDbLine
 10
4.038681756475357
 20
4.933664540278924
 30
0.0
 11
4.046681756475358
 21
5.068664540278923
 31
0.0
  0
LINE
  5
3AE
330
18
100
AcDbEntity
  8
Object
100
AcDbLine
 10
4.038681756475357
 20
5.203664540278923
 30
0.0
 11
4.015681756475357
 21
5.336664540278923
 31
0.0
  0
LINE
  5
3AF
330
18
100
AcDbEntity
  8
Object
100
AcDbLine
 10
4.005681756475357
 20
5.334664540278923
 30
0.0
 11
4.029681756475358
 21
5.202664540278924
 31
0.0
  0
LINE
  5
3B0
330
18
100
AcDbEntity
  8
Object
100
AcDbLine
 10
4.015681756475357
 20
4.800664540278924
 30
0.0
 11
4.038681756475357
 21
4.933664540278924
 31
0.0
  0
LINE
  5
3B1
330
18
100
AcDbEntity
  8
Object
100
AcDbLine
 10
4.029681756475358
 20
4.934664540278924
 30
0.0
 11
4.005681756475357
 21
4.802664540278923
 31
0.0
  0
LINE
  5
3B2
330
18
100
AcDbEntity
  8
Object
100
AcDbLine
 10
3.967681756475357
 20
5.462664540278924
 30
0.0
 11
4.005681756475357
 21
5.334664540278923
 31
0.0
  0
LINE
  5
3B3
330
18
100
AcDbEntity
  8
Object
100
AcDbLine
 10
4.015681756475357
 20
5.336664540278923
 30
0.0
 11
3.976681756475358
 21
5.465664540278924
 31
0.0
  0
LINE
  5
3B4
330
18
100
AcDbEntity
  8
Object
100
AcDbLine
 10
4.005681756475357
 20
4.802664540278923
 30
0.0
 11
3.967681756475357
 21
4.674664540278924
 31
0.0
  0
LINE
  5
3B5
330
18
100
AcDbEntity
  8
Object
100
AcDbLine
 10
3.976681756475358
 20
4.671664540278924
 30
0.0
 11
4.015681756475357
 21
4.800664540278924
 31
0.0
  0
LINE
  5
3B6
330
18
100
AcDbEntity
  8
Object
100
AcDbLine
 10
3.976681756475358
 20
5.465664540278924
 30
0.0
 11
3.923681756475358
 21
5.589664540278923
 31
0.0
  0
LINE
  5
3B7
330
18
100
AcDbEntity
  8
Object
100
AcDbLine
 10
3.914681756475358
 20
5.585664540278924
 30
0.0
 11
3.967681756475357
 21
5.462664540278924
 31
0.0
  0
LINE
  5
3B8
330
18
100
AcDbEntity
  8
Object
100
AcDbLine
 10
3.923681756475358
 20
4.547664540278923
 30
0.0
 11
3.976681756475358
 21
4.671664540278924
 31
0.0
  0
LINE
  5
3B9
330
18
100
AcDbEntity
  8
Object
100
AcDbLine
 10
3.967681756475357
 20
4.674664540278924
 30
0.0
 11
3.914681756475358
 21
4.551664540278923
 31
0.0
  0
LINE
  5
3BA
330
18
100
AcDbEntity
  8
Object
100
AcDbLine
 10
3.847681756475358
 20
5.701664540278923
 30
0.0
 11
3.914681756475358
 21
5.585664540278924
 31
0.0
  0
LINE
  5
3BB
330
18
100
AcDbEntity
  8
Object
100
AcDbLine
 10
3.923681756475358
 20
5.589664540278923
 30
0.0
 11
3.855681756475357
 21
5.706664540278923
 31
0.0
  0
LINE
  5
3BC
330
18
100
AcDbEntity
  8
Object
100
AcDbLine
 10
3.914681756475358
 20
4.551664540278923
 30
0.0
 11
3.847681756475358
 21
4.435664540278923
 31
0.0
  0
LINE
  5
3BD
330
18
100
AcDbEntity
  8
Object
100
AcDbLine
 10
3.855681756475357
 20
4.430664540278923
 30
0.0
 11
3.923681756475358
 21
4.547664540278923
 31
0.0
  0
LINE
  5
3BE
330
18
100
AcDbEntity
  8
Object
100
AcDbLine
 10
3.855681756475357
 20
5.706664540278923
 30
0.0
 11
3.775681756475357
 21
5.815664540278923
 31
0.0
  0
LINE
  5
3BF
330
18
100
AcDbEntity
  8
Object
100
AcDbLine
 10
3.767681756475358
 20
5.808664540278924
 30
0.0
 11
3.847681756475358
 21
5.701664540278923
 31
0.0
  0
LINE
  5
3C0
330
18
100
AcDbEntity
  8
Object
100
AcDbLine
 10
3.775681756475357
 20
4.321664540278923
 30
0.0
 11
3.855681756475357
 21
4.430664540278923
 31
0.0
  0
LINE
  5
3C1
330
18
100
AcDbEntity
  8
Object
100
AcDbLine
 10
3.847681756475358
 20
4.435664540278923
 30
0.0
 11
3.767681756475358
 21
4.328664540278924
 31
0.0
  0
LINE
  5
3C2
330
18
100
AcDbEntity
  8
Object
100
AcDbLine
 10
3.675681756475357
 20
5.906664540278923
 30
0.0
 11
3.767681756475358
 21
5.808664540278924
 31
0.0
  0
LINE
  5
3C3
330
18
100
AcDbEntity
  8
Object
100
AcDbLine
 10
3.775681756475357
 20
5.815664540278923
 30
0.0
 11
3.682681756475357
 21
5.913664540278924
 31
0.0
  0
LINE
  5
3C4
330
18
100
AcDbEntity
  8
Object
100
AcDbLine
 10
3.767681756475358
 20
4.328664540278924
 30
0.0
 11
3.675681756475357
 21
4.230664540278923
 31
0.0
  0
LINE
  5
3C5
330
18
100
AcDbEntity
  8
Object
100
AcDbLine
 10
3.682681756475357
 20
4.223664540278924
 30
0.0
 11
3.775681756475357
 21
4.321664540278923
 31
0.0
  0
LINE
  5
3C6
330
18
100
AcDbEntity
  8
Object
100
AcDbLine
 10
3.682681756475357
 20
5.913664540278924
 30
0.0
 11
3.578681756475358
 21
6.000664540278924
 31
0.0
  0
LINE
  5
3C7
330
18
100
AcDbEntity
  8
Object
100
AcDbLine
 10
3.572681756475358
 20
5.992664540278924
 30
0.0
 11
3.675681756475357
 21
5.906664540278923
 31
0.0
  0
LINE
  5
3C8
330
18
100
AcDbEntity
  8
Object
100
AcDbLine
 10
3.578681756475358
 20
4.136664540278924
 30
0.0
 11
3.682681756475357
 21
4.223664540278924
 31
0.0
  0
LINE
  5
3C9
330
18
100
AcDbEntity
  8
Object
100
AcDbLine
 10
3.675681756475357
 20
4.230664540278923
 30
0.0
 11
3.572681756475358
 21
4.144664540278923
 31
0.0
  0
LINE
  5
3CA
330
18
100
AcDbEntity
  8
Object
100
AcDbLine
 10
3.461681756475357
 20
6.065664540278923
 30
0.0
 11
3.572681756475358
 21
5.992664540278924
 31
0.0
  0
LINE
  5
3CB
330
18
100
AcDbEntity
  8
Object
100
AcDbLine
 10
3.578681756475358
 20
6.000664540278924
 30
0.0
 11
3.465681756475358
 21
6.074664540278924
 31
0.0
  0
LINE
  5
3CC
330
18
100
AcDbEntity
  8
Object
100
AcDbLine
 10
3.572681756475358
 20
4.144664540278923
 30
0.0
 11
3.461681756475357
 21
4.071664540278923
 31
0.0
  0
LINE
  5
3CD
330
18
100
AcDbEntity
  8
Object
100
AcDbLine
 10
3.465681756475358
 20
4.062664540278924
 30
0.0
 11
3.578681756475358
 21
4.136664540278924
 31
0.0
  0
LINE
  5
3CE
330
18
100
AcDbEntity
  8
Object
100
AcDbLine
 10
3.465681756475358
 20
6.074664540278924
 30
0.0
 11
3.345681756475357
 21
6.135664540278924
 31
0.0
  0
LINE
  5
3CF
330
18
100
AcDbEntity
  8
Object
100
AcDbLine
 10
3.341681756475358
 20
6.125664540278924
 30
0.0
 11
3.461681756475357
 21
6.065664540278923
 31
0.0
  0
LINE
  5
3D0
330
18
100
AcDbEntity
  8
Object
100
AcDbLine
 10
3.345681756475357
 20
4.002664540278924
 30
0.0
 11
3.465681756475358
 21
4.062664540278924
 31
0.0
  0
LINE
  5
3D1
330
18
100
AcDbEntity
  8
Object
100
AcDbLine
 10
3.461681756475357
 20
4.071664540278923
 30
0.0
 11
3.341681756475358
 21
4.011664540278924
 31
0.0
  0
LINE
  5
3D2
330
18
100
AcDbEntity
  8
Object
100
AcDbLine
 10
3.215681756475357
 20
6.171664540278924
 30
0.0
 11
3.341681756475358
 21
6.125664540278924
 31
0.0
  0
LINE
  5
3D3
330
18
100
AcDbEntity
  8
Object
100
AcDbLine
 10
3.345681756475357
 20
6.135664540278924
 30
0.0
 11
3.218681756475358
 21
6.181664540278924
 31
0.0
  0
LINE
  5
3D4
330
18
100
AcDbEntity
  8
Object
100
AcDbLine
 10
3.341681756475358
 20
4.011664540278924
 30
0.0
 11
3.215681756475357
 21
3.965664540278924
 31
0.0
  0
LINE
  5
3D5
330
18
100
AcDbEntity
  8
Object
100
AcDbLine
 10
3.218681756475358
 20
3.955664540278923
 30
0.0
 11
3.345681756475357
 21
4.002664540278924
 31
0.0
  0
LINE
  5
3D6
330
18
100
AcDbEntity
  8
Object
100
AcDbLine
 10
3.218681756475358
 20
6.181664540278924
 30
0.0
 11
3.086681756475358
 21
6.212664540278924
 31
0.0
  0
LINE
  5
3D7
330
18
100
AcDbEntity
  8
Object
100
AcDbLine
 10
3.085681756475358
 20
6.202664540278924
 30
0.0
 11
3.215681756475357
 21
6.171664540278924
 31
0.0
  0
LINE
  5
3D8
330
18
100
AcDbEntity
  8
Object
100
AcDbLine
 10
3.086681756475358
 20
3.924664540278924
 30
0.0
 11
3.218681756475358
 21
3.955664540278923
 31
0.0
  0
LINE
  5
3D9
330
18
100
AcDbEntity
  8
Object
100
AcDbLine
 10
3.215681756475357
 20
3.965664540278924
 30
0.0
 11
3.085681756475358
 21
3.934664540278924
 31
0.0
  0
LINE
  5
3DA
330
18
100
AcDbEntity
  8
Object
100
AcDbLine
 10
2.952681756475358
 20
6.218664540278924
 30
0.0
 11
3.085681756475358
 21
6.202664540278924
 31
0.0
  0
LINE
  5
3DB
330
18
100
AcDbEntity
  8
Object
100
AcDbLine
 10
3.086681756475358
 20
6.212664540278924
 30
0.0
 11
2.952681756475358
 21
6.228664540278924
 31
0.0
  0
LINE
  5
3DC
330
18
100
AcDbEntity
  8
Object
100
AcDbLine
 10
3.085681756475358
 20
3.934664540278924
 30
0.0
 11
2.952681756475358
 21
3.918664540278924
 31
0.0
  0
LINE
  5
3DD
330
18
100
AcDbEntity
  8
Object
100
AcDbLine
 10
2.952681756475358
 20
3.909664540278924
 30
0.0
 11
3.086681756475358
 21
3.924664540278924
 31
0.0
  0
LINE
  5
3DE
330
18
100
AcDbEntity
  8
Object
100
AcDbLine
 10
2.952681756475358
 20
3.918664540278924
 30
0.0
 11
2.818681756475357
 21
3.918664540278924
 31
0.0
  0
LINE
  5
3DF
330
18
100
AcDbEntity
  8
Object
100
AcDbLine
 10
2.952681756475358
 20
6.228664540278924
 30
0.0
 11
2.817681756475358
 21
6.228664540278924
 31
0.0
  0
LINE
  5
3E0
330
18
100
AcDbEntity
  8
Object
100
AcDbLine
 10
2.685681756475357
 20
6.202664540278924
 30
0.0
 11
2.818681756475357
 21
6.218664540278924
 31
0.0
  0
LINE
  5
3E1
330
18
100
AcDbEntity
  8
Object
100
AcDbLine
 10
2.817681756475358
 20
6.228664540278924
 30
0.0
 11
2.683681756475357
 21
6.212664540278924
 31
0.0
  0
LINE
  5
3E2
330
18
100
AcDbEntity
  8
Object
100
AcDbLine
 10
2.818681756475357
 20
3.918664540278924
 30
0.0
 11
2.685681756475357
 21
3.934664540278924
 31
0.0
  0
LINE
  5
3E3
330
18
100
AcDbEntity
  8
Object
100
AcDbLine
 10
2.683681756475357
 20
6.212664540278924
 30
0.0
 11
2.551681756475358
 21
6.181664540278924
 31
0.0
  0
LINE
  5
3E4
330
18
100
AcDbEntity
  8
Object
100
AcDbLine
 10
2.554681756475358
 20
6.171664540278924
 30
0.0
 11
2.685681756475357
 21
6.202664540278924
 31
0.0
  0
LINE
  5
3E5
330
18
100
AcDbEntity
  8
Object
100
AcDbLine
 10
2.685681756475357
 20
3.934664540278924
 30
0.0
 11
2.554681756475358
 21
3.965664540278924
 31
0.0
  0
LINE
  5
3E6
330
18
100
AcDbEntity
  8
Object
100
AcDbLine
 10
2.428681756475358
 20
6.125664540278924
 30
0.0
 11
2.554681756475358
 21
6.171664540278924
 31
0.0
  0
LINE
  5
3E7
330
18
100
AcDbEntity
  8
Object
100
AcDbLine
 10
2.551681756475358
 20
6.181664540278924
 30
0.0
 11
2.425681756475357
 21
6.135664540278924
 31
0.0
  0
LINE
  5
3E8
330
18
100
AcDbEntity
  8
Object
100
AcDbLine
 10
2.554681756475358
 20
3.965664540278924
 30
0.0
 11
2.428681756475358
 21
4.011664540278924
 31
0.0
  0
LINE
  5
3E9
330
18
100
AcDbEntity
  8
Object
100
AcDbLine
 10
2.425681756475357
 20
6.135664540278924
 30
0.0
 11
2.304681756475358
 21
6.074664540278924
 31
0.0
  0
LINE
  5
3EA
330
18
100
AcDbEntity
  8
Object
100
AcDbLine
 10
2.309681756475358
 20
6.065664540278923
 30
0.0
 11
2.428681756475358
 21
6.125664540278924
 31
0.0
  0
LINE
  5
3EB
330
18
100
AcDbEntity
  8
Object
100
AcDbLine
 10
2.428681756475358
 20
4.011664540278924
 30
0.0
 11
2.309681756475358
 21
4.071664540278923
 31
0.0
  0
LINE
  5
3EC
330
18
100
AcDbEntity
  8
Object
100
AcDbLine
 10
2.197681756475358
 20
5.992664540278924
 30
0.0
 11
2.309681756475358
 21
6.065664540278923
 31
0.0
  0
LINE
  5
3ED
330
18
100
AcDbEntity
  8
Object
100
AcDbLine
 10
2.304681756475358
 20
6.074664540278924
 30
0.0
 11
2.191681756475357
 21
6.000664540278924
 31
0.0
  0
LINE
  5
3EE
330
18
100
AcDbEntity
  8
Object
100
AcDbLine
 10
2.309681756475358
 20
4.071664540278923
 30
0.0
 11
2.197681756475358
 21
4.144664540278923
 31
0.0
  0
LINE
  5
3EF
330
18
100
AcDbEntity
  8
Object
100
AcDbLine
 10
2.191681756475357
 20
6.000664540278924
 30
0.0
 11
2.087681756475357
 21
5.913664540278924
 31
0.0
  0
LINE
  5
3F0
330
18
100
AcDbEntity
  8
Object
100
AcDbLine
 10
2.094681756475358
 20
5.906664540278923
 30
0.0
 11
2.197681756475358
 21
5.992664540278924
 31
0.0
  0
LINE
  5
3F1
330
18
100
AcDbEntity
  8
Object
100
AcDbLine
 10
2.197681756475358
 20
4.144664540278923
 30
0.0
 11
2.094681756475358
 21
4.230664540278923
 31
0.0
  0
LINE
  5
3F2
330
18
100
AcDbEntity
  8
Object
100
AcDbLine
 10
2.002681756475357
 20
5.808664540278924
 30
0.0
 11
2.094681756475358
 21
5.906664540278923
 31
0.0
  0
LINE
  5
3F3
330
18
100
AcDbEntity
  8
Object
100
AcDbLine
 10
2.087681756475357
 20
5.913664540278924
 30
0.0
 11
1.995681756475358
 21
5.815664540278923
 31
0.0
  0
LINE
  5
3F4
330
18
100
AcDbEntity
  8
Object
100
AcDbLine
 10
2.094681756475358
 20
4.230664540278923
 30
0.0
 11
2.002681756475357
 21
4.328664540278924
 31
0.0
  0
LINE
  5
3F5
330
18
100
AcDbEntity
  8
Object
100
AcDbLine
 10
1.995681756475358
 20
5.815664540278923
 30
0.0
 11
1.914681756475357
 21
5.706664540278923
 31
0.0
  0
LINE
  5
3F6
330
18
100
AcDbEntity
  8
Object
100
AcDbLine
 10
1.922681756475357
 20
5.701664540278923
 30
0.0
 11
2.002681756475357
 21
5.808664540278924
 31
0.0
  0
LINE
  5
3F7
330
18
100
AcDbEntity
  8
Object
100
AcDbLine
 10
2.002681756475357
 20
4.328664540278924
 30
0.0
 11
1.922681756475357
 21
4.435664540278923
 31
0.0
  0
LINE
  5
3F8
330
18
100
AcDbEntity
  8
Object
100
AcDbLine
 10
1.855681756475358
 20
5.585664540278924
 30
0.0
 11
1.922681756475357
 21
5.701664540278923
 31
0.0
  0
LINE
  5
3F9
330
18
100
AcDbEntity
  8
Object
100
AcDbLine
 10
1.914681756475357
 20
5.706664540278923
 30
0.0
 11
1.847681756475358
 21
5.589664540278923
 31
0.0
  0
LINE
  5
3FA
330
18
100
AcDbEntity
  8
Object
100
AcDbLine
 10
1.922681756475357
 20
4.435664540278923
 30
0.0
 11
1.855681756475358
 21
4.551664540278923
 31
0.0
  0
LINE
  5
3FB
330
18
100
AcDbEntity
  8
Object
100
AcDbLine
 10
1.847681756475358
 20
5.589664540278923
 30
0.0
 11
1.793681756475358
 21
5.465664540278924
 31
0.0
  0
LINE
  5
3FC
330
18
100
AcDbEntity
  8
Object
100
AcDbLine
 10
1.802681756475357
 20
5.462664540278924
 30
0.0
 11
1.855681756475358
 21
5.585664540278924
 31
0.0
  0
LINE
  5
3FD
330
18
100
AcDbEntity
  8
Object
100
AcDbLine
 10
1.855681756475358
 20
4.551664540278923
 30
0.0
 11
1.802681756475357
 21
4.674664540278924
 31
0.0
  0
LINE
  5
3FE
330
18
100
AcDbEntity
  8
Object
100
AcDbLine
 10
1.764681756475358
 20
5.334664540278923
 30
0.0
 11
1.802681756475357
 21
5.462664540278924
 31
0.0
  0
LINE
  5
3FF
330
18
100
AcDbEntity
  8
Object
100
AcDbLine
 10
1.802681756475357
 20
4.674664540278924
 30
0.0
 11
1.764681756475358
 21
4.802664540278923
 31
0.0
  0
LINE
  5
400
330
18
100
AcDbEntity
  8
Object
100
AcDbLine
 10
1.741681756475357
 20
5.202664540278924
 30
0.0
 11
1.764681756475358
 21
5.334664540278923
 31
0.0
  0
LINE
  5
401
330
18
100
AcDbEntity
  8
Object
100
AcDbLine
 10
1.764681756475358
 20
4.802664540278923
 30
0.0
 11
1.741681756475357
 21
4.934664540278924
 31
0.0
  0
LINE
  5
402
330
18
100
AcDbEntity
  8
Object
100
AcDbLine
 10
1.741681756475357
 20
5.202664540278924
 30
0.0
 11
1.733681756475357
 21
5.068664540278923
 31
0.0
  0
LINE
  5
403
330
18
100
AcDbEntity
  8
Object
100
AcDbLine
 10
1.733681756475357
 20
5.068664540278923
 30
0.0
 11
1.741681756475357
 21
4.934664540278924
 31
0.0
  0
LINE
  5
404
330
18
100
AcDbEntity
  8
Object
100
AcDbLine
 10
4.090681756475358
 20
5.068664540278923
 30
0.0
 11
4.082681756475357
 21
5.203664540278923
 31
0.0
  0
LINE
  5
405
330
18
100
AcDbEntity
  8
Object
100
AcDbLine
 10
4.082681756475357
 20
5.203664540278923
 30
0.0
 11
4.060681756475357
 21
5.336664540278923
 31
0.0
  0
LINE
  5
406
330
18
100
AcDbEntity
  8
Object
100
AcDbLine
 10
4.060681756475357
 20
5.336664540278923
 30
0.0
 11
4.022681756475357
 21
5.466664540278924
 31
0.0
  0
LINE
  5
407
330
18
100
AcDbEntity
  8
Object
100
AcDbLine
 10
3.526681756475358
 20
6.088664540278924
 30
0.0
 11
3.408681756475358
 21
6.154664540278924
 31
0.0
  0
LINE
  5
408
330
18
100
AcDbEntity
  8
Object
100
AcDbLine
 10
3.020681756475358
 20
6.266664540278924
 30
0.0
 11
2.885681756475357
 21
6.273664540278923
 31
0.0
  0
LINE
  5
409
330
18
100
AcDbEntity
  8
Object
100
AcDbLine
 10
2.885681756475357
 20
6.273664540278923
 30
0.0
 11
2.750681756475358
 21
6.266664540278924
 31
0.0
  0
LINE
  5
40A
330
18
100
AcDbEntity
  8
Object
100
AcDbLine
 10
2.362681756475358
 20
6.154664540278924
 30
0.0
 11
2.243681756475358
 21
6.088664540278924
 31
0.0
  0
LINE
  5
40B
330
18
100
AcDbEntity
  8
Object
100
AcDbLine
 10
1.793681756475358
 20
5.465664540278924
 30
0.0
 11
1.754681756475357
 21
5.336664540278923
 31
0.0
  0
LINE
  5
40C
330
18
100
AcDbEntity
  8
Object
100
AcDbLine
 10
1.754681756475357
 20
5.336664540278923
 30
0.0
 11
1.731681756475357
 21
5.203664540278923
 31
0.0
  0
LINE
  5
40D
330
18
100
AcDbEntity
  8
Object
100
AcDbLine
 10
1.731681756475357
 20
5.203664540278923
 30
0.0
 11
1.723681756475357
 21
5.068664540278923
 31
0.0
  0
LINE
  5
40E
330
18
100
AcDbEntity
  8
Object
100
AcDbLine
 10
3.651681756475358
 20
3.635664540278924
 30
0.0
 11
3.507681756475358
 21
3.567664540278924
 31
0.0
  0
LINE
  5
40F
330
18
100
AcDbEntity
  8
Object
100
AcDbLine
 10
3.507681756475358
 20
3.567664540278924
 30
0.0
 11
3.356681756475358
 21
3.513664540278924
 31
0.0
  0
LINE
  5
410
330
18
100
AcDbEntity
  8
Object
100
AcDbLine
 10
3.356681756475358
 20
3.513664540278924
 30
0.0
 11
3.202681756475358
 21
3.474664540278924
 31
0.0
  0
LINE
  5
411
330
18
100
AcDbEntity
  8
Object
100
AcDbLine
 10
3.202681756475358
 20
3.474664540278924
 30
0.0
 11
3.044681756475357
 21
3.451664540278923
 31
0.0
  0
LINE
  5
412
330
18
100
AcDbEntity
  8
Object
100
AcDbLine
 10
2.818681756475357
 20
6.218664540278924
 30
0.0
 11
2.952681756475358
 21
6.218664540278924
 31
0.0
  0
LINE
  5
413
330
18
100
AcDbEntity
  8
Object
100
AcDbLine
 10
3.995681756475358
 20
5.198664540278923
 30
0.0
 11
3.973681756475357
 21
5.326664540278923
 31
0.0
  0
LINE
  5
414
330
18
100
AcDbEntity
  8
Object
100
AcDbLine
 10
3.973681756475357
 20
5.326664540278923
 30
0.0
 11
3.935681756475357
 21
5.450664540278924
 31
0.0
  0
LINE
  5
415
330
18
100
AcDbEntity
  8
Object
100
AcDbLine
 10
3.935681756475357
 20
5.450664540278924
 30
0.0
 11
3.884681756475357
 21
5.570664540278923
 31
0.0
  0
LINE
  5
416
330
18
100
AcDbEntity
  8
Object
100
AcDbLine
 10
3.884681756475357
 20
5.570664540278923
 30
0.0
 11
3.819681756475358
 21
5.682664540278923
 31
0.0
  0
LINE
  5
417
330
18
100
AcDbEntity
  8
Object
100
AcDbLine
 10
3.819681756475358
 20
5.682664540278923
 30
0.0
 11
3.741681756475358
 21
5.787664540278924
 31
0.0
  0
LINE
  5
418
330
18
100
AcDbEntity
  8
Object
100
AcDbLine
 10
3.741681756475358
 20
5.787664540278924
 30
0.0
 11
3.652681756475358
 21
5.881664540278924
 31
0.0
  0
LINE
  5
419
330
18
100
AcDbEntity
  8
Object
100
AcDbLine
 10
3.652681756475358
 20
5.881664540278924
 30
0.0
 11
3.552681756475358
 21
5.965664540278924
 31
0.0
  0
LINE
  5
41A
330
18
100
AcDbEntity
  8
Object
100
AcDbLine
 10
3.552681756475358
 20
5.965664540278924
 30
0.0
 11
3.444681756475358
 21
6.036664540278923
 31
0.0
  0
LINE
  5
41B
330
18
100
AcDbEntity
  8
Object
100
AcDbLine
 10
3.444681756475358
 20
6.036664540278923
 30
0.0
 11
3.328681756475358
 21
6.095664540278924
 31
0.0
  0
LINE
  5
41C
330
18
100
AcDbEntity
  8
Object
100
AcDbLine
 10
3.328681756475358
 20
6.095664540278924
 30
0.0
 11
3.205681756475358
 21
6.139664540278924
 31
0.0
  0
LINE
  5
41D
330
18
100
AcDbEntity
  8
Object
100
AcDbLine
 10
3.205681756475358
 20
6.139664540278924
 30
0.0
 11
3.079681756475357
 21
6.169664540278923
 31
0.0
  0
LINE
  5
41E
330
18
100
AcDbEntity
  8
Object
100
AcDbLine
 10
3.079681756475357
 20
6.169664540278923
 30
0.0
 11
2.950681756475358
 21
6.184664540278924
 31
0.0
  0
LINE
  5
41F
330
18
100
AcDbEntity
  8
Object
100
AcDbLine
 10
2.950681756475358
 20
6.184664540278924
 30
0.0
 11
2.820681756475358
 21
6.184664540278924
 31
0.0
  0
LINE
  5
420
330
18
100
AcDbEntity
  8
Object
100
AcDbLine
 10
2.820681756475358
 20
6.184664540278924
 30
0.0
 11
2.691681756475357
 21
6.169664540278923
 31
0.0
  0
LINE
  5
421
330
18
100
AcDbEntity
  8
Object
100
AcDbLine
 10
2.691681756475357
 20
6.169664540278923
 30
0.0
 11
2.564681756475358
 21
6.139664540278924
 31
0.0
  0
LINE
  5
422
330
18
100
AcDbEntity
  8
Object
100
AcDbLine
 10
2.564681756475358
 20
6.139664540278924
 30
0.0
 11
2.442681756475358
 21
6.095664540278924
 31
0.0
  0
LINE
  5
423
330
18
100
AcDbEntity
  8
Object
100
AcDbLine
 10
2.442681756475358
 20
6.095664540278924
 30
0.0
 11
2.326681756475357
 21
6.036664540278923
 31
0.0
  0
LINE
  5
424
330
18
100
AcDbEntity
  8
Object
100
AcDbLine
 10
2.326681756475357
 20
6.036664540278923
 30
0.0
 11
2.217681756475357
 21
5.965664540278924
 31
0.0
  0
LINE
  5
425
330
18
100
AcDbEntity
  8
Object
100
AcDbLine
 10
2.217681756475357
 20
5.965664540278924
 30
0.0
 11
2.117681756475358
 21
5.881664540278924
 31
0.0
  0
LINE
  5
426
330
18
100
AcDbEntity
  8
Object
100
AcDbLine
 10
2.117681756475358
 20
5.881664540278924
 30
0.0
 11
2.028681756475357
 21
5.787664540278924
 31
0.0
  0
LINE
  5
427
330
18
100
AcDbEntity
  8
Object
100
AcDbLine
 10
2.028681756475357
 20
5.787664540278924
 30
0.0
 11
1.951681756475357
 21
5.682664540278923
 31
0.0
  0
LINE
  5
428
330
18
100
AcDbEntity
  8
Object
100
AcDbLine
 10
1.951681756475357
 20
5.682664540278923
 30
0.0
 11
1.886681756475358
 21
5.570664540278923
 31
0.0
  0
LINE
  5
429
330
18
100
AcDbEntity
  8
Object
100
AcDbLine
 10
1.886681756475358
 20
5.570664540278923
 30
0.0
 11
1.834681756475357
 21
5.450664540278924
 31
0.0
  0
LINE
  5
42A
330
18
100
AcDbEntity
  8
Object
100
AcDbLine
 10
1.834681756475357
 20
5.450664540278924
 30
0.0
 11
1.797681756475357
 21
5.326664540278923
 31
0.0
  0
LINE
  5
42B
330
18
100
AcDbEntity
  8
Object
100
AcDbLine
 10
1.797681756475357
 20
5.326664540278923
 30
0.0
 11
1.774681756475358
 21
5.198664540278923
 31
0.0
  0
LINE
  5
42C
330
18
100
AcDbEntity
  8
Object
100
AcDbLine
 10
1.774681756475358
 20
5.198664540278923
 30
0.0
 11
1.767681756475358
 21
5.068664540278923
 31
0.0
  0
LINE
  5
42D
330
18
100
AcDbEntity
  8
Object
100
AcDbLine
 10
4.036681756475358
 20
5.068664540278923
 30
0.0
 11
4.003681756475357
 21
5.068664540278923
 31
0.0
  0
LINE
  5
42E
330
18
100
AcDbEntity
  8
Object
100
AcDbLine
 10
3.995681756475358
 20
4.938664540278923
 30
0.0
 11
3.973681756475357
 21
4.810664540278923
 31
0.0
  0
LINE
  5
42F
330
18
100
AcDbEntity
  8
Object
100
AcDbLine
 10
3.973681756475357
 20
4.810664540278923
 30
0.0
 11
3.935681756475357
 21
4.686664540278924
 31
0.0
  0
LINE
  5
430
330
18
100
AcDbEntity
  8
Object
100
AcDbLine
 10
3.935681756475357
 20
4.686664540278924
 30
0.0
 11
3.884681756475357
 21
4.566664540278924
 31
0.0
  0
LINE
  5
431
330
18
100
AcDbEntity
  8
Object
100
AcDbLine
 10
3.884681756475357
 20
4.566664540278924
 30
0.0
 11
3.819681756475358
 21
4.454664540278924
 31
0.0
  0
LINE
  5
432
330
18
100
AcDbEntity
  8
Object
100
AcDbLine
 10
3.819681756475358
 20
4.454664540278924
 30
0.0
 11
3.741681756475358
 21
4.349664540278923
 31
0.0
  0
LINE
  5
433
330
18
100
AcDbEntity
  8
Object
100
AcDbLine
 10
3.741681756475358
 20
4.349664540278923
 30
0.0
 11
3.652681756475358
 21
4.255664540278924
 31
0.0
  0
LINE
  5
434
330
18
100
AcDbEntity
  8
Object
100
AcDbLine
 10
3.652681756475358
 20
4.255664540278924
 30
0.0
 11
3.552681756475358
 21
4.171664540278924
 31
0.0
  0
LINE
  5
435
330
18
100
AcDbEntity
  8
Object
100
AcDbLine
 10
3.552681756475358
 20
4.171664540278924
 30
0.0
 11
3.444681756475358
 21
4.100664540278923
 31
0.0
  0
LINE
  5
436
330
18
100
AcDbEntity
  8
Object
100
AcDbLine
 10
3.444681756475358
 20
4.100664540278923
 30
0.0
 11
3.328681756475358
 21
4.042664540278924
 31
0.0
  0
LINE
  5
437
330
18
100
AcDbEntity
  8
Object
100
AcDbLine
 10
3.328681756475358
 20
4.042664540278924
 30
0.0
 11
3.205681756475358
 21
3.997664540278924
 31
0.0
  0
LINE
  5
438
330
18
100
AcDbEntity
  8
Object
100
AcDbLine
 10
3.205681756475358
 20
3.997664540278924
 30
0.0
 11
3.079681756475357
 21
3.967664540278923
 31
0.0
  0
LINE
  5
439
330
18
100
AcDbEntity
  8
Object
100
AcDbLine
 10
3.079681756475357
 20
3.967664540278923
 30
0.0
 11
2.950681756475358
 21
3.952664540278924
 31
0.0
  0
LINE
  5
43A
330
18
100
AcDbEntity
  8
Object
100
AcDbLine
 10
2.950681756475358
 20
3.952664540278924
 30
0.0
 11
2.820681756475358
 21
3.952664540278924
 31
0.0
  0
LINE
  5
43B
330
18
100
AcDbEntity
  8
Object
100
AcDbLine
 10
2.820681756475358
 20
3.952664540278924
 30
0.0
 11
2.691681756475357
 21
3.967664540278923
 31
0.0
  0
LINE
  5
43C
330
18
100
AcDbEntity
  8
Object
100
AcDbLine
 10
2.691681756475357
 20
3.967664540278923
 30
0.0
 11
2.564681756475358
 21
3.997664540278924
 31
0.0
  0
LINE
  5
43D
330
18
100
AcDbEntity
  8
Object
100
AcDbLine
 10
2.564681756475358
 20
3.997664540278924
 30
0.0
 11
2.442681756475358
 21
4.042664540278924
 31
0.0
  0
LINE
  5
43E
330
18
100
AcDbEntity
  8
Object
100
AcDbLine
 10
2.442681756475358
 20
4.042664540278924
 30
0.0
 11
2.326681756475357
 21
4.100664540278923
 31
0.0
  0
LINE
  5
43F
330
18
100
AcDbEntity
  8
Object
100
AcDbLine
 10
2.326681756475357
 20
4.100664540278923
 30
0.0
 11
2.217681756475357
 21
4.171664540278924
 31
0.0
  0
LINE
  5
440
330
18
100
AcDbEntity
  8
Object
100
AcDbLine
 10
2.217681756475357
 20
4.171664540278924
 30
0.0
 11
2.117681756475358
 21
4.255664540278924
 31
0.0
  0
LINE
  5
441
330
18
100
AcDbEntity
  8
Object
100
AcDbLine
 10
2.117681756475358
 20
4.255664540278924
 30
0.0
 11
2.028681756475357
 21
4.349664540278923
 31
0.0
  0
LINE
  5
442
330
18
100
AcDbEntity
  8
Object
100
AcDbLine
 10
2.028681756475357
 20
4.349664540278923
 30
0.0
 11
1.951681756475357
 21
4.454664540278924
 31
0.0
  0
LINE
  5
443
330
18
100
AcDbEntity
  8
Object
100
AcDbLine
 10
1.951681756475357
 20
4.454664540278924
 30
0.0
 11
1.886681756475358
 21
4.566664540278924
 31
0.0
  0
LINE
  5
444
330
18
100
AcDbEntity
  8
Object
100
AcDbLine
 10
1.886681756475358
 20
4.566664540278924
 30
0.0
 11
1.834681756475357
 21
4.686664540278924
 31
0.0
  0
LINE
  5
445
330
18
100
AcDbEntity
  8
Object
100
AcDbLine
 10
1.834681756475357
 20
4.686664540278924
 30
0.0
 11
1.797681756475357
 21
4.810664540278923
 31
0.0
  0
LINE
  5
446
330
18
100
AcDbEntity
  8
Object
100
AcDbLine
 10
1.767681756475358
 20
5.068664540278923
 30
0.0
 11
1.774681756475358
 21
4.938664540278923
 31
0.0
  0
LINE
  5
447
330
18
100
AcDbEntity
  8
Object
100
AcDbLine
 10
1.774681756475358
 20
4.938664540278923
 30
0.0
 11
1.797681756475357
 21
4.810664540278923
 31
0.0
  0
LINE
  5
448
330
18
100
AcDbEntity
  8
Object
100
AcDbLine
 10
1.767681756475358
 20
5.068664540278923
 30
0.0
 11
1.733681756475357
 21
5.068664540278923
 31
0.0
  0
LINE
  5
449
330
18
100
AcDbEntity
  8
Object
100
AcDbLine
 10
4.003681756475357
 20
5.068664540278923
 30
0.0
 11
3.995681756475358
 21
5.198664540278923
 31
0.0
  0
LINE
  5
44A
330
18
100
AcDbEntity
  8
Object
100
AcDbLine
 10
1.829681756475357
 20
5.328664540278923
 30
0.0
 11
1.806681756475358
 21
5.199664540278924
 31
0.0
  0
LINE
  5
44B
330
18
100
AcDbEntity
  8
Object
100
AcDbLine
 10
1.806681756475358
 20
5.199664540278924
 30
0.0
 11
1.798681756475358
 21
5.068664540278923
 31
0.0
  0
LINE
  5
44C
330
18
100
AcDbEntity
  8
Object
100
AcDbLine
 10
3.998681756475358
 20
5.068664540278923
 30
0.0
 11
4.003681756475357
 21
5.068664540278923
 31
0.0
  0
LINE
  5
44D
330
18
100
AcDbEntity
  8
Object
100
AcDbLine
 10
4.003681756475357
 20
5.068664540278923
 30
0.0
 11
3.995681756475358
 21
4.938664540278923
 31
0.0
  0
LINE
  5
44E
330
18
100
AcDbEntity
  8
Object
100
AcDbLine
 10
3.998681756475358
 20
5.068664540278923
 30
0.0
 11
3.986681756475357
 21
5.068664540278923
 31
0.0
  0
LINE
  5
44F
330
18
100
AcDbEntity
  8
Object
100
AcDbLine
 10
3.986681756475357
 20
5.068664540278923
 30
0.0
 11
3.972681756475358
 21
5.068664540278923
 31
0.0
  0
LINE
  5
450
330
18
100
AcDbEntity
  8
Object
100
AcDbLine
 10
3.016681756475358
 20
3.989664540278924
 30
0.0
 11
2.885681756475357
 21
3.981664540278924
 31
0.0
  0
LINE
  5
451
330
18
100
AcDbEntity
  8
Object
100
AcDbLine
 10
2.885681756475357
 20
3.981664540278924
 30
0.0
 11
2.754681756475358
 21
3.989664540278924
 31
0.0
  0
LINE
  5
452
330
18
100
AcDbEntity
  8
Object
100
AcDbLine
 10
2.754681756475358
 20
3.989664540278924
 30
0.0
 11
2.625681756475358
 21
4.013664540278924
 31
0.0
  0
LINE
  5
453
330
18
100
AcDbEntity
  8
Object
100
AcDbLine
 10
2.625681756475358
 20
4.013664540278924
 30
0.0
 11
2.499681756475357
 21
4.052664540278923
 31
0.0
  0
LINE
  5
454
330
18
100
AcDbEntity
  8
Object
100
AcDbLine
 10
2.499681756475357
 20
4.052664540278923
 30
0.0
 11
2.380681756475357
 21
4.106664540278924
 31
0.0
  0
LINE
  5
455
330
18
100
AcDbEntity
  8
Object
100
AcDbLine
 10
2.380681756475357
 20
4.106664540278924
 30
0.0
 11
2.267681756475358
 21
4.174664540278924
 31
0.0
  0
LINE
  5
456
330
18
100
AcDbEntity
  8
Object
100
AcDbLine
 10
2.267681756475358
 20
4.174664540278924
 30
0.0
 11
2.164681756475357
 21
4.255664540278924
 31
0.0
  0
LINE
  5
457
330
18
100
AcDbEntity
  8
Object
100
AcDbLine
 10
2.164681756475357
 20
4.255664540278924
 30
0.0
 11
2.071681756475357
 21
4.347664540278924
 31
0.0
  0
LINE
  5
458
330
18
100
AcDbEntity
  8
Object
100
AcDbLine
 10
2.071681756475357
 20
4.347664540278924
 30
0.0
 11
1.990681756475358
 21
4.451664540278923
 31
0.0
  0
LINE
  5
459
330
18
100
AcDbEntity
  8
Object
100
AcDbLine
 10
1.990681756475358
 20
4.451664540278923
 30
0.0
 11
1.922681756475357
 21
4.563664540278923
 31
0.0
  0
LINE
  5
45A
330
18
100
AcDbEntity
  8
Object
100
AcDbLine
 10
1.922681756475357
 20
4.563664540278923
 30
0.0
 11
1.868681756475358
 21
4.683664540278924
 31
0.0
  0
LINE
  5
45B
330
18
100
AcDbEntity
  8
Object
100
AcDbLine
 10
1.868681756475358
 20
4.683664540278924
 30
0.0
 11
1.829681756475357
 21
4.808664540278924
 31
0.0
  0
LINE
  5
45C
330
18
100
AcDbEntity
  8
Object
100
AcDbLine
 10
1.829681756475357
 20
4.808664540278924
 30
0.0
 11
1.806681756475358
 21
4.937664540278923
 31
0.0
  0
LINE
  5
45D
330
18
100
AcDbEntity
  8
Object
100
AcDbLine
 10
1.806681756475358
 20
4.937664540278923
 30
0.0
 11
1.798681756475358
 21
5.068664540278923
 31
0.0
  0
LINE
  5
45E
330
18
100
AcDbEntity
  8
Object
100
AcDbLine
 10
1.798681756475358
 20
5.068664540278923
 30
0.0
 11
1.783681756475358
 21
5.068664540278923
 31
0.0
  0
LINE
  5
45F
330
18
100
AcDbEntity
  8
Object
100
AcDbLine
 10
1.783681756475358
 20
5.068664540278923
 30
0.0
 11
1.772681756475358
 21
5.068664540278923
 31
0.0
  0
LINE
  5
460
330
18
100
AcDbEntity
  8
Object
100
AcDbLine
 10
1.772681756475358
 20
5.068664540278923
 30
0.0
 11
1.767681756475358
 21
5.068664540278923
 31
0.0
  0
LINE
  5
461
330
18
100
AcDbEntity
  8
Object
100
AcDbLine
 10
3.964681756475357
 20
5.199664540278924
 30
0.0
 11
3.972681756475358
 21
5.068664540278923
 31
0.0
  0
LINE
  5
462
330
18
100
AcDbEntity
  8
Object
100
AcDbLine
 10
3.972681756475358
 20
5.068664540278923
 30
0.0
 11
3.964681756475357
 21
4.937664540278923
 31
0.0
  0
LINE
  5
463
330
18
100
AcDbEntity
  8
Object
100
AcDbLine
 10
3.847681756475358
 20
5.573664540278923
 30
0.0
 11
3.901681756475358
 21
5.453664540278923
 31
0.0
  0
LINE
  5
464
330
18
100
AcDbEntity
  8
Object
100
AcDbLine
 10
3.901681756475358
 20
5.453664540278923
 30
0.0
 11
3.940681756475358
 21
5.328664540278923
 31
0.0
  0
LINE
  5
465
330
18
100
AcDbEntity
  8
Object
100
AcDbLine
 10
3.940681756475358
 20
5.328664540278923
 30
0.0
 11
3.964681756475357
 21
5.199664540278924
 31
0.0
  0
LINE
  5
466
330
18
100
AcDbEntity
  8
Object
100
AcDbLine
 10
2.983681756475357
 20
5.104664540278924
 30
0.0
 11
2.990681756475358
 21
5.068664540278923
 31
0.0
  0
LINE
  5
467
330
18
100
AcDbEntity
  8
Object
100
AcDbLine
 10
2.990681756475358
 20
5.068664540278923
 30
0.0
 11
2.983681756475357
 21
5.032664540278924
 31
0.0
  0
LINE
  5
468
330
18
100
AcDbEntity
  8
Object
100
AcDbLine
 10
3.964681756475357
 20
4.937664540278923
 30
0.0
 11
3.940681756475358
 21
4.808664540278924
 31
0.0
  0
LINE
  5
469
330
18
100
AcDbEntity
  8
Object
100
AcDbLine
 10
3.940681756475358
 20
4.808664540278924
 30
0.0
 11
3.901681756475358
 21
4.683664540278924
 31
0.0
  0
LINE
  5
46A
330
18
100
AcDbEntity
  8
Object
100
AcDbLine
 10
3.901681756475358
 20
4.683664540278924
 30
0.0
 11
3.847681756475358
 21
4.563664540278923
 31
0.0
  0
LINE
  5
46B
330
18
100
AcDbEntity
  8
Object
100
AcDbLine
 10
3.605681756475357
 20
5.881664540278924
 30
0.0
 11
3.698681756475357
 21
5.789664540278923
 31
0.0
  0
LINE
  5
46C
330
18
100
AcDbEntity
  8
Object
100
AcDbLine
 10
3.698681756475357
 20
5.789664540278923
 30
0.0
 11
3.779681756475358
 21
5.685664540278923
 31
0.0
  0
LINE
  5
46D
330
18
100
AcDbEntity
  8
Object
100
AcDbLine
 10
3.779681756475358
 20
5.685664540278923
 30
0.0
 11
3.847681756475358
 21
5.573664540278923
 31
0.0
  0
LINE
  5
46E
330
18
100
AcDbEntity
  8
Object
100
AcDbLine
 10
2.965681756475357
 20
5.136664540278924
 30
0.0
 11
2.983681756475357
 21
5.104664540278924
 31
0.0
  0
LINE
  5
46F
330
18
100
AcDbEntity
  8
Object
100
AcDbLine
 10
2.983681756475357
 20
5.032664540278924
 30
0.0
 11
2.965681756475357
 21
5.001664540278923
 31
0.0
  0
LINE
  5
470
330
18
100
AcDbEntity
  8
Object
100
AcDbLine
 10
3.847681756475358
 20
4.563664540278923
 30
0.0
 11
3.779681756475358
 21
4.451664540278923
 31
0.0
  0
LINE
  5
471
330
18
100
AcDbEntity
  8
Object
100
AcDbLine
 10
3.779681756475358
 20
4.451664540278923
 30
0.0
 11
3.698681756475357
 21
4.347664540278924
 31
0.0
  0
LINE
  5
472
330
18
100
AcDbEntity
  8
Object
100
AcDbLine
 10
3.698681756475357
 20
4.347664540278924
 30
0.0
 11
3.605681756475357
 21
4.255664540278924
 31
0.0
  0
LINE
  5
473
330
18
100
AcDbEntity
  8
Object
100
AcDbLine
 10
3.270681756475358
 20
6.084664540278923
 30
0.0
 11
3.390681756475357
 21
6.030664540278924
 31
0.0
  0
LINE
  5
474
330
18
100
AcDbEntity
  8
Object
100
AcDbLine
 10
3.390681756475357
 20
6.030664540278924
 30
0.0
 11
3.502681756475357
 21
5.962664540278924
 31
0.0
  0
LINE
  5
475
330
18
100
AcDbEntity
  8
Object
100
AcDbLine
 10
3.502681756475357
 20
5.962664540278924
 30
0.0
 11
3.605681756475357
 21
5.881664540278924
 31
0.0
  0
LINE
  5
476
330
18
100
AcDbEntity
  8
Object
100
AcDbLine
 10
2.937681756475358
 20
5.159664540278924
 30
0.0
 11
2.965681756475357
 21
5.136664540278924
 31
0.0
  0
LINE
  5
477
330
18
100
AcDbEntity
  8
Object
100
AcDbLine
 10
3.502681756475357
 20
4.174664540278924
 30
0.0
 11
3.605681756475357
 21
4.255664540278924
 31
0.0
  0
LINE
  5
478
330
18
100
AcDbEntity
  8
Object
100
AcDbLine
 10
2.965681756475357
 20
5.001664540278923
 30
0.0
 11
2.937681756475358
 21
4.977664540278923
 31
0.0
  0
LINE
  5
479
330
18
100
AcDbEntity
  8
Object
100
AcDbLine
 10
3.502681756475357
 20
4.174664540278924
 30
0.0
 11
3.390681756475357
 21
4.106664540278924
 31
0.0
  0
LINE
  5
47A
330
18
100
AcDbEntity
  8
Object
100
AcDbLine
 10
3.390681756475357
 20
4.106664540278924
 30
0.0
 11
3.270681756475358
 21
4.052664540278923
 31
0.0
  0
LINE
  5
47B
330
18
100
AcDbEntity
  8
Object
100
AcDbLine
 10
3.016681756475358
 20
6.147664540278924
 30
0.0
 11
3.145681756475358
 21
6.123664540278924
 31
0.0
  0
LINE
  5
47C
330
18
100
AcDbEntity
  8
Object
100
AcDbLine
 10
3.145681756475358
 20
6.123664540278924
 30
0.0
 11
3.270681756475358
 21
6.084664540278923
 31
0.0
  0
LINE
  5
47D
330
18
100
AcDbEntity
  8
Object
100
AcDbLine
 10
2.903681756475357
 20
5.171664540278923
 30
0.0
 11
2.937681756475358
 21
5.159664540278924
 31
0.0
  0
LINE
  5
47E
330
18
100
AcDbEntity
  8
Object
100
AcDbLine
 10
3.270681756475358
 20
4.052664540278923
 30
0.0
 11
3.145681756475358
 21
4.013664540278924
 31
0.0
  0
LINE
  5
47F
330
18
100
AcDbEntity
  8
Object
100
AcDbLine
 10
3.145681756475358
 20
4.013664540278924
 30
0.0
 11
3.016681756475358
 21
3.989664540278924
 31
0.0
  0
LINE
  5
480
330
18
100
AcDbEntity
  8
Object
100
AcDbLine
 10
2.937681756475358
 20
4.977664540278923
 30
0.0
 11
2.903681756475357
 21
4.965664540278924
 31
0.0
  0
LINE
  5
481
330
18
100
AcDbEntity
  8
Object
100
AcDbLine
 10
3.016681756475358
 20
6.147664540278924
 30
0.0
 11
2.885681756475357
 21
6.155664540278924
 31
0.0
  0
LINE
  5
482
330
18
100
AcDbEntity
  8
Object
100
AcDbLine
 10
2.866681756475357
 20
5.171664540278923
 30
0.0
 11
2.903681756475357
 21
5.171664540278923
 31
0.0
  0
LINE
  5
483
330
18
100
AcDbEntity
  8
Object
100
AcDbLine
 10
2.903681756475357
 20
4.965664540278924
 30
0.0
 11
2.866681756475357
 21
4.965664540278924
 31
0.0
  0
LINE
  5
484
330
18
100
AcDbEntity
  8
Object
100
AcDbLine
 10
2.885681756475357
 20
6.155664540278924
 30
0.0
 11
2.754681756475358
 21
6.147664540278924
 31
0.0
  0
LINE
  5
485
330
18
100
AcDbEntity
  8
Object
100
AcDbLine
 10
2.754681756475358
 20
6.147664540278924
 30
0.0
 11
2.625681756475358
 21
6.123664540278924
 31
0.0
  0
LINE
  5
486
330
18
100
AcDbEntity
  8
Object
100
AcDbLine
 10
2.625681756475358
 20
6.123664540278924
 30
0.0
 11
2.499681756475357
 21
6.084664540278923
 31
0.0
  0
LINE
  5
487
330
18
100
AcDbEntity
  8
Object
100
AcDbLine
 10
2.832681756475357
 20
5.159664540278924
 30
0.0
 11
2.866681756475357
 21
5.171664540278923
 31
0.0
  0
LINE
  5
488
330
18
100
AcDbEntity
  8
Object
100
AcDbLine
 10
2.866681756475357
 20
4.965664540278924
 30
0.0
 11
2.832681756475357
 21
4.977664540278923
 31
0.0
  0
LINE
  5
489
330
18
100
AcDbEntity
  8
Object
100
AcDbLine
 10
2.499681756475357
 20
6.084664540278923
 30
0.0
 11
2.380681756475357
 21
6.030664540278924
 31
0.0
  0
LINE
  5
48A
330
18
100
AcDbEntity
  8
Object
100
AcDbLine
 10
2.380681756475357
 20
6.030664540278924
 30
0.0
 11
2.267681756475358
 21
5.962664540278924
 31
0.0
  0
LINE
  5
48B
330
18
100
AcDbEntity
  8
Object
100
AcDbLine
 10
2.267681756475358
 20
5.962664540278924
 30
0.0
 11
2.164681756475357
 21
5.881664540278924
 31
0.0
  0
LINE
  5
48C
330
18
100
AcDbEntity
  8
Object
100
AcDbLine
 10
2.804681756475358
 20
5.136664540278924
 30
0.0
 11
2.832681756475357
 21
5.159664540278924
 31
0.0
  0
LINE
  5
48D
330
18
100
AcDbEntity
  8
Object
100
AcDbLine
 10
2.832681756475357
 20
4.977664540278923
 30
0.0
 11
2.804681756475358
 21
5.001664540278923
 31
0.0
  0
LINE
  5
48E
330
18
100
AcDbEntity
  8
Object
100
AcDbLine
 10
2.164681756475357
 20
5.881664540278924
 30
0.0
 11
2.071681756475357
 21
5.789664540278923
 31
0.0
  0
LINE
  5
48F
330
18
100
AcDbEntity
  8
Object
100
AcDbLine
 10
2.071681756475357
 20
5.789664540278923
 30
0.0
 11
1.990681756475358
 21
5.685664540278923
 31
0.0
  0
LINE
  5
490
330
18
100
AcDbEntity
  8
Object
100
AcDbLine
 10
1.990681756475358
 20
5.685664540278923
 30
0.0
 11
1.922681756475357
 21
5.573664540278923
 31
0.0
  0
LINE
  5
491
330
18
100
AcDbEntity
  8
Object
100
AcDbLine
 10
2.786681756475357
 20
5.104664540278924
 30
0.0
 11
2.804681756475358
 21
5.136664540278924
 31
0.0
  0
LINE
  5
492
330
18
100
AcDbEntity
  8
Object
100
AcDbLine
 10
2.804681756475358
 20
5.001664540278923
 30
0.0
 11
2.786681756475357
 21
5.032664540278924
 31
0.0
  0
LINE
  5
493
330
18
100
AcDbEntity
  8
Object
100
AcDbLine
 10
1.922681756475357
 20
5.573664540278923
 30
0.0
 11
1.868681756475358
 21
5.453664540278923
 31
0.0
  0
LINE
  5
494
330
18
100
AcDbEntity
  8
Object
100
AcDbLine
 10
1.868681756475358
 20
5.453664540278923
 30
0.0
 11
1.829681756475357
 21
5.328664540278923
 31
0.0
  0
LINE
  5
495
330
18
100
AcDbEntity
  8
Object
100
AcDbLine
 10
2.786681756475357
 20
5.104664540278924
 30
0.0
 11
2.780681756475358
 21
5.068664540278923
 31
0.0
  0
LINE
  5
496
330
18
100
AcDbEntity
  8
Object
100
AcDbLine
 10
2.780681756475358
 20
5.068664540278923
 30
0.0
 11
2.786681756475357
 21
5.032664540278924
 31
0.0
  0
LINE
  5
497
330
18
100
AcDbEntity
  8
Object
100
AcDbLine
 10
2.990681756475358
 20
5.068664540278923
 30
0.0
 11
2.983681756475357
 21
5.104664540278924
 31
0.0
  0
LINE
  5
498
330
18
100
AcDbEntity
  8
Object
100
AcDbLine
 10
2.983681756475357
 20
5.104664540278924
 30
0.0
 11
2.965681756475357
 21
5.136664540278924
 31
0.0
  0
LINE
  5
499
330
18
100
AcDbEntity
  8
Object
100
AcDbLine
 10
2.965681756475357
 20
5.136664540278924
 30
0.0
 11
2.937681756475358
 21
5.159664540278924
 31
0.0
  0
LINE
  5
49A
330
18
100
AcDbEntity
  8
Object
100
AcDbLine
 10
2.937681756475358
 20
5.159664540278924
 30
0.0
 11
2.903681756475357
 21
5.171664540278923
 31
0.0
  0
LINE
  5
49B
330
18
100
AcDbEntity
  8
Object
100
AcDbLine
 10
2.903681756475357
 20
5.171664540278923
 30
0.0
 11
2.866681756475357
 21
5.171664540278923
 31
0.0
  0
LINE
  5
49C
330
18
100
AcDbEntity
  8
Object
100
AcDbLine
 10
2.866681756475357
 20
5.171664540278923
 30
0.0
 11
2.832681756475357
 21
5.159664540278924
 31
0.0
  0
LINE
  5
49D
330
18
100
AcDbEntity
  8
Object
100
AcDbLine
 10
2.832681756475357
 20
5.159664540278924
 30
0.0
 11
2.804681756475358
 21
5.136664540278924
 31
0.0
  0
LINE
  5
49E
330
18
100
AcDbEntity
  8
Object
100
AcDbLine
 10
2.804681756475358
 20
5.136664540278924
 30
0.0
 11
2.786681756475357
 21
5.104664540278924
 31
0.0
  0
LINE
  5
49F
330
18
100
AcDbEntity
  8
Object
100
AcDbLine
 10
2.786681756475357
 20
5.104664540278924
 30
0.0
 11
2.780681756475358
 21
5.068664540278923
 31
0.0
  0
LINE
  5
4A0
330
18
100
AcDbEntity
  8
Object
100
AcDbLine
 10
2.990681756475358
 20
5.068664540278923
 30
0.0
 11
2.983681756475357
 21
5.032664540278924
 31
0.0
  0
LINE
  5
4A1
330
18
100
AcDbEntity
  8
Object
100
AcDbLine
 10
2.983681756475357
 20
5.032664540278924
 30
0.0
 11
2.965681756475357
 21
5.001664540278923
 31
0.0
  0
LINE
  5
4A2
330
18
100
AcDbEntity
  8
Object
100
AcDbLine
 10
2.965681756475357
 20
5.001664540278923
 30
0.0
 11
2.937681756475358
 21
4.977664540278923
 31
0.0
  0
LINE
  5
4A3
330
18
100
AcDbEntity
  8
Object
100
AcDbLine
 10
2.937681756475358
 20
4.977664540278923
 30
0.0
 11
2.903681756475357
 21
4.965664540278924
 31
0.0
  0
LINE
  5
4A4
330
18
100
AcDbEntity
  8
Object
100
AcDbLine
 10
2.903681756475357
 20
4.965664540278924
 30
0.0
 11
2.866681756475357
 21
4.965664540278924
 31
0.0
  0
LINE
  5
4A5
330
18
100
AcDbEntity
  8
Object
100
AcDbLine
 10
2.866681756475357
 20
4.965664540278924
 30
0.0
 11
2.832681756475357
 21
4.977664540278923
 31
0.0
  0
LINE
  5
4A6
330
18
100
AcDbEntity
  8
Object
100
AcDbLine
 10
2.832681756475357
 20
4.977664540278923
 30
0.0
 11
2.804681756475358
 21
5.001664540278923
 31
0.0
  0
LINE
  5
4A7
330
18
100
AcDbEntity
  8
Object
100
AcDbLine
 10
2.804681756475358
 20
5.001664540278923
 30
0.0
 11
2.786681756475357
 21
5.032664540278924
 31
0.0
  0
LINE
  5
4A8
330
18
100
AcDbEntity
  8
Object
100
AcDbLine
 10
2.786681756475357
 20
5.032664540278924
 30
0.0
 11
2.780681756475358
 21
5.068664540278923
 31
0.0
  0
LINE
  5
4A9
330
18
100
AcDbEntity
  8
Object
100
AcDbLine
 10
6.16985208852384
 20
4.909664540278924
 30
0.0
 11
6.16985208852384
 21
5.068664540278923
 31
0.0
  0
LINE
  5
4AA
330
18
100
AcDbEntity
  8
Object
100
AcDbLine
 10
6.16985208852384
 20
5.385664540278924
 30
0.0
 11
6.16985208852384
 21
5.540664540278924
 31
0.0
  0
LINE
  5
4AB
330
18
100
AcDbEntity
  8
Object
100
AcDbLine
 10
6.16985208852384
 20
5.690664540278923
 30
0.0
 11
6.16985208852384
 21
5.834664540278923
 31
0.0
  0
LINE
  5
4AC
330
18
100
AcDbEntity
  8
Object
100
AcDbLine
 10
6.16985208852384
 20
5.971664540278924
 30
0.0
 11
6.16985208852384
 21
6.099664540278924
 31
0.0
  0
LINE
  5
4AD
330
18
100
AcDbEntity
  8
Object
100
AcDbLine
 10
6.16985208852384
 20
6.217664540278923
 30
0.0
 11
6.16985208852384
 21
6.324664540278924
 31
0.0
  0
LINE
  5
4AE
330
18
100
AcDbEntity
  8
Object
100
AcDbLine
 10
6.16985208852384
 20
6.419664540278923
 30
0.0
 11
6.16985208852384
 21
6.501664540278923
 31
0.0
  0
LINE
  5
4AF
330
18
100
AcDbEntity
  8
Object
100
AcDbLine
 10
6.16985208852384
 20
6.501664540278923
 30
0.0
 11
6.16985208852384
 21
6.569664540278924
 31
0.0
  0
LINE
  5
4B0
330
18
100
AcDbEntity
  8
Object
100
AcDbLine
 10
6.16985208852384
 20
6.623664540278924
 30
0.0
 11
6.16985208852384
 21
6.662664540278924
 31
0.0
  0
LINE
  5
4B1
330
18
100
AcDbEntity
  8
Object
100
AcDbLine
 10
6.16985208852384
 20
6.685664540278923
 30
0.0
 11
6.16985208852384
 21
6.693664540278923
 31
0.0
  0
LINE
  5
4B2
330
18
100
AcDbEntity
  8
Object
100
AcDbLine
 10
6.16985208852384
 20
3.451664540278923
 30
0.0
 11
6.16985208852384
 21
3.474664540278924
 31
0.0
  0
LINE
  5
4B3
330
18
100
AcDbEntity
  8
Object
100
AcDbLine
 10
6.16985208852384
 20
3.513664540278924
 30
0.0
 11
6.16985208852384
 21
3.567664540278924
 31
0.0
  0
LINE
  5
4B4
330
18
100
AcDbEntity
  8
Object
100
AcDbLine
 10
6.16985208852384
 20
3.567664540278924
 30
0.0
 11
6.16985208852384
 21
3.635664540278924
 31
0.0
  0
LINE
  5
4B5
330
18
100
AcDbEntity
  8
Object
100
AcDbLine
 10
6.16985208852384
 20
3.635664540278924
 30
0.0
 11
6.16985208852384
 21
3.717664540278923
 31
0.0
  0
LINE
  5
4B6
330
18
100
AcDbEntity
  8
Object
100
AcDbLine
 10
6.16985208852384
 20
3.812664540278924
 30
0.0
 11
6.16985208852384
 21
3.919664540278923
 31
0.0
  0
LINE
  5
4B7
330
18
100
AcDbEntity
  8
Object
100
AcDbLine
 10
6.16985208852384
 20
4.037664540278924
 30
0.0
 11
6.16985208852384
 21
4.165664540278924
 31
0.0
  0
LINE
  5
4B8
330
18
100
AcDbEntity
  8
Object
100
AcDbLine
 10
6.16985208852384
 20
4.302664540278923
 30
0.0
 11
6.16985208852384
 21
4.446664540278923
 31
0.0
  0
LINE
  5
4B9
330
18
100
AcDbEntity
  8
Object
100
AcDbLine
 10
6.16985208852384
 20
4.596664540278923
 30
0.0
 11
6.16985208852384
 21
4.751664540278924
 31
0.0
  0
LINE
  5
4BA
330
18
100
AcDbEntity
  8
Object
100
AcDbLine
 10
6.16985208852384
 20
5.068664540278923
 30
0.0
 11
6.16985208852384
 21
5.227664540278923
 31
0.0
  0
LINE
  5
4BB
330
18
100
AcDbEntity
  8
Object
100
AcDbLine
 10
6.16985208852384
 20
6.662664540278924
 30
0.0
 11
6.16985208852384
 21
6.685664540278923
 31
0.0
  0
LINE
  5
4BC
330
18
100
AcDbEntity
  8
Object
100
AcDbLine
 10
6.16985208852384
 20
6.569664540278924
 30
0.0
 11
6.16985208852384
 21
6.623664540278924
 31
0.0
  0
LINE
  5
4BD
330
18
100
AcDbEntity
  8
Object
100
AcDbLine
 10
6.16985208852384
 20
6.324664540278924
 30
0.0
 11
6.16985208852384
 21
6.419664540278923
 31
0.0
  0
LINE
  5
4BE
330
18
100
AcDbEntity
  8
Object
100
AcDbLine
 10
6.16985208852384
 20
6.099664540278924
 30
0.0
 11
6.16985208852384
 21
6.217664540278923
 31
0.0
  0
LINE
  5
4BF
330
18
100
AcDbEntity
  8
Object
100
AcDbLine
 10
6.16985208852384
 20
5.834664540278923
 30
0.0
 11
6.16985208852384
 21
5.971664540278924
 31
0.0
  0
LINE
  5
4C0
330
18
100
AcDbEntity
  8
Object
100
AcDbLine
 10
6.16985208852384
 20
5.540664540278924
 30
0.0
 11
6.16985208852384
 21
5.690664540278923
 31
0.0
  0
LINE
  5
4C1
330
18
100
AcDbEntity
  8
Object
100
AcDbLine
 10
6.16985208852384
 20
5.227664540278923
 30
0.0
 11
6.16985208852384
 21
5.385664540278924
 31
0.0
  0
LINE
  5
4C2
330
18
100
AcDbEntity
  8
Object
100
AcDbLine
 10
6.16985208852384
 20
4.751664540278924
 30
0.0
 11
6.16985208852384
 21
4.909664540278924
 31
0.0
  0
LINE
  5
4C3
330
18
100
AcDbEntity
  8
Object
100
AcDbLine
 10
6.16985208852384
 20
4.446664540278923
 30
0.0
 11
6.16985208852384
 21
4.596664540278923
 31
0.0
  0
LINE
  5
4C4
330
18
100
AcDbEntity
  8
Object
100
AcDbLine
 10
6.16985208852384
 20
4.165664540278924
 30
0.0
 11
6.16985208852384
 21
4.302664540278923
 31
0.0
  0
LINE
  5
4C5
330
18
100
AcDbEntity
  8
Object
100
AcDbLine
 10
6.16985208852384
 20
3.919664540278923
 30
0.0
 11
6.16985208852384
 21
4.037664540278924
 31
0.0
  0
LINE
  5
4C6
330
18
100
AcDbEntity
  8
Object
100
AcDbLine
 10
6.16985208852384
 20
3.717664540278923
 30
0.0
 11
6.16985208852384
 21
3.812664540278924
 31
0.0
  0
LINE
  5
4C7
330
18
100
AcDbEntity
  8
Object
100
AcDbLine
 10
6.16985208852384
 20
3.474664540278924
 30
0.0
 11
6.16985208852384
 21
3.513664540278924
 31
0.0
  0
LINE
  5
4C8
330
18
100
AcDbEntity
  8
Object
100
AcDbLine
 10
6.16985208852384
 20
3.443664540278923
 30
0.0
 11
6.16985208852384
 21
3.451664540278923
 31
0.0
  0
LINE
  5
4C9
330
18
100
AcDbEntity
  8
Object
100
AcDbLine
 10
6.220852088523839
 20
6.688664540278923
 30
0.0
 11
6.16985208852384
 21
6.693664540278923
 31
0.0
  0
LINE
  5
4CA
330
18
100
AcDbEntity
  8
Object
100
AcDbLine
 10
6.16985208852384
 20
6.693664540278923
 30
0.0
 11
6.16985208852384
 21
6.685664540278923
 31
0.0
  0
LINE
  5
4CB
330
18
100
AcDbEntity
  8
Object
100
AcDbLine
 10
6.16985208852384
 20
6.662664540278924
 30
0.0
 11
6.16985208852384
 21
6.623664540278924
 31
0.0
  0
LINE
  5
4CC
330
18
100
AcDbEntity
  8
Object
100
AcDbLine
 10
6.16985208852384
 20
6.623664540278924
 30
0.0
 11
6.16985208852384
 21
6.569664540278924
 31
0.0
  0
LINE
  5
4CD
330
18
100
AcDbEntity
  8
Object
100
AcDbLine
 10
6.16985208852384
 20
6.662664540278924
 30
0.0
 11
6.16985208852384
 21
6.685664540278923
 31
0.0
  0
LINE
  5
4CE
330
18
100
AcDbEntity
  8
Object
100
AcDbLine
 10
6.16985208852384
 20
6.569664540278924
 30
0.0
 11
6.16985208852384
 21
6.501664540278923
 31
0.0
  0
LINE
  5
4CF
330
18
100
AcDbEntity
  8
Object
100
AcDbLine
 10
6.16985208852384
 20
6.501664540278923
 30
0.0
 11
6.16985208852384
 21
6.419664540278923
 31
0.0
  0
LINE
  5
4D0
330
18
100
AcDbEntity
  8
Object
100
AcDbLine
 10
6.16985208852384
 20
6.419664540278923
 30
0.0
 11
6.16985208852384
 21
6.324664540278924
 31
0.0
  0
LINE
  5
4D1
330
18
100
AcDbEntity
  8
Object
100
AcDbLine
 10
6.16985208852384
 20
6.324664540278924
 30
0.0
 11
6.16985208852384
 21
6.217664540278923
 31
0.0
  0
LINE
  5
4D2
330
18
100
AcDbEntity
  8
Object
100
AcDbLine
 10
6.16985208852384
 20
6.217664540278923
 30
0.0
 11
6.16985208852384
 21
6.099664540278924
 31
0.0
  0
LINE
  5
4D3
330
18
100
AcDbEntity
  8
Object
100
AcDbLine
 10
6.16985208852384
 20
6.099664540278924
 30
0.0
 11
6.16985208852384
 21
5.971664540278924
 31
0.0
  0
LINE
  5
4D4
330
18
100
AcDbEntity
  8
Object
100
AcDbLine
 10
6.16985208852384
 20
5.971664540278924
 30
0.0
 11
6.16985208852384
 21
5.834664540278923
 31
0.0
  0
LINE
  5
4D5
330
18
100
AcDbEntity
  8
Object
100
AcDbLine
 10
6.16985208852384
 20
5.834664540278923
 30
0.0
 11
6.16985208852384
 21
5.690664540278923
 31
0.0
  0
LINE
  5
4D6
330
18
100
AcDbEntity
  8
Object
100
AcDbLine
 10
6.16985208852384
 20
5.690664540278923
 30
0.0
 11
6.16985208852384
 21
5.540664540278924
 31
0.0
  0
LINE
  5
4D7
330
18
100
AcDbEntity
  8
Object
100
AcDbLine
 10
6.16985208852384
 20
5.540664540278924
 30
0.0
 11
6.16985208852384
 21
5.385664540278924
 31
0.0
  0
LINE
  5
4D8
330
18
100
AcDbEntity
  8
Object
100
AcDbLine
 10
6.16985208852384
 20
5.385664540278924
 30
0.0
 11
6.16985208852384
 21
5.227664540278923
 31
0.0
  0
LINE
  5
4D9
330
18
100
AcDbEntity
  8
Object
100
AcDbLine
 10
6.16985208852384
 20
5.227664540278923
 30
0.0
 11
6.16985208852384
 21
5.068664540278923
 31
0.0
  0
LINE
  5
4DA
330
18
100
AcDbEntity
  8
Object
100
AcDbLine
 10
6.16985208852384
 20
5.068664540278923
 30
0.0
 11
6.220852088523839
 21
5.068664540278923
 31
0.0
  0
LINE
  5
4DB
330
18
100
AcDbEntity
  8
Object
100
AcDbLine
 10
6.16985208852384
 20
5.068664540278923
 30
0.0
 11
6.16985208852384
 21
4.909664540278924
 31
0.0
  0
LINE
  5
4DC
330
18
100
AcDbEntity
  8
Object
100
AcDbLine
 10
6.16985208852384
 20
4.909664540278924
 30
0.0
 11
6.16985208852384
 21
4.751664540278924
 31
0.0
  0
LINE
  5
4DD
330
18
100
AcDbEntity
  8
Object
100
AcDbLine
 10
6.16985208852384
 20
4.751664540278924
 30
0.0
 11
6.16985208852384
 21
4.596664540278923
 31
0.0
  0
LINE
  5
4DE
330
18
100
AcDbEntity
  8
Object
100
AcDbLine
 10
6.16985208852384
 20
4.596664540278923
 30
0.0
 11
6.16985208852384
 21
4.446664540278923
 31
0.0
  0
LINE
  5
4DF
330
18
100
AcDbEntity
  8
Object
100
AcDbLine
 10
6.16985208852384
 20
4.446664540278923
 30
0.0
 11
6.16985208852384
 21
4.302664540278923
 31
0.0
  0
LINE
  5
4E0
330
18
100
AcDbEntity
  8
Object
100
AcDbLine
 10
6.16985208852384
 20
4.302664540278923
 30
0.0
 11
6.16985208852384
 21
4.165664540278924
 31
0.0
  0
LINE
  5
4E1
330
18
100
AcDbEntity
  8
Object
100
AcDbLine
 10
6.16985208852384
 20
4.165664540278924
 30
0.0
 11
6.16985208852384
 21
4.037664540278924
 31
0.0
  0
LINE
  5
4E2
330
18
100
AcDbEntity
  8
Object
100
AcDbLine
 10
6.16985208852384
 20
4.037664540278924
 30
0.0
 11
6.16985208852384
 21
3.919664540278923
 31
0.0
  0
LINE
  5
4E3
330
18
100
AcDbEntity
  8
Object
100
AcDbLine
 10
6.16985208852384
 20
3.812664540278924
 30
0.0
 11
6.16985208852384
 21
3.717664540278923
 31
0.0
  0
LINE
  5
4E4
330
18
100
AcDbEntity
  8
Object
100
AcDbLine
 10
6.16985208852384
 20
3.717664540278923
 30
0.0
 11
6.16985208852384
 21
3.635664540278924
 31
0.0
  0
LINE
  5
4E5
330
18
100
AcDbEntity
  8
Object
100
AcDbLine
 10
6.16985208852384
 20
3.812664540278924
 30
0.0
 11
6.16985208852384
 21
3.919664540278923
 31
0.0
  0
LINE
  5
4E6
330
18
100
AcDbEntity
  8
Object
100
AcDbLine
 10
6.16985208852384
 20
3.567664540278924
 30
0.0
 11
6.16985208852384
 21
3.635664540278924
 31
0.0
  0
LINE
  5
4E7
330
18
100
AcDbEntity
  8
Object
100
AcDbLine
 10
6.16985208852384
 20
3.474664540278924
 30
0.0
 11
6.16985208852384
 21
3.513664540278924
 31
0.0
  0
LINE
  5
4E8
330
18
100
AcDbEntity
  8
Object
100
AcDbLine
 10
6.16985208852384
 20
3.451664540278923
 30
0.0
 11
6.16985208852384
 21
3.443664540278923
 31
0.0
  0
LINE
  5
4E9
330
18
100
AcDbEntity
  8
Object
100
AcDbLine
 10
6.16985208852384
 20
3.443664540278923
 30
0.0
 11
6.220852088523839
 21
3.448664540278924
 31
0.0
  0
LINE
  5
4EA
330
18
100
AcDbEntity
  8
Object
100
AcDbLine
 10
6.16985208852384
 20
3.451664540278923
 30
0.0
 11
6.16985208852384
 21
3.474664540278924
 31
0.0
  0
LINE
  5
4EB
330
18
100
AcDbEntity
  8
Object
100
AcDbLine
 10
6.16985208852384
 20
3.513664540278924
 30
0.0
 11
6.16985208852384
 21
3.567664540278924
 31
0.0
  0
LINE
  5
4EC
330
18
100
AcDbEntity
  8
Object
100
AcDbLine
 10
6.23385208852384
 20
6.684664540278924
 30
0.0
 11
6.220852088523839
 21
6.688664540278923
 31
0.0
  0
LINE
  5
4ED
330
18
100
AcDbEntity
  8
Object
100
AcDbLine
 10
6.220852088523839
 20
6.688664540278923
 30
0.0
 11
6.220852088523839
 21
6.681664540278924
 31
0.0
  0
LINE
  5
4EE
330
18
100
AcDbEntity
  8
Object
100
AcDbLine
 10
6.220852088523839
 20
6.681664540278924
 30
0.0
 11
6.220852088523839
 21
6.657664540278924
 31
0.0
  0
LINE
  5
4EF
330
18
100
AcDbEntity
  8
Object
100
AcDbLine
 10
6.220852088523839
 20
6.657664540278924
 30
0.0
 11
6.220852088523839
 21
6.619664540278924
 31
0.0
  0
LINE
  5
4F0
330
18
100
AcDbEntity
  8
Object
100
AcDbLine
 10
6.220852088523839
 20
6.619664540278924
 30
0.0
 11
6.220852088523839
 21
6.565664540278923
 31
0.0
  0
LINE
  5
4F1
330
18
100
AcDbEntity
  8
Object
100
AcDbLine
 10
6.220852088523839
 20
6.565664540278923
 30
0.0
 11
6.220852088523839
 21
6.497664540278924
 31
0.0
  0
LINE
  5
4F2
330
18
100
AcDbEntity
  8
Object
100
AcDbLine
 10
6.220852088523839
 20
6.497664540278924
 30
0.0
 11
6.220852088523839
 21
6.415664540278924
 31
0.0
  0
LINE
  5
4F3
330
18
100
AcDbEntity
  8
Object
100
AcDbLine
 10
6.220852088523839
 20
6.415664540278924
 30
0.0
 11
6.220852088523839
 21
6.321664540278923
 31
0.0
  0
LINE
  5
4F4
330
18
100
AcDbEntity
  8
Object
100
AcDbLine
 10
6.220852088523839
 20
6.321664540278923
 30
0.0
 11
6.220852088523839
 21
6.214664540278923
 31
0.0
  0
LINE
  5
4F5
330
18
100
AcDbEntity
  8
Object
100
AcDbLine
 10
6.220852088523839
 20
6.214664540278923
 30
0.0
 11
6.220852088523839
 21
6.096664540278924
 31
0.0
  0
LINE
  5
4F6
330
18
100
AcDbEntity
  8
Object
100
AcDbLine
 10
6.220852088523839
 20
6.096664540278924
 30
0.0
 11
6.220852088523839
 21
5.968664540278924
 31
0.0
  0
LINE
  5
4F7
330
18
100
AcDbEntity
  8
Object
100
AcDbLine
 10
6.220852088523839
 20
5.968664540278924
 30
0.0
 11
6.220852088523839
 21
5.832664540278924
 31
0.0
  0
LINE
  5
4F8
330
18
100
AcDbEntity
  8
Object
100
AcDbLine
 10
6.220852088523839
 20
5.832664540278924
 30
0.0
 11
6.220852088523839
 21
5.688664540278923
 31
0.0
  0
LINE
  5
4F9
330
18
100
AcDbEntity
  8
Object
100
AcDbLine
 10
6.220852088523839
 20
5.384664540278923
 30
0.0
 11
6.220852088523839
 21
5.538664540278924
 31
0.0
  0
LINE
  5
4FA
330
18
100
AcDbEntity
  8
Object
100
AcDbLine
 10
6.220852088523839
 20
5.538664540278924
 30
0.0
 11
6.220852088523839
 21
5.688664540278923
 31
0.0
  0
LINE
  5
4FB
330
18
100
AcDbEntity
  8
Object
100
AcDbLine
 10
6.220852088523839
 20
5.384664540278923
 30
0.0
 11
6.220852088523839
 21
5.227664540278923
 31
0.0
  0
LINE
  5
4FC
330
18
100
AcDbEntity
  8
Object
100
AcDbLine
 10
6.220852088523839
 20
5.227664540278923
 30
0.0
 11
6.220852088523839
 21
5.068664540278923
 31
0.0
  0
LINE
  5
4FD
330
18
100
AcDbEntity
  8
Object
100
AcDbLine
 10
6.23385208852384
 20
6.684664540278924
 30
0.0
 11
6.24485208852384
 21
6.673664540278924
 31
0.0
  0
LINE
  5
4FE
330
18
100
AcDbEntity
  8
Object
100
AcDbLine
 10
6.24985208852384
 20
6.589664540278923
 30
0.0
 11
6.24985208852384
 21
6.627664540278924
 31
0.0
  0
LINE
  5
4FF
330
18
100
AcDbEntity
  8
Object
100
AcDbLine
 10
6.24985208852384
 20
6.627664540278924
 30
0.0
 11
6.24985208852384
 21
6.650664540278923
 31
0.0
  0
LINE
  5
500
330
18
100
AcDbEntity
  8
Object
100
AcDbLine
 10
6.24485208852384
 20
6.673664540278924
 30
0.0
 11
6.24985208852384
 21
6.657664540278924
 31
0.0
  0
LINE
  5
501
330
18
100
AcDbEntity
  8
Object
100
AcDbLine
 10
6.24985208852384
 20
6.657664540278924
 30
0.0
 11
6.24985208852384
 21
6.650664540278923
 31
0.0
  0
LINE
  5
502
330
18
100
AcDbEntity
  8
Object
100
AcDbLine
 10
6.24985208852384
 20
6.536664540278923
 30
0.0
 11
6.24985208852384
 21
6.470664540278924
 31
0.0
  0
LINE
  5
503
330
18
100
AcDbEntity
  8
Object
100
AcDbLine
 10
6.24985208852384
 20
6.470664540278924
 30
0.0
 11
6.24985208852384
 21
6.389664540278924
 31
0.0
  0
LINE
  5
504
330
18
100
AcDbEntity
  8
Object
100
AcDbLine
 10
6.24985208852384
 20
6.589664540278923
 30
0.0
 11
6.24985208852384
 21
6.536664540278923
 31
0.0
  0
LINE
  5
505
330
18
100
AcDbEntity
  8
Object
100
AcDbLine
 10
6.24985208852384
 20
6.192664540278924
 30
0.0
 11
6.24985208852384
 21
6.297664540278923
 31
0.0
  0
LINE
  5
506
330
18
100
AcDbEntity
  8
Object
100
AcDbLine
 10
6.24985208852384
 20
6.297664540278923
 30
0.0
 11
6.24985208852384
 21
6.389664540278924
 31
0.0
  0
LINE
  5
507
330
18
100
AcDbEntity
  8
Object
100
AcDbLine
 10
6.24985208852384
 20
6.192664540278924
 30
0.0
 11
6.24985208852384
 21
6.076664540278923
 31
0.0
  0
LINE
  5
508
330
18
100
AcDbEntity
  8
Object
100
AcDbLine
 10
6.24985208852384
 20
5.817664540278924
 30
0.0
 11
6.24985208852384
 21
5.951664540278923
 31
0.0
  0
LINE
  5
509
330
18
100
AcDbEntity
  8
Object
100
AcDbLine
 10
6.24985208852384
 20
5.951664540278923
 30
0.0
 11
6.24985208852384
 21
6.076664540278923
 31
0.0
  0
LINE
  5
50A
330
18
100
AcDbEntity
  8
Object
100
AcDbLine
 10
6.24985208852384
 20
5.817664540278924
 30
0.0
 11
6.24985208852384
 21
5.676664540278924
 31
0.0
  0
LINE
  5
50B
330
18
100
AcDbEntity
  8
Object
100
AcDbLine
 10
6.24985208852384
 20
5.676664540278924
 30
0.0
 11
6.24985208852384
 21
5.529664540278924
 31
0.0
  0
LINE
  5
50C
330
18
100
AcDbEntity
  8
Object
100
AcDbLine
 10
6.24985208852384
 20
5.224664540278924
 30
0.0
 11
6.24985208852384
 21
5.378664540278924
 31
0.0
  0
LINE
  5
50D
330
18
100
AcDbEntity
  8
Object
100
AcDbLine
 10
6.24985208852384
 20
5.378664540278924
 30
0.0
 11
6.24985208852384
 21
5.529664540278924
 31
0.0
  0
LINE
  5
50E
330
18
100
AcDbEntity
  8
Object
100
AcDbLine
 10
6.24985208852384
 20
5.224664540278924
 30
0.0
 11
6.24985208852384
 21
5.068664540278923
 31
0.0
  0
LINE
  5
50F
330
18
100
AcDbEntity
  8
Object
100
AcDbLine
 10
6.220852088523839
 20
5.068664540278923
 30
0.0
 11
6.220852088523839
 21
4.909664540278924
 31
0.0
  0
LINE
  5
510
330
18
100
AcDbEntity
  8
Object
100
AcDbLine
 10
6.220852088523839
 20
4.909664540278924
 30
0.0
 11
6.220852088523839
 21
4.752664540278924
 31
0.0
  0
LINE
  5
511
330
18
100
AcDbEntity
  8
Object
100
AcDbLine
 10
6.220852088523839
 20
4.752664540278924
 30
0.0
 11
6.220852088523839
 21
4.598664540278924
 31
0.0
  0
LINE
  5
512
330
18
100
AcDbEntity
  8
Object
100
AcDbLine
 10
6.220852088523839
 20
4.598664540278924
 30
0.0
 11
6.220852088523839
 21
4.448664540278923
 31
0.0
  0
LINE
  5
513
330
18
100
AcDbEntity
  8
Object
100
AcDbLine
 10
6.220852088523839
 20
4.448664540278923
 30
0.0
 11
6.220852088523839
 21
4.304664540278923
 31
0.0
  0
LINE
  5
514
330
18
100
AcDbEntity
  8
Object
100
AcDbLine
 10
6.220852088523839
 20
4.304664540278923
 30
0.0
 11
6.220852088523839
 21
4.168664540278924
 31
0.0
  0
LINE
  5
515
330
18
100
AcDbEntity
  8
Object
100
AcDbLine
 10
6.220852088523839
 20
4.168664540278924
 30
0.0
 11
6.220852088523839
 21
4.040664540278924
 31
0.0
  0
LINE
  5
516
330
18
100
AcDbEntity
  8
Object
100
AcDbLine
 10
6.220852088523839
 20
4.040664540278924
 30
0.0
 11
6.220852088523839
 21
3.922664540278923
 31
0.0
  0
LINE
  5
517
330
18
100
AcDbEntity
  8
Object
100
AcDbLine
 10
6.220852088523839
 20
3.922664540278923
 30
0.0
 11
6.220852088523839
 21
3.816664540278924
 31
0.0
  0
LINE
  5
518
330
18
100
AcDbEntity
  8
Object
100
AcDbLine
 10
6.220852088523839
 20
3.816664540278924
 30
0.0
 11
6.220852088523839
 21
3.721664540278923
 31
0.0
  0
LINE
  5
519
330
18
100
AcDbEntity
  8
Object
100
AcDbLine
 10
6.220852088523839
 20
3.721664540278923
 30
0.0
 11
6.220852088523839
 21
3.639664540278923
 31
0.0
  0
LINE
  5
51A
330
18
100
AcDbEntity
  8
Object
100
AcDbLine
 10
6.220852088523839
 20
3.456664540278923
 30
0.0
 11
6.220852088523839
 21
3.479664540278923
 31
0.0
  0
LINE
  5
51B
330
18
100
AcDbEntity
  8
Object
100
AcDbLine
 10
6.220852088523839
 20
3.639664540278923
 30
0.0
 11
6.220852088523839
 21
3.571664540278923
 31
0.0
  0
LINE
  5
51C
330
18
100
AcDbEntity
  8
Object
100
AcDbLine
 10
6.220852088523839
 20
3.571664540278923
 30
0.0
 11
6.220852088523839
 21
3.517664540278923
 31
0.0
  0
LINE
  5
51D
330
18
100
AcDbEntity
  8
Object
100
AcDbLine
 10
6.220852088523839
 20
3.517664540278923
 30
0.0
 11
6.220852088523839
 21
3.479664540278923
 31
0.0
  0
LINE
  5
51E
330
18
100
AcDbEntity
  8
Object
100
AcDbLine
 10
6.220852088523839
 20
3.456664540278923
 30
0.0
 11
6.220852088523839
 21
3.448664540278924
 31
0.0
  0
LINE
  5
51F
330
18
100
AcDbEntity
  8
Object
100
AcDbLine
 10
6.220852088523839
 20
3.448664540278924
 30
0.0
 11
6.23385208852384
 21
3.452664540278924
 31
0.0
  0
LINE
  5
520
330
18
100
AcDbEntity
  8
Object
100
AcDbLine
 10
6.23385208852384
 20
3.452664540278924
 30
0.0
 11
6.220852088523839
 21
3.448664540278924
 31
0.0
  0
LINE
  5
521
330
18
100
AcDbEntity
  8
Object
100
AcDbLine
 10
6.220852088523839
 20
5.068664540278923
 30
0.0
 11
6.23485208852384
 21
5.068664540278923
 31
0.0
  0
LINE
  5
522
330
18
100
AcDbEntity
  8
Object
100
AcDbLine
 10
6.24485208852384
 20
3.463664540278923
 30
0.0
 11
6.23385208852384
 21
3.452664540278924
 31
0.0
  0
LINE
  5
523
330
18
100
AcDbEntity
  8
Object
100
AcDbLine
 10
6.23385208852384
 20
3.452664540278924
 30
0.0
 11
6.24485208852384
 21
3.463664540278923
 31
0.0
  0
LINE
  5
524
330
18
100
AcDbEntity
  8
Object
100
AcDbLine
 10
6.23485208852384
 20
5.068664540278923
 30
0.0
 11
6.245852088523839
 21
5.068664540278923
 31
0.0
  0
LINE
  5
525
330
18
100
AcDbEntity
  8
Object
100
AcDbLine
 10
6.24985208852384
 20
4.912664540278924
 30
0.0
 11
6.24985208852384
 21
5.068664540278923
 31
0.0
  0
LINE
  5
526
330
18
100
AcDbEntity
  8
Object
100
AcDbLine
 10
6.24985208852384
 20
5.068664540278923
 30
0.0
 11
6.245852088523839
 21
5.068664540278923
 31
0.0
  0
LINE
  5
527
330
18
100
AcDbEntity
  8
Object
100
AcDbLine
 10
6.24985208852384
 20
4.607664540278924
 30
0.0
 11
6.24985208852384
 21
4.758664540278924
 31
0.0
  0
LINE
  5
528
330
18
100
AcDbEntity
  8
Object
100
AcDbLine
 10
6.24985208852384
 20
4.758664540278924
 30
0.0
 11
6.24985208852384
 21
4.912664540278924
 31
0.0
  0
LINE
  5
529
330
18
100
AcDbEntity
  8
Object
100
AcDbLine
 10
6.24985208852384
 20
4.607664540278924
 30
0.0
 11
6.24985208852384
 21
4.460664540278924
 31
0.0
  0
LINE
  5
52A
330
18
100
AcDbEntity
  8
Object
100
AcDbLine
 10
6.24985208852384
 20
4.460664540278924
 30
0.0
 11
6.24985208852384
 21
4.319664540278924
 31
0.0
  0
LINE
  5
52B
330
18
100
AcDbEntity
  8
Object
100
AcDbLine
 10
6.24985208852384
 20
4.060664540278923
 30
0.0
 11
6.24985208852384
 21
4.185664540278923
 31
0.0
  0
LINE
  5
52C
330
18
100
AcDbEntity
  8
Object
100
AcDbLine
 10
6.24985208852384
 20
4.185664540278923
 30
0.0
 11
6.24985208852384
 21
4.319664540278924
 31
0.0
  0
LINE
  5
52D
330
18
100
AcDbEntity
  8
Object
100
AcDbLine
 10
6.24985208852384
 20
3.840664540278924
 30
0.0
 11
6.24985208852384
 21
3.944664540278924
 31
0.0
  0
LINE
  5
52E
330
18
100
AcDbEntity
  8
Object
100
AcDbLine
 10
6.24985208852384
 20
3.944664540278924
 30
0.0
 11
6.24985208852384
 21
4.060664540278923
 31
0.0
  0
LINE
  5
52F
330
18
100
AcDbEntity
  8
Object
100
AcDbLine
 10
6.24985208852384
 20
3.666664540278923
 30
0.0
 11
6.24985208852384
 21
3.747664540278924
 31
0.0
  0
LINE
  5
530
330
18
100
AcDbEntity
  8
Object
100
AcDbLine
 10
6.24985208852384
 20
3.747664540278924
 30
0.0
 11
6.24985208852384
 21
3.840664540278924
 31
0.0
  0
LINE
  5
531
330
18
100
AcDbEntity
  8
Object
100
AcDbLine
 10
6.24985208852384
 20
3.487664540278924
 30
0.0
 11
6.24985208852384
 21
3.479664540278923
 31
0.0
  0
LINE
  5
532
330
18
100
AcDbEntity
  8
Object
100
AcDbLine
 10
6.24985208852384
 20
3.479664540278923
 30
0.0
 11
6.24485208852384
 21
3.463664540278923
 31
0.0
  0
LINE
  5
533
330
18
100
AcDbEntity
  8
Object
100
AcDbLine
 10
6.24985208852384
 20
3.487664540278924
 30
0.0
 11
6.24985208852384
 21
3.509664540278924
 31
0.0
  0
LINE
  5
534
330
18
100
AcDbEntity
  8
Object
100
AcDbLine
 10
6.24985208852384
 20
3.509664540278924
 30
0.0
 11
6.24985208852384
 21
3.547664540278923
 31
0.0
  0
LINE
  5
535
330
18
100
AcDbEntity
  8
Object
100
AcDbLine
 10
6.24985208852384
 20
3.547664540278923
 30
0.0
 11
6.24985208852384
 21
3.600664540278923
 31
0.0
  0
LINE
  5
536
330
18
100
AcDbEntity
  8
Object
100
AcDbLine
 10
6.24985208852384
 20
3.600664540278923
 30
0.0
 11
6.24985208852384
 21
3.666664540278923
 31
0.0
  0
LINE
  5
537
330
18
100
AcDbEntity
  8
Object
100
AcDbLine
 10
6.24985208852384
 20
6.650664540278923
 30
0.0
 11
6.24985208852384
 21
6.627664540278924
 31
0.0
  0
LINE
  5
538
330
18
100
AcDbEntity
  8
Object
100
AcDbLine
 10
6.24985208852384
 20
6.589664540278923
 30
0.0
 11
6.24985208852384
 21
6.536664540278923
 31
0.0
  0
LINE
  5
539
330
18
100
AcDbEntity
  8
Object
100
AcDbLine
 10
6.24985208852384
 20
6.536664540278923
 30
0.0
 11
6.24985208852384
 21
6.470664540278924
 31
0.0
  0
LINE
  5
53A
330
18
100
AcDbEntity
  8
Object
100
AcDbLine
 10
6.24985208852384
 20
6.470664540278924
 30
0.0
 11
6.24985208852384
 21
6.389664540278924
 31
0.0
  0
LINE
  5
53B
330
18
100
AcDbEntity
  8
Object
100
AcDbLine
 10
6.24985208852384
 20
6.297664540278923
 30
0.0
 11
6.24985208852384
 21
6.192664540278924
 31
0.0
  0
LINE
  5
53C
330
18
100
AcDbEntity
  8
Object
100
AcDbLine
 10
6.24985208852384
 20
6.076664540278923
 30
0.0
 11
6.24985208852384
 21
5.951664540278923
 31
0.0
  0
LINE
  5
53D
330
18
100
AcDbEntity
  8
Object
100
AcDbLine
 10
6.24985208852384
 20
5.817664540278924
 30
0.0
 11
6.24985208852384
 21
5.676664540278924
 31
0.0
  0
LINE
  5
53E
330
18
100
AcDbEntity
  8
Object
100
AcDbLine
 10
6.24985208852384
 20
5.529664540278924
 30
0.0
 11
6.24985208852384
 21
5.378664540278924
 31
0.0
  0
LINE
  5
53F
330
18
100
AcDbEntity
  8
Object
100
AcDbLine
 10
6.24985208852384
 20
5.224664540278924
 30
0.0
 11
6.24985208852384
 21
5.068664540278923
 31
0.0
  0
LINE
  5
540
330
18
100
AcDbEntity
  8
Object
100
AcDbLine
 10
6.24985208852384
 20
5.068664540278923
 30
0.0
 11
6.24985208852384
 21
4.912664540278924
 31
0.0
  0
LINE
  5
541
330
18
100
AcDbEntity
  8
Object
100
AcDbLine
 10
6.24985208852384
 20
4.758664540278924
 30
0.0
 11
6.24985208852384
 21
4.607664540278924
 31
0.0
  0
LINE
  5
542
330
18
100
AcDbEntity
  8
Object
100
AcDbLine
 10
6.24985208852384
 20
4.460664540278924
 30
0.0
 11
6.24985208852384
 21
4.319664540278924
 31
0.0
  0
LINE
  5
543
330
18
100
AcDbEntity
  8
Object
100
AcDbLine
 10
6.24985208852384
 20
4.185664540278923
 30
0.0
 11
6.24985208852384
 21
4.060664540278923
 31
0.0
  0
LINE
  5
544
330
18
100
AcDbEntity
  8
Object
100
AcDbLine
 10
6.24985208852384
 20
3.944664540278924
 30
0.0
 11
6.24985208852384
 21
3.840664540278924
 31
0.0
  0
LINE
  5
545
330
18
100
AcDbEntity
  8
Object
100
AcDbLine
 10
6.24985208852384
 20
3.747664540278924
 30
0.0
 11
6.24985208852384
 21
3.666664540278923
 31
0.0
  0
LINE
  5
546
330
18
100
AcDbEntity
  8
Object
100
AcDbLine
 10
6.24985208852384
 20
3.666664540278923
 30
0.0
 11
6.24985208852384
 21
3.600664540278923
 31
0.0
  0
LINE
  5
547
330
18
100
AcDbEntity
  8
Object
100
AcDbLine
 10
6.24985208852384
 20
3.547664540278923
 30
0.0
 11
6.24985208852384
 21
3.509664540278924
 31
0.0
  0
LINE
  5
548
330
18
100
AcDbEntity
  8
Object
100
AcDbLine
 10
6.24985208852384
 20
3.487664540278924
 30
0.0
 11
6.24985208852384
 21
3.479664540278923
 31
0.0
  0
LINE
  5
549
330
18
100
AcDbEntity
  8
Object
100
AcDbLine
 10
6.24985208852384
 20
5.378664540278924
 30
0.0
 11
6.24985208852384
 21
5.224664540278924
 31
0.0
  0
LINE
  5
54A
330
18
100
AcDbEntity
  8
Object
100
AcDbLine
 10
6.24985208852384
 20
5.676664540278924
 30
0.0
 11
6.24985208852384
 21
5.529664540278924
 31
0.0
  0
LINE
  5
54B
330
18
100
AcDbEntity
  8
Object
100
AcDbLine
 10
6.24985208852384
 20
5.951664540278923
 30
0.0
 11
6.24985208852384
 21
5.817664540278924
 31
0.0
  0
LINE
  5
54C
330
18
100
AcDbEntity
  8
Object
100
AcDbLine
 10
6.24985208852384
 20
6.192664540278924
 30
0.0
 11
6.24985208852384
 21
6.076664540278923
 31
0.0
  0
LINE
  5
54D
330
18
100
AcDbEntity
  8
Object
100
AcDbLine
 10
6.24985208852384
 20
6.389664540278924
 30
0.0
 11
6.24985208852384
 21
6.297664540278923
 31
0.0
  0
LINE
  5
54E
330
18
100
AcDbEntity
  8
Object
100
AcDbLine
 10
6.24985208852384
 20
6.627664540278924
 30
0.0
 11
6.24985208852384
 21
6.589664540278923
 31
0.0
  0
LINE
  5
54F
330
18
100
AcDbEntity
  8
Object
100
AcDbLine
 10
6.24985208852384
 20
6.657664540278924
 30
0.0
 11
6.24985208852384
 21
6.650664540278923
 31
0.0
  0
LINE
  5
550
330
18
100
AcDbEntity
  8
Object
100
AcDbLine
 10
6.24985208852384
 20
3.509664540278924
 30
0.0
 11
6.24985208852384
 21
3.487664540278924
 31
0.0
  0
LINE
  5
551
330
18
100
AcDbEntity
  8
Object
100
AcDbLine
 10
6.24985208852384
 20
3.600664540278923
 30
0.0
 11
6.24985208852384
 21
3.547664540278923
 31
0.0
  0
LINE
  5
552
330
18
100
AcDbEntity
  8
Object
100
AcDbLine
 10
6.24985208852384
 20
3.840664540278924
 30
0.0
 11
6.24985208852384
 21
3.747664540278924
 31
0.0
  0
LINE
  5
553
330
18
100
AcDbEntity
  8
Object
100
AcDbLine
 10
6.24985208852384
 20
4.060664540278923
 30
0.0
 11
6.24985208852384
 21
3.944664540278924
 31
0.0
  0
LINE
  5
554
330
18
100
AcDbEntity
  8
Object
100
AcDbLine
 10
6.24985208852384
 20
4.319664540278924
 30
0.0
 11
6.24985208852384
 21
4.185664540278923
 31
0.0
  0
LINE
  5
555
330
18
100
AcDbEntity
  8
Object
100
AcDbLine
 10
6.24985208852384
 20
4.607664540278924
 30
0.0
 11
6.24985208852384
 21
4.460664540278924
 31
0.0
  0
LINE
  5
556
330
18
100
AcDbEntity
  8
Object
100
AcDbLine
 10
6.24985208852384
 20
4.912664540278924
 30
0.0
 11
6.24985208852384
 21
4.758664540278924
 31
0.0
  0
LINE
  5
557
330
18
100
AcDbEntity
  8
Object
100
AcDbLine
 10
6.24985208852384
 20
6.413664540278924
 30
0.0
 11
6.24985208852384
 21
6.407664540278924
 31
0.0
  0
LINE
  5
558
330
18
100
AcDbEntity
  8
Object
100
AcDbLine
 10
6.24985208852384
 20
6.407664540278924
 30
0.0
 11
6.24985208852384
 21
6.413664540278924
 31
0.0
  0
LINE
  5
559
330
18
100
AcDbEntity
  8
Object
100
AcDbLine
 10
6.25685208852384
 20
5.068664540278923
 30
0.0
 11
6.24985208852384
 21
5.068664540278923
 31
0.0
  0
LINE
  5
55A
330
18
100
AcDbEntity
  8
Object
100
AcDbLine
 10
6.24985208852384
 20
6.407664540278924
 30
0.0
 11
6.26085208852384
 21
6.379664540278923
 31
0.0
  0
LINE
  5
55B
330
18
100
AcDbEntity
  8
Object
100
AcDbLine
 10
6.27785208852384
 20
5.068664540278923
 30
0.0
 11
6.25685208852384
 21
5.068664540278923
 31
0.0
  0
LINE
  5
55C
330
18
100
AcDbEntity
  8
Object
100
AcDbLine
 10
6.26085208852384
 20
6.379664540278923
 30
0.0
 11
6.28285208852384
 21
6.359664540278924
 31
0.0
  0
LINE
  5
55D
330
18
100
AcDbEntity
  8
Object
100
AcDbLine
 10
6.28285208852384
 20
6.359664540278924
 30
0.0
 11
6.306852088523839
 21
6.351664540278924
 31
0.0
  0
LINE
  5
55E
330
18
100
AcDbEntity
  8
Object
100
AcDbLine
 10
6.306852088523839
 20
5.068664540278923
 30
0.0
 11
6.27785208852384
 21
5.068664540278923
 31
0.0
  0
LINE
  5
55F
330
18
100
AcDbEntity
  8
Object
100
AcDbLine
 10
6.28285208852384
 20
6.359664540278924
 30
0.0
 11
6.306852088523839
 21
6.351664540278924
 31
0.0
  0
LINE
  5
560
330
18
100
AcDbEntity
  8
Object
100
AcDbLine
 10
6.24985208852384
 20
3.729664540278924
 30
0.0
 11
6.24985208852384
 21
3.723664540278924
 31
0.0
  0
LINE
  5
561
330
18
100
AcDbEntity
  8
Object
100
AcDbLine
 10
6.24985208852384
 20
3.723664540278924
 30
0.0
 11
6.24985208852384
 21
3.729664540278924
 31
0.0
  0
LINE
  5
562
330
18
100
AcDbEntity
  8
Object
100
AcDbLine
 10
6.24985208852384
 20
3.729664540278924
 30
0.0
 11
6.26085208852384
 21
3.757664540278923
 31
0.0
  0
LINE
  5
563
330
18
100
AcDbEntity
  8
Object
100
AcDbLine
 10
6.26085208852384
 20
3.757664540278923
 30
0.0
 11
6.28285208852384
 21
3.777664540278924
 31
0.0
  0
LINE
  5
564
330
18
100
AcDbEntity
  8
Object
100
AcDbLine
 10
6.28285208852384
 20
3.777664540278924
 30
0.0
 11
6.306852088523839
 21
3.785664540278923
 31
0.0
  0
LINE
  5
565
330
18
100
AcDbEntity
  8
Object
100
AcDbLine
 10
6.306852088523839
 20
3.785664540278923
 30
0.0
 11
6.28285208852384
 21
3.777664540278924
 31
0.0
  0
LINE
  5
566
330
18
100
AcDbEntity
  8
Object
100
AcDbLine
 10
7.41985208852384
 20
6.248664540278924
 30
0.0
 11
7.41985208852384
 21
6.226664540278924
 31
0.0
  0
LINE
  5
567
330
18
100
AcDbEntity
  8
Object
100
AcDbLine
 10
6.306852088523839
 20
6.336664540278923
 30
0.0
 11
6.306852088523839
 21
6.306664540278924
 31
0.0
  0
LINE
  5
568
330
18
100
AcDbEntity
  8
Object
100
AcDbLine
 10
6.306852088523839
 20
6.306664540278924
 30
0.0
 11
6.306852088523839
 21
6.262664540278923
 31
0.0
  0
LINE
  5
569
330
18
100
AcDbEntity
  8
Object
100
AcDbLine
 10
7.41985208852384
 20
6.226664540278924
 30
0.0
 11
7.41985208852384
 21
6.189664540278924
 31
0.0
  0
LINE
  5
56A
330
18
100
AcDbEntity
  8
Object
100
AcDbLine
 10
6.306852088523839
 20
6.336664540278923
 30
0.0
 11
6.306852088523839
 21
6.351664540278924
 31
0.0
  0
LINE
  5
56B
330
18
100
AcDbEntity
  8
Object
100
AcDbLine
 10
6.306852088523839
 20
6.351664540278924
 30
0.0
 11
7.41985208852384
 21
6.255664540278924
 31
0.0
  0
LINE
  5
56C
330
18
100
AcDbEntity
  8
Object
100
AcDbLine
 10
7.41985208852384
 20
6.255664540278924
 30
0.0
 11
7.41985208852384
 21
6.248664540278924
 31
0.0
  0
LINE
  5
56D
330
18
100
AcDbEntity
  8
Object
100
AcDbLine
 10
7.41985208852384
 20
6.189664540278924
 30
0.0
 11
7.41985208852384
 21
6.138664540278924
 31
0.0
  0
LINE
  5
56E
330
18
100
AcDbEntity
  8
Object
100
AcDbLine
 10
6.306852088523839
 20
6.203664540278923
 30
0.0
 11
6.306852088523839
 21
6.262664540278923
 31
0.0
  0
LINE
  5
56F
330
18
100
AcDbEntity
  8
Object
100
AcDbLine
 10
7.41985208852384
 20
6.073664540278923
 30
0.0
 11
7.41985208852384
 21
5.996664540278923
 31
0.0
  0
LINE
  5
570
330
18
100
AcDbEntity
  8
Object
100
AcDbLine
 10
6.306852088523839
 20
6.047664540278923
 30
0.0
 11
6.306852088523839
 21
6.131664540278924
 31
0.0
  0
LINE
  5
571
330
18
100
AcDbEntity
  8
Object
100
AcDbLine
 10
6.306852088523839
 20
6.131664540278924
 30
0.0
 11
6.306852088523839
 21
6.203664540278923
 31
0.0
  0
LINE
  5
572
330
18
100
AcDbEntity
  8
Object
100
AcDbLine
 10
7.41985208852384
 20
6.138664540278924
 30
0.0
 11
7.41985208852384
 21
6.073664540278923
 31
0.0
  0
LINE
  5
573
330
18
100
AcDbEntity
  8
Object
100
AcDbLine
 10
7.41985208852384
 20
5.908664540278923
 30
0.0
 11
7.41985208852384
 21
5.808664540278924
 31
0.0
  0
LINE
  5
574
330
18
100
AcDbEntity
  8
Object
100
AcDbLine
 10
6.306852088523839
 20
5.846664540278924
 30
0.0
 11
6.306852088523839
 21
5.952664540278924
 31
0.0
  0
LINE
  5
575
330
18
100
AcDbEntity
  8
Object
100
AcDbLine
 10
6.306852088523839
 20
5.952664540278924
 30
0.0
 11
6.306852088523839
 21
6.047664540278923
 31
0.0
  0
LINE
  5
576
330
18
100
AcDbEntity
  8
Object
100
AcDbLine
 10
7.41985208852384
 20
5.996664540278923
 30
0.0
 11
7.41985208852384
 21
5.908664540278923
 31
0.0
  0
LINE
  5
577
330
18
100
AcDbEntity
  8
Object
100
AcDbLine
 10
7.41985208852384
 20
5.700664540278924
 30
0.0
 11
7.41985208852384
 21
5.583664540278924
 31
0.0
  0
LINE
  5
578
330
18
100
AcDbEntity
  8
Object
100
AcDbLine
 10
6.306852088523839
 20
5.607664540278924
 30
0.0
 11
6.306852088523839
 21
5.730664540278923
 31
0.0
  0
LINE
  5
579
330
18
100
AcDbEntity
  8
Object
100
AcDbLine
 10
6.306852088523839
 20
5.730664540278923
 30
0.0
 11
6.306852088523839
 21
5.846664540278924
 31
0.0
  0
LINE
  5
57A
330
18
100
AcDbEntity
  8
Object
100
AcDbLine
 10
7.41985208852384
 20
5.808664540278924
 30
0.0
 11
7.41985208852384
 21
5.700664540278924
 31
0.0
  0
LINE
  5
57B
330
18
100
AcDbEntity
  8
Object
100
AcDbLine
 10
6.306852088523839
 20
5.478664540278924
 30
0.0
 11
6.306852088523839
 21
5.607664540278924
 31
0.0
  0
LINE
  5
57C
330
18
100
AcDbEntity
  8
Object
100
AcDbLine
 10
7.41985208852384
 20
5.583664540278924
 30
0.0
 11
7.41985208852384
 21
5.460664540278924
 31
0.0
  0
LINE
  5
57D
330
18
100
AcDbEntity
  8
Object
100
AcDbLine
 10
7.41985208852384
 20
5.460664540278924
 30
0.0
 11
7.41985208852384
 21
5.332664540278924
 31
0.0
  0
LINE
  5
57E
330
18
100
AcDbEntity
  8
Object
100
AcDbLine
 10
6.306852088523839
 20
5.478664540278924
 30
0.0
 11
6.306852088523839
 21
5.344664540278923
 31
0.0
  0
LINE
  5
57F
330
18
100
AcDbEntity
  8
Object
100
AcDbLine
 10
6.306852088523839
 20
5.344664540278923
 30
0.0
 11
6.306852088523839
 21
5.207664540278924
 31
0.0
  0
LINE
  5
580
330
18
100
AcDbEntity
  8
Object
100
AcDbLine
 10
7.41985208852384
 20
5.332664540278924
 30
0.0
 11
7.41985208852384
 21
5.201664540278923
 31
0.0
  0
LINE
  5
581
330
18
100
AcDbEntity
  8
Object
100
AcDbLine
 10
7.41985208852384
 20
5.201664540278923
 30
0.0
 11
7.41985208852384
 21
5.068664540278923
 31
0.0
  0
LINE
  5
582
330
18
100
AcDbEntity
  8
Object
100
AcDbLine
 10
6.306852088523839
 20
5.068664540278923
 30
0.0
 11
6.306852088523839
 21
5.207664540278924
 31
0.0
  0
LINE
  5
583
330
18
100
AcDbEntity
  8
Object
100
AcDbLine
 10
6.306852088523839
 20
6.351664540278924
 30
0.0
 11
7.41985208852384
 21
6.255664540278924
 31
0.0
  0
LINE
  5
584
330
18
100
AcDbEntity
  8
Object
100
AcDbLine
 10
7.41985208852384
 20
4.935664540278923
 30
0.0
 11
7.41985208852384
 21
5.068664540278923
 31
0.0
  0
LINE
  5
585
330
18
100
AcDbEntity
  8
Object
100
AcDbLine
 10
7.41985208852384
 20
5.068664540278923
 30
0.0
 11
6.306852088523839
 21
5.068664540278923
 31
0.0
  0
LINE
  5
586
330
18
100
AcDbEntity
  8
Object
100
AcDbLine
 10
6.306852088523839
 20
5.068664540278923
 30
0.0
 11
6.306852088523839
 21
4.929664540278923
 31
0.0
  0
LINE
  5
587
330
18
100
AcDbEntity
  8
Object
100
AcDbLine
 10
6.306852088523839
 20
4.929664540278923
 30
0.0
 11
6.306852088523839
 21
4.792664540278924
 31
0.0
  0
LINE
  5
588
330
18
100
AcDbEntity
  8
Object
100
AcDbLine
 10
7.41985208852384
 20
4.804664540278923
 30
0.0
 11
7.41985208852384
 21
4.676664540278923
 31
0.0
  0
LINE
  5
589
330
18
100
AcDbEntity
  8
Object
100
AcDbLine
 10
6.306852088523839
 20
4.658664540278924
 30
0.0
 11
6.306852088523839
 21
4.792664540278924
 31
0.0
  0
LINE
  5
58A
330
18
100
AcDbEntity
  8
Object
100
AcDbLine
 10
7.41985208852384
 20
4.935664540278923
 30
0.0
 11
7.41985208852384
 21
4.804664540278923
 31
0.0
  0
LINE
  5
58B
330
18
100
AcDbEntity
  8
Object
100
AcDbLine
 10
6.306852088523839
 20
4.529664540278924
 30
0.0
 11
6.306852088523839
 21
4.658664540278924
 31
0.0
  0
LINE
  5
58C
330
18
100
AcDbEntity
  8
Object
100
AcDbLine
 10
7.41985208852384
 20
4.553664540278924
 30
0.0
 11
7.41985208852384
 21
4.436664540278924
 31
0.0
  0
LINE
  5
58D
330
18
100
AcDbEntity
  8
Object
100
AcDbLine
 10
6.306852088523839
 20
4.406664540278923
 30
0.0
 11
6.306852088523839
 21
4.529664540278924
 31
0.0
  0
LINE
  5
58E
330
18
100
AcDbEntity
  8
Object
100
AcDbLine
 10
7.41985208852384
 20
4.676664540278923
 30
0.0
 11
7.41985208852384
 21
4.553664540278924
 31
0.0
  0
LINE
  5
58F
330
18
100
AcDbEntity
  8
Object
100
AcDbLine
 10
6.306852088523839
 20
4.291664540278923
 30
0.0
 11
6.306852088523839
 21
4.406664540278923
 31
0.0
  0
LINE
  5
590
330
18
100
AcDbEntity
  8
Object
100
AcDbLine
 10
7.41985208852384
 20
4.436664540278924
 30
0.0
 11
7.41985208852384
 21
4.328664540278924
 31
0.0
  0
LINE
  5
591
330
18
100
AcDbEntity
  8
Object
100
AcDbLine
 10
7.41985208852384
 20
4.328664540278924
 30
0.0
 11
7.41985208852384
 21
4.228664540278924
 31
0.0
  0
LINE
  5
592
330
18
100
AcDbEntity
  8
Object
100
AcDbLine
 10
6.306852088523839
 20
4.089664540278923
 30
0.0
 11
6.306852088523839
 21
4.185664540278923
 31
0.0
  0
LINE
  5
593
330
18
100
AcDbEntity
  8
Object
100
AcDbLine
 10
7.41985208852384
 20
4.228664540278924
 30
0.0
 11
7.41985208852384
 21
4.140664540278923
 31
0.0
  0
LINE
  5
594
330
18
100
AcDbEntity
  8
Object
100
AcDbLine
 10
6.306852088523839
 20
4.185664540278923
 30
0.0
 11
6.306852088523839
 21
4.291664540278923
 31
0.0
  0
LINE
  5
595
330
18
100
AcDbEntity
  8
Object
100
AcDbLine
 10
7.41985208852384
 20
4.140664540278923
 30
0.0
 11
7.41985208852384
 21
4.063664540278923
 31
0.0
  0
LINE
  5
596
330
18
100
AcDbEntity
  8
Object
100
AcDbLine
 10
6.306852088523839
 20
3.933664540278924
 30
0.0
 11
6.306852088523839
 21
4.005664540278924
 31
0.0
  0
LINE
  5
597
330
18
100
AcDbEntity
  8
Object
100
AcDbLine
 10
7.41985208852384
 20
3.998664540278924
 30
0.0
 11
7.41985208852384
 21
3.947664540278924
 31
0.0
  0
LINE
  5
598
330
18
100
AcDbEntity
  8
Object
100
AcDbLine
 10
6.306852088523839
 20
3.830664540278923
 30
0.0
 11
6.306852088523839
 21
3.875664540278924
 31
0.0
  0
LINE
  5
599
330
18
100
AcDbEntity
  8
Object
100
AcDbLine
 10
7.41985208852384
 20
3.947664540278924
 30
0.0
 11
7.41985208852384
 21
3.910664540278923
 31
0.0
  0
LINE
  5
59A
330
18
100
AcDbEntity
  8
Object
100
AcDbLine
 10
6.306852088523839
 20
3.875664540278924
 30
0.0
 11
6.306852088523839
 21
3.933664540278924
 31
0.0
  0
LINE
  5
59B
330
18
100
AcDbEntity
  8
Object
100
AcDbLine
 10
7.41985208852384
 20
4.063664540278923
 30
0.0
 11
7.41985208852384
 21
3.998664540278924
 31
0.0
  0
LINE
  5
59C
330
18
100
AcDbEntity
  8
Object
100
AcDbLine
 10
6.306852088523839
 20
4.005664540278924
 30
0.0
 11
6.306852088523839
 21
4.089664540278923
 31
0.0
  0
LINE
  5
59D
330
18
100
AcDbEntity
  8
Object
100
AcDbLine
 10
7.41985208852384
 20
3.910664540278923
 30
0.0
 11
7.41985208852384
 21
3.888664540278924
 31
0.0
  0
LINE
  5
59E
330
18
100
AcDbEntity
  8
Object
100
AcDbLine
 10
6.306852088523839
 20
3.800664540278924
 30
0.0
 11
6.306852088523839
 21
3.785664540278923
 31
0.0
  0
LINE
  5
59F
330
18
100
AcDbEntity
  8
Object
100
AcDbLine
 10
6.306852088523839
 20
3.785664540278923
 30
0.0
 11
7.41985208852384
 21
3.881664540278923
 31
0.0
  0
LINE
  5
5A0
330
18
100
AcDbEntity
  8
Object
100
AcDbLine
 10
7.41985208852384
 20
3.881664540278923
 30
0.0
 11
7.41985208852384
 21
3.888664540278924
 31
0.0
  0
LINE
  5
5A1
330
18
100
AcDbEntity
  8
Object
100
AcDbLine
 10
6.306852088523839
 20
3.800664540278924
 30
0.0
 11
6.306852088523839
 21
3.830664540278923
 31
0.0
  0
LINE
  5
5A2
330
18
100
AcDbEntity
  8
Object
100
AcDbLine
 10
7.41985208852384
 20
3.881664540278923
 30
0.0
 11
6.306852088523839
 21
3.785664540278923
 31
0.0
  0
LINE
  5
5A3
330
18
100
AcDbEntity
  8
Object
100
AcDbLine
 10
7.41985208852384
 20
6.255664540278924
 30
0.0
 11
7.41985208852384
 21
6.248664540278924
 31
0.0
  0
LINE
  5
5A4
330
18
100
AcDbEntity
  8
Object
100
AcDbLine
 10
7.41985208852384
 20
6.226664540278924
 30
0.0
 11
7.41985208852384
 21
6.189664540278924
 31
0.0
  0
LINE
  5
5A5
330
18
100
AcDbEntity
  8
Object
100
AcDbLine
 10
7.41985208852384
 20
6.138664540278924
 30
0.0
 11
7.41985208852384
 21
6.073664540278923
 31
0.0
  0
LINE
  5
5A6
330
18
100
AcDbEntity
  8
Object
100
AcDbLine
 10
7.41985208852384
 20
5.996664540278923
 30
0.0
 11
7.41985208852384
 21
5.908664540278923
 31
0.0
  0
LINE
  5
5A7
330
18
100
AcDbEntity
  8
Object
100
AcDbLine
 10
7.41985208852384
 20
5.808664540278924
 30
0.0
 11
7.41985208852384
 21
5.700664540278924
 31
0.0
  0
LINE
  5
5A8
330
18
100
AcDbEntity
  8
Object
100
AcDbLine
 10
7.41985208852384
 20
5.583664540278924
 30
0.0
 11
7.41985208852384
 21
5.460664540278924
 31
0.0
  0
LINE
  5
5A9
330
18
100
AcDbEntity
  8
Object
100
AcDbLine
 10
7.41985208852384
 20
5.332664540278924
 30
0.0
 11
7.41985208852384
 21
5.201664540278923
 31
0.0
  0
LINE
  5
5AA
330
18
100
AcDbEntity
  8
Object
100
AcDbLine
 10
7.41985208852384
 20
5.201664540278923
 30
0.0
 11
7.41985208852384
 21
5.068664540278923
 31
0.0
  0
LINE
  5
5AB
330
18
100
AcDbEntity
  8
Object
100
AcDbLine
 10
7.41985208852384
 20
5.068664540278923
 30
0.0
 11
7.41985208852384
 21
4.935664540278923
 31
0.0
  0
LINE
  5
5AC
330
18
100
AcDbEntity
  8
Object
100
AcDbLine
 10
7.41985208852384
 20
4.804664540278923
 30
0.0
 11
7.41985208852384
 21
4.676664540278923
 31
0.0
  0
LINE
  5
5AD
330
18
100
AcDbEntity
  8
Object
100
AcDbLine
 10
7.41985208852384
 20
4.553664540278924
 30
0.0
 11
7.41985208852384
 21
4.436664540278924
 31
0.0
  0
LINE
  5
5AE
330
18
100
AcDbEntity
  8
Object
100
AcDbLine
 10
7.41985208852384
 20
4.328664540278924
 30
0.0
 11
7.41985208852384
 21
4.228664540278924
 31
0.0
  0
LINE
  5
5AF
330
18
100
AcDbEntity
  8
Object
100
AcDbLine
 10
7.41985208852384
 20
4.140664540278923
 30
0.0
 11
7.41985208852384
 21
4.063664540278923
 31
0.0
  0
LINE
  5
5B0
330
18
100
AcDbEntity
  8
Object
100
AcDbLine
 10
7.41985208852384
 20
3.998664540278924
 30
0.0
 11
7.41985208852384
 21
3.947664540278924
 31
0.0
  0
LINE
  5
5B1
330
18
100
AcDbEntity
  8
Object
100
AcDbLine
 10
7.41985208852384
 20
3.910664540278923
 30
0.0
 11
7.41985208852384
 21
3.888664540278924
 31
0.0
  0
LINE
  5
5B2
330
18
100
AcDbEntity
  8
Object
100
AcDbLine
 10
7.41985208852384
 20
5.460664540278924
 30
0.0
 11
7.41985208852384
 21
5.332664540278924
 31
0.0
  0
LINE
  5
5B3
330
18
100
AcDbEntity
  8
Object
100
AcDbLine
 10
7.41985208852384
 20
5.700664540278924
 30
0.0
 11
7.41985208852384
 21
5.583664540278924
 31
0.0
  0
LINE
  5
5B4
330
18
100
AcDbEntity
  8
Object
100
AcDbLine
 10
7.41985208852384
 20
5.908664540278923
 30
0.0
 11
7.41985208852384
 21
5.808664540278924
 31
0.0
  0
LINE
  5
5B5
330
18
100
AcDbEntity
  8
Object
100
AcDbLine
 10
7.41985208852384
 20
6.073664540278923
 30
0.0
 11
7.41985208852384
 21
5.996664540278923
 31
0.0
  0
LINE
  5
5B6
330
18
100
AcDbEntity
  8
Object
100
AcDbLine
 10
7.41985208852384
 20
6.189664540278924
 30
0.0
 11
7.41985208852384
 21
6.138664540278924
 31
0.0
  0
LINE
  5
5B7
330
18
100
AcDbEntity
  8
Object
100
AcDbLine
 10
7.41985208852384
 20
6.248664540278924
 30
0.0
 11
7.41985208852384
 21
6.226664540278924
 31
0.0
  0
LINE
  5
5B8
330
18
100
AcDbEntity
  8
Object
100
AcDbLine
 10
7.41985208852384
 20
3.888664540278924
 30
0.0
 11
7.41985208852384
 21
3.881664540278923
 31
0.0
  0
LINE
  5
5B9
330
18
100
AcDbEntity
  8
Object
100
AcDbLine
 10
7.41985208852384
 20
3.947664540278924
 30
0.0
 11
7.41985208852384
 21
3.910664540278923
 31
0.0
  0
LINE
  5
5BA
330
18
100
AcDbEntity
  8
Object
100
AcDbLine
 10
7.41985208852384
 20
4.063664540278923
 30
0.0
 11
7.41985208852384
 21
3.998664540278924
 31
0.0
  0
LINE
  5
5BB
330
18
100
AcDbEntity
  8
Object
100
AcDbLine
 10
7.41985208852384
 20
4.228664540278924
 30
0.0
 11
7.41985208852384
 21
4.140664540278923
 31
0.0
  0
LINE
  5
5BC
330
18
100
AcDbEntity
  8
Object
100
AcDbLine
 10
7.41985208852384
 20
4.436664540278924
 30
0.0
 11
7.41985208852384
 21
4.328664540278924
 31
0.0
  0
LINE
  5
5BD
330
18
100
AcDbEntity
  8
Object
100
AcDbLine
 10
7.41985208852384
 20
4.676664540278923
 30
0.0
 11
7.41985208852384
 21
4.553664540278924
 31
0.0
  0
LINE
  5
5BE
330
18
100
AcDbEntity
  8
Object
100
AcDbLine
 10
7.41985208852384
 20
4.935664540278923
 30
0.0
 11
7.41985208852384
 21
4.804664540278923
 31
0.0
  0
DIMENSION
  5
5BF
330
18
100
AcDbEntity
  8
Dimension
100
AcDbDimension
  2
*D0
 10
7.41985208852384
 20
7.346809641904846
 30
0.0
 11
6.79485208852384
 21
7.346809641904846
 31
0.0
 70
    32
 71
     5
 42
1.25
  3
STANDARD
100
AcDbAlignedDimension
 13
6.16985208852384
 23
6.693664540278923
 33
0.0
 14
7.41985208852384
 24
6.255664540278924
 34
0.0
100
AcDbRotatedDimension
  0
DIMENSION
  5
623
330
18
100
AcDbEntity
  8
Dimension
100
AcDbDimension
  2
*D1
 10
4.510681756475358
 20
7.346809641904846
 30
0.0
 11
2.885681756475358
 21
7.346809641904846
 31
0.0
 70
    32
 71
     5
 42
3.25
  3
STANDARD
100
AcDbAlignedDimension
 13
1.260681756475357
 23
5.068664540278923
 33
0.0
 14
4.510681756475358
 24
5.068664540278923
 34
0.0
100
AcDbRotatedDimension
  0
ENDSEC
  0
SECTION
  2
OBJECTS
  0
DICTIONARY
  5
C
330
0
100
AcDbDictionary
281
     1
  3
ACAD_COLOR
350
E0
  3
ACAD_GROUP
350
D
  3
ACAD_LAYOUT
350
E3
  3
ACAD_MATERIAL
350
DF
  3
ACAD_MLINESTYLE
350
1B
  3
ACAD_PLOTSETTINGS
350
E4
  3
ACAD_PLOTSTYLENAME
350
DD
  3
ACAD_TABLESTYLE
350
E1
  3
ACDBHEADERROUNDTRIPXREC
350
651
  3
AcDbVariableDictionary
350
FD
  3
ASE_INDEX_DICTIONARY
350
11B
  0
DICTIONARY
  5
126
330
2
100
AcDbDictionary
280
     1
281
     1
  3
ACAD_LAYERFILTERS
360
25B
  3
ACLYDICTIONARY
360
25A
  0
DICTIONARY
  5
E0
102
{ACAD_REACTORS
330
C
102
}
330
C
100
AcDbDictionary
281
     1
  0
DICTIONARY
  5
D
102
{ACAD_REACTORS
330
C
102
}
330
C
100
AcDbDictionary
281
     1
  0
DICTIONARY
  5
E3
102
{ACAD_REACTORS
330
C
102
}
330
C
100
AcDbDictionary
281
     1
  3
Layout1
350
E6
  3
Model
350
E5
  0
DICTIONARY
  5
DF
102
{ACAD_REACTORS
330
C
102
}
330
C
100
AcDbDictionary
281
     1
  0
DICTIONARY
  5
1B
102
{ACAD_REACTORS
330
C
102
}
330
C
100
AcDbDictionary
281
     1
  3
STANDARD
350
1C
  0
DICTIONARY
  5
E4
102
{ACAD_REACTORS
330
C
102
}
330
C
100
AcDbDictionary
281
     1
  0
ACDBDICTIONARYWDFLT
  5
DD
102
{ACAD_REACTORS
330
C
102
}
330
C
100
AcDbDictionary
281
     1
  3
Normal
350
DE
100
AcDbDictionaryWithDefault
340
DE
  0
DICTIONARY
  5
E1
102
{ACAD_REACTORS
330
C
102
}
330
C
100
AcDbDictionary
281
     1
  3
Standard
350
E2
  0
DICTIONARY
  5
651
102
{ACAD_REACTORS
330
C
102
}
330
C
100
AcDbDictionary
281
     1
  0
DICTIONARY
  5
FD
102
{ACAD_REACTORS
330
C
102
}
330
C
100
AcDbDictionary
281
     1
  3
CTABLESTYLE
350
FE
  3
DIMASSOC
350
64E
  3
PROJECTNAME
350
64F
  0
DICTIONARY
  5
11B
102
{ACAD_REACTORS
330
C
102
}
330
C
100
AcDbDictionary
281
     1
  3
ASEBlockHierarchyIndexRecord
350
11C
1001
DCO15
1040
1529147986.867
  0
DICTIONARY
  5
25B
102
{ACAD_REACTORS
330
126
102
}
330
126
100
AcDbDictionary
281
     1
  0
DICTIONARY
  5
25A
102
{ACAD_REACTORS
330
126
102
}
330
126
100
AcDbDictionary
281
     1
1001
ACAD
1000
<All
  0
LAYOUT
  5
E6
102
{ACAD_XDICTIONARY
360
654
102
}
102
{ACAD_REACTORS
330
E3
102
}
330
E3
100
AcDbPlotSettings
  1

  2
\\RSENG\RSplotter4NT
  4

  6

 40
0.0
 41
0.0
 42
0.0
 43
0.0
 44
0.0
 45
0.0
 46
0.0
 47
0.0
 48
0.0
 49
0.0
140
0.0
141
0.0
142
1.0
143
1.0
 70
   688
 72
     0
 73
     0
 74
     5
  7
Symantec Fax Starter Edition
 75
    16
147
1.0
148
0.0
149
0.0
100
AcDbLayout
  1
Layout1
 70
     1
 71
     1
 10
0.0
 20
0.0
 11
12.0
 21
9.0
 12
0.0
 22
0.0
 32
0.0
 14
1.000000000000000E+20
 24
1.000000000000000E+20
 34
1.000000000000000E+20
 15
-1.000000000000000E+20
 25
-1.000000000000000E+20
 35
-1.000000000000000E+20
146
0.0
 13
0.0
 23
0.0
 33
0.0
 16
1.0
 26
0.0
 36
0.0
 17
0.0
 27
1.0
 37
0.0
 76
     0
330
15
  0
LAYOUT
  5
E5
102
{ACAD_XDICTIONARY
360
652
102
}
102
{ACAD_REACTORS
330
E3
102
}
330
E3
100
AcDbPlotSettings
  1

  2
\\RSENG\RSplotter4NT
  4

  6

 40
0.0
 41
0.0
 42
0.0
 43
0.0
 44
0.0
 45
0.0
 46
0.0
 47
0.0
 48
0.0
 49
0.0
140
0.0
141
0.0
142
1.0
143
1.0
 70
  1712
 72
     0
 73
     0
 74
     0
  7
Symantec Fax Starter Edition
 75
     0
147
1.0
148
0.0
149
0.0
100
AcDbLayout
  1
Model
 70
     1
 71
     0
 10
0.0
 20
0.0
 11
12.0
 21
9.0
 12
0.0
 22
0.0
 32
0.0
 14
0.0
 24
0.0
 34
0.0
 15
0.0
 25
0.0
 35
0.0
146
0.0
 13
0.0
 23
0.0
 33
0.0
 16
1.0
 26
0.0
 36
0.0
 17
0.0
 27
1.0
 37
0.0
 76
     0
330
18
  0
MLINESTYLE
  5
1C
102
{ACAD_REACTORS
330
1B
102
}
330
1B
100
AcDbMlineStyle
  2
STANDARD
 70
     0
  3

 62
   256
 51
90.0
 52
90.0
 71
     2
 49
0.5
 62
   256
  6
BYLAYER
 49
-0.5
 62
   256
  6
BYLAYER
  0
ACDBPLACEHOLDER
  5
DE
102
{ACAD_REACTORS
330
DD
102
}
330
DD
  0
TABLESTYLE
  5
E2
102
{ACAD_REACTORS
330
E1
102
}
330
E1
100
AcDbTableStyle
  3
Standard
 70
     0
 71
     0
 40
0.06
 41
0.06
280
     0
281
     0
  7
STANDARD
140
0.18
170
     2
 62
     0
 63
     7
283
     0
274
    -2
284
     1
 64
     0
275
    -2
285
     1
 65
     0
276
    -2
286
     1
 66
     0
277
    -2
287
     1
 67
     0
278
    -2
288
     1
 68
     0
279
    -2
289
     1
 69
     0
  7
STANDARD
140
0.25
170
     5
 62
     0
 63
     7
283
     0
274
    -2
284
     1
 64
     0
275
    -2
285
     1
 65
     0
276
    -2
286
     1
 66
     0
277
    -2
287
     1
 67
     0
278
    -2
288
     1
 68
     0
279
    -2
289
     1
 69
     0
  7
STANDARD
140
0.18
170
     5
 62
     0
 63
     7
283
     0
274
    -2
284
     1
 64
     0
275
    -2
285
     1
 65
     0
276
    -2
286
     1
 66
     0
277
    -2
287
     1
 67
     0
278
    -2
288
     1
 68
     0
279
    -2
289
     1
 69
     0
  0
DICTIONARYVAR
  5
FE
102
{ACAD_REACTORS
330
FD
102
}
330
FD
100
DictionaryVariables
280
     0
  1
STANDARD
  0
DICTIONARYVAR
  5
64E
102
{ACAD_REACTORS
330
FD
102
}
330
FD
100
DictionaryVariables
280
     0
  1
1
  0
DICTIONARYVAR
  5
64F
102
{ACAD_REACTORS
330
FD
102
}
330
FD
100
DictionaryVariables
280
     0
  1

  0
XRECORD
  5
11C
102
{ACAD_REACTORS
330
11B
102
}
330
11B
100
AcDbXrecord
280
     1
  0
DICTIONARY
  5
654
330
E6
100
AcDbDictionary
280
     1
281
     1
  3
ACAD_XREC_ROUNDTRIP
360
655
  0
DICTIONARY
  5
652
330
E5
100
AcDbDictionary
280
     1
281
     1
  3
ACAD_XREC_ROUNDTRIP
360
653
  0
XRECORD
  5
655
102
{ACAD_REACTORS
330
654
102
}
330
654
100
AcDbXrecord
280
     1
102
SHADEPLOT
 70
     0
102
SHADEPLOTRESLEVEL
 70
     2
102
SHADEPLOTCUSTOMDPI
 70
   300
  0
XRECORD
  5
653
102
{ACAD_REACTORS
330
652
102
}
330
652
100
AcDbXrecord
280
     1
102
SHADEPLOT
 70
     0
102
SHADEPLOTRESLEVEL
 70
     2
102
SHADEPLOTCUSTOMDPI
 70
   300
  0
ENDSEC
  0
EOF
